<?xml version="1.0" standalone="no"?>
<!DOCTYPE svg PUBLIC "-//W3C//DTD SVG 1.1//EN" "http://www.w3.org/Graphics/SVG/1.1/DTD/svg11.dtd" >
<svg xmlns="http://www.w3.org/2000/svg" version="1.1">
<metadata>
Created by FontForge 20170910 at Thu Jun 25 23:17:45 2009
 By Jimmy Wärting
Copyright (c) 2009 by Oleg Zhuravlev, Gladkikh Ivan. All rights reserved.
</metadata>
<defs>
<font id="Bender-Black" horiz-adv-x="645" >
  <font-face 
    font-family="Bender"
    font-weight="900"
    font-stretch="normal"
    units-per-em="1000"
    panose-1="2 0 5 3 3 0 0 2 0 4"
    ascent="800"
    descent="-200"
    x-height="543"
    cap-height="710"
    bbox="-76 -330 2345 974"
    underline-thickness="50"
    underline-position="-100"
    stemh="145"
    stemv="155"
    unicode-range="U+0020-2122"
  />
<missing-glyph horiz-adv-x="330" 
 />
    <glyph glyph-name=".notdef" horiz-adv-x="330" 
 />
    <glyph glyph-name="exclam" unicode="!" horiz-adv-x="290" 
d="M69 210l-8 500h168l-8 -500h-152zM60 27v85l42 42h81l47 -42v-85l-42 -42h-86z" />
    <glyph glyph-name="quotedbl" unicode="&#x22;" horiz-adv-x="404" 
d="M48 390l-18 320h142l-18 -320h-106zM250 390l-18 320h142l-18 -320h-106z" />
    <glyph glyph-name="numbersign" unicode="#" horiz-adv-x="800" 
d="M108 558h160l60 152h151l-60 -152h120l60 152h151l-60 -152h110v-135h-163l-53 -136h108v-135h-161l-59 -152h-151l59 152h-120l-59 -152h-151l59 152h-109v135h162l53 136h-107v135zM366 423l-53 -136h120l53 136h-120z" />
    <glyph glyph-name="dollar" unicode="$" horiz-adv-x="600" 
d="M370 710h56l144 -49l-47 -139l-126 43h-172l-34 -34v-25l13 -27l319 -138l42 -79v-135l-127 -127h-68v-70h-139v70h-57l-144 49l47 139l126 -43h173l34 34v25l-13 27l-319 138l-42 79v135l127 127h68v70h139v-70z" />
    <glyph glyph-name="percent" unicode="%" horiz-adv-x="836" 
d="M614 215l-23 -23v-54l23 -23h54l23 23v54l-23 23h-54zM616 735l119 -91l-515 -669l-119 91zM568 330h146l97 -97v-136l-97 -97h-146l-97 97v136zM168 595l-23 -23v-54l23 -23h54l23 23v54l-23 23h-54zM122 710h146l97 -97v-136l-97 -97h-146l-97 97v136z" />
    <glyph glyph-name="ampersand" unicode="&#x26;" horiz-adv-x="652" 
d="M253 517l219 -250l72 64l98 -109l-73 -65l72 -82l-109 -95l-71 80l-67 -60h-236l-128 127v128l140 138l-72 81v109l128 127h214l128 -127v-123h-155v83l-32 32h-96l-32 -32v-26zM217 135h108l40 35l-105 120l-75 -75v-48z" />
    <glyph glyph-name="asterisk" unicode="*" horiz-adv-x="448" 
d="M279 622l83 48l56 -97l-91 -53l91 -53l-56 -97l-83 48v-88h-110v88l-83 -48l-56 97l91 53l-91 53l56 97l83 -48v88h110v-88z" />
    <glyph glyph-name="plus" unicode="+" horiz-adv-x="520" 
d="M188 580h144v-168h168v-135h-168v-167h-144v167h-168v135h168v168z" />
    <glyph glyph-name="hyphen" unicode="-" horiz-adv-x="500" 
d="M20 277v135h460v-135h-460z" />
    <glyph glyph-name="period" unicode="." horiz-adv-x="230" 
d="M30 27v85l42 42h81l47 -42v-85l-42 -42h-86z" />
    <glyph glyph-name="zero" unicode="0" horiz-adv-x="655" 
d="M189 710h277l139 -126v-458l-139 -126h-277l-139 126v458zM414 135l46 42v279l-201 -321h155zM241 575l-46 -42v-279l201 321h-155z" />
    <glyph glyph-name="one" unicode="1" horiz-adv-x="411" 
d="M144 454l-28 -28l-106 106l178 178h122v-575h91v-135h-337v135h91v317l13 35l-3 2z" />
    <glyph glyph-name="two" unicode="2" horiz-adv-x="596" 
d="M31 214l338 189l42 48v74l-40 40h-181l-127 -40l-43 138l151 47h268l127 -128v-180l-99 -111l-260 -146h359v-145h-535v214z" />
    <glyph glyph-name="three" unicode="3" horiz-adv-x="596" 
d="M322 565h-290v145h534v-122l-179 -157l-35 -21l2 -3l35 13h49l128 -127v-166l-128 -127h-284l-144 49l47 139l126 -43h189l39 40v60l-39 40h-210v126l162 143l35 21l-2 3z" />
    <glyph glyph-name="four" unicode="4" horiz-adv-x="616" 
d="M533 276h73v-145h-73v-131h-155v131h-368v141l395 438h128v-434zM367 452l-149 -165l-35 -21l2 -3l35 13h158v174l13 35l-3 2z" />
    <glyph glyph-name="five" unicode="5" horiz-adv-x="607" 
d="M57 710h510v-145h-355v-117h237l128 -127v-194l-128 -127h-259l-150 50l46 138l129 -43h166l41 40v78l-41 40h-324v407z" />
    <glyph glyph-name="six" unicode="6" horiz-adv-x="631" 
d="M50 128v454l127 128h280l144 -48l-46 -138l-123 41h-187l-40 -40v-89l63 14h200l127 -128v-194l-127 -128h-291zM400 305h-157l-38 -9v-111l40 -40h155l40 40v80z" />
    <glyph glyph-name="seven" unicode="7" horiz-adv-x="555" 
d="M320 164v-164h-155v202l211 363h-366v145h525v-176z" />
    <glyph glyph-name="eight" unicode="8" horiz-adv-x="648" 
d="M250 585l-40 -40v-74c16 -12 28 -22 43 -34h142c15 12 27 22 43 34v74l-40 40h-148zM257 292l-52 -41v-65l41 -41h156l41 41v65l-52 41h-134zM183 730h282l128 -127v-183l-69 -55l74 -58v-180l-128 -127h-292l-128 127v180l74 58l-69 55v183z" />
    <glyph glyph-name="colon" unicode=":" horiz-adv-x="230" 
d="M30 27v85l42 42h81l47 -42v-85l-42 -42h-86zM30 353v85l42 42h81l47 -42v-85l-42 -42h-86z" />
    <glyph glyph-name="semicolon" unicode=";" horiz-adv-x="237" 
d="M37 353v85l42 42h81l47 -42v-85l-42 -42h-86zM0 -180l65 290h145l-105 -290h-105z" />
    <glyph glyph-name="equal" unicode="=" horiz-adv-x="500" 
d="M20 388v125h460v-125h-460zM20 177v125h460v-125h-460z" />
    <glyph glyph-name="question" unicode="?" horiz-adv-x="587" 
d="M204 565l-98 -97l-106 107l136 135h294l127 -127v-183l-196 -128v-62h-155v125l196 128v63l-39 39h-159zM199 27v85l42 42h81l47 -42v-85l-42 -42h-86z" />
    <glyph glyph-name="at" unicode="@" horiz-adv-x="949" 
d="M679 230l13 -56h32l20 20v316l-71 65h-397l-71 -65v-424l71 -65h480v-135h-536l-160 146v532l160 146h509l160 -146v-408l-108 -107h-190l-17 75l-55 -63h-161l-98 97v101l98 97h186v45l-19 19h-104l-115 -39l-37 109l133 45h169l108 -107v-198zM544 218v33h-124l-25 -25
v-35l25 -25h79z" />
    <glyph glyph-name="D" unicode="D" horiz-adv-x="656" 
d="M60 0v710h418l128 -129v-452l-128 -129h-418zM451 525l-40 40h-196v-420h196l40 40v340z" />
    <glyph glyph-name="F" unicode="F" horiz-adv-x="573" 
d="M60 0v710h493v-145h-338v-150h296v-145h-296v-270h-155z" />
    <glyph glyph-name="G" unicode="G" 
d="M400 145c14 14 26 25 40 40v81h-153v125h308v-264l-127 -127h-290l-128 128v454l128 128h289l128 -128v-132h-155v75l-40 40h-155l-40 -40v-340l40 -40h155z" />
    <glyph glyph-name="I" unicode="I" horiz-adv-x="407" 
d="M377 0h-347v135h96v440h-96v135h347v-135h-96v-440h96v-135z" />
    <glyph glyph-name="J" unicode="J" horiz-adv-x="566" 
d="M142 0l-142 141l105 106l103 -102h113l40 40v380h-138v145h293v-582l-128 -128h-246z" />
    <glyph glyph-name="K" unicode="K" horiz-adv-x="594" 
d="M378 389l215 -325l-126 -84l-197 297l-55 -61v-216h-155v710h155v-273l264 293l114 -102z" />
    <glyph glyph-name="L" unicode="L" horiz-adv-x="553" 
d="M60 0v710h155v-565h328v-145h-483z" />
    <glyph glyph-name="N" unicode="N" horiz-adv-x="666" 
d="M215 372v-372h-155v710h139l233 -373l26 -66h4l-11 67v372h155v-710h-139l-233 373l-26 66h-4z" />
    <glyph glyph-name="Q" unicode="Q" horiz-adv-x="675" 
d="M265 0h-76l-139 126v458l139 126h297l139 -126v-458l-139 -126h-71v-138h-150v138zM470 523l-46 42h-173l-46 -42v-336l46 -42h14v60h145v-60h14l46 42v336z" />
    <glyph glyph-name="R" unicode="R" horiz-adv-x="641" 
d="M414 565h-199v-156h199l36 37v82zM456 253l165 -169l-111 -109l-282 289h-13v-264h-155v710h434l111 -110v-226l-111 -110h-36l-35 17l-2 -3z" />
    <glyph glyph-name="S" unicode="S" horiz-adv-x="600" 
d="M36 448v135l127 127h263l144 -49l-47 -139l-126 43h-172l-34 -34v-25l13 -27l319 -138l42 -79v-135l-127 -127h-264l-144 49l47 139l126 -43h173l34 34v25l-13 27l-319 138z" />
    <glyph glyph-name="U" unicode="U" 
d="M178 0l-128 127v583h155v-525l40 -40h155l40 40v525h155v-583l-128 -127h-289z" />
    <glyph glyph-name="V" unicode="V" horiz-adv-x="606" 
d="M380 0h-154l-226 682l143 48l145 -437l13 -74h4l13 74l145 437l143 -48z" />
    <glyph glyph-name="W" unicode="W" horiz-adv-x="916" 
d="M389 679h138l103 -322l14 -69h4l12 69l111 373l145 -44l-205 -686h-118l-121 378l-12 69h-4l-12 -69l-121 -378h-118l-205 686l145 44l111 -373l12 -69h4l14 69z" />
    <glyph glyph-name="Y" unicode="Y" horiz-adv-x="604" 
d="M604 665l-225 -445v-220h-155v222l-224 443l139 70l149 -295l12 -69h4l12 69l149 295z" />
    <glyph glyph-name="Z" unicode="Z" horiz-adv-x="585" 
d="M341 565h-308v145h527v-115l-318 -439l-35 -25l2 -3l35 17h308v-145h-527v113l318 441l35 25l-2 3z" />
    <glyph glyph-name="bracketleft" unicode="[" horiz-adv-x="299" 
d="M195 -43h104v-135h-259v898h259v-135h-104v-628z" />
    <glyph glyph-name="asciicircum" unicode="^" horiz-adv-x="558" 
d="M222 710h114l222 -286l-118 -92l-161 207l-161 -207l-118 92z" />
    <glyph glyph-name="underscore" unicode="_" horiz-adv-x="506" 
d="M0 -145v145h506v-145h-506z" />
    <glyph glyph-name="grave" unicode="`" horiz-adv-x="280" 
d="M149 710l141 -230h-140l-160 230h159z" />
    <glyph glyph-name="b" unicode="b" horiz-adv-x="601" 
d="M224 580v-74l50 37h169l108 -107v-349l-108 -107h-266l-108 107v472l-39 119l146 48zM224 361v-217l19 -19h134l19 19v235l-19 19h-103z" />
    <glyph glyph-name="d" unicode="d" horiz-adv-x="598" 
d="M332 145l45 52v164l-50 37h-103l-19 -19v-215l19 -19h108zM372 0h-214l-108 107v329l108 107h169l50 -37v204h155v-541l36 -156l-123 -28l-18 78z" />
    <glyph glyph-name="f" unicode="f" horiz-adv-x="448" 
d="M110 603l107 107h141l150 -47l-43 -137l-125 39h-51l-24 -24v-73h135v-145h-135v-323h-155v323h-90v145h90v135z" />
    <glyph glyph-name="g" unicode="g" horiz-adv-x="572" 
d="M372 368l-52 45h-106l-19 -19v-74l38 -38h120l19 19v67zM177 -168l-147 46l38 119l125 -40h183l13 13v9l-13 13h-251l-85 85v115l48 48l-48 48v148l108 107h210l156 36l28 -123l-78 -18l63 -55v-124l-108 -107h-231l-13 -13v-9l13 -13h251l85 -85v-115l-85 -85h-262z" />
    <glyph glyph-name="h" unicode="h" horiz-adv-x="601" 
d="M224 0h-155v559l-39 119l146 48l48 -146v-74l50 37h169l108 -107v-436h-155v379l-19 19h-103l-50 -37v-361z" />
    <glyph glyph-name="i" unicode="i" horiz-adv-x="277" 
d="M69 381l-39 119l146 48l48 -146v-402h-155v381zM67 627v75l42 42h71l47 -42v-75l-42 -42h-76z" />
    <glyph glyph-name="j" unicode="j" horiz-adv-x="305" 
d="M97 381l-39 119l146 48l48 -146v-419l-78 -108l-185 -65l-49 139l133 47l24 33v352zM95 627v75l42 42h71l47 -42v-75l-42 -42h-76z" />
    <glyph glyph-name="k" unicode="k" horiz-adv-x="535" 
d="M69 559l-39 119l146 48l48 -146v-220l205 203l106 -108l-172 -170l172 -208l-117 -97l-166 201l-28 -27v-154h-155v559z" />
    <glyph glyph-name="l" unicode="l" horiz-adv-x="274" 
d="M69 559l-39 119l146 48l48 -146v-580h-155v559z" />
    <glyph glyph-name="m" unicode="m" horiz-adv-x="869" 
d="M66 374l-36 156l123 28l18 -78l55 63h170l47 -51l47 51h221l108 -107v-436h-155v379l-19 19h-98l-27 -29v-369h-155v369l-27 29h-72l-45 -52v-346h-155v374z" />
    <glyph glyph-name="n" unicode="n" horiz-adv-x="599" 
d="M549 436v-436h-155v379l-19 19h-109l-45 -52v-346h-155v374l-36 156l123 28l18 -78l55 63h215z" />
    <glyph glyph-name="q" unicode="q" horiz-adv-x="591" 
d="M377 -37v74l-50 -37h-169l-108 107v349l108 107h266l108 -107v-472l39 -119l-146 -48zM377 182v217l-19 19h-134l-19 -19v-235l19 -19h103z" />
    <glyph glyph-name="r" unicode="r" horiz-adv-x="520" 
d="M266 398l-45 -52v-346h-155v374l-36 156l123 28l18 -78l55 63h188l116 -114l-103 -105l-76 74h-85z" />
    <glyph glyph-name="s" unicode="s" horiz-adv-x="525" 
d="M183 374l8 -11l260 -63l45 -74v-119l-107 -107h-224l-145 48l43 130l130 -43h128l20 20v15l-8 12l-260 63l-45 74v117l107 107h225l145 -48l-43 -130l-130 43h-129l-20 -20v-14z" />
    <glyph glyph-name="t" unicode="t" horiz-adv-x="518" 
d="M120 378h-90v145h90v157h155v-157h135v-145h-135v-209l24 -24h52c36 11 89 28 124 39l43 -137l-150 -47h-141l-107 107v271z" />
    <glyph glyph-name="u" unicode="u" horiz-adv-x="599" 
d="M50 107v436h155v-379l19 -19h109l45 52v346h155v-374l36 -156l-123 -28l-18 78l-55 -63h-215z" />
    <glyph glyph-name="v" unicode="v" horiz-adv-x="540" 
d="M334 0h-128l-206 507l139 56l116 -286l13 -74h4l13 74l116 286l139 -56z" />
    <glyph glyph-name="w" unicode="w" horiz-adv-x="756" 
d="M364 255l-96 -255h-107l-161 519l137 44l73 -238l12 -69h4l14 69l71 192h134l71 -192l14 -69h4l12 69l73 238l137 -44l-161 -519h-107l-96 255l-12 69h-4z" />
    <glyph glyph-name="z" unicode="z" horiz-adv-x="506" 
d="M261 408h-237v135h462v-118l-243 -279l-35 -25l2 -3l35 17h237v-135h-462v117l243 280l35 25l-2 3z" />
    <glyph glyph-name="braceleft" unicode="{" horiz-adv-x="386" 
d="M20 238v66l88 67v215l83 132l163 37l32 -140l-95 -22l-28 -44v-226l-68 -52l68 -52v-226l28 -44l95 -22l-32 -140l-163 37l-83 132v215z" />
    <glyph glyph-name="bar" unicode="|" horiz-adv-x="276" 
d="M216 -168h-156v878h156v-878z" />
    <glyph glyph-name="endash" unicode="&#x2013;" horiz-adv-x="586" 
d="M20 242v126h546v-126h-546z" />
    <glyph glyph-name="emdash" unicode="&#x2014;" horiz-adv-x="772" 
d="M20 242v126h732v-126h-732z" />
    <glyph glyph-name="trademark" unicode="&#x2122;" horiz-adv-x="865" 
d="M0 710h345v-135h-95v-215h-155v215h-95v135zM520 470v-110h-135v350h145l61 -127l12 -38h4l12 38l61 127h145v-350h-135v110l11 57h-4l-55 -114h-74l-55 114h-4z" />
    <glyph glyph-name="section" unicode="&#xa7;" horiz-adv-x="554" 
d="M43 230v132l59 62l-30 16l-29 54v109l107 107h233l141 -48l-44 -130l-126 43h-137l-20 -19v-16l9 -17l263 -132l42 -79v-132l-59 -62l30 -16l29 -54v-109l-107 -107h-233l-141 48l44 130l126 -43h137l20 19v16l-9 17l-263 132zM343 298l-104 53l-41 -43v-40l13 -24
l104 -53l41 43v40z" />
    <glyph glyph-name="afii10023" unicode="&#x401;" horiz-adv-x="573" 
d="M60 0v710h493v-145h-338v-122h296v-145h-296v-153h338v-145h-493zM126 808v75l42 42h71l47 -42v-75l-42 -42h-76zM336 808v75l42 42h71l47 -42v-75l-42 -42h-76z" />
    <glyph glyph-name="copyright" unicode="&#xa9;" horiz-adv-x="899" 
d="M849 564v-418l-160 -146h-479l-160 146v418l160 146h479zM704 200v310l-71 65h-367l-71 -65v-310l71 -65h367zM511 290l99 31l35 -111l-111 -35h-182l-92 93v174l92 93h195l92 -93v-75h-125v32l-21 21h-87l-21 -21v-88l21 -21h105z" />
    <glyph glyph-name="guillemotleft" unicode="&#xab;" horiz-adv-x="756" 
d="M429 430l-187 -167l187 -167l-99 -110l-310 277l310 277zM746 430l-187 -167l187 -167l-99 -110l-310 277l310 277z" />
    <glyph glyph-name="registered" unicode="&#xae;" horiz-adv-x="899" 
d="M849 564v-418l-160 -146h-479l-160 146v418l160 146h479zM704 200v310l-71 65h-367l-71 -65v-310l71 -65h367zM385 435v-53h124l15 15v23l-15 15h-124zM572 271l82 -78l-20 -18h-122l-111 107h-16v-107h-125v360h336l53 -52v-149l-53 -52h-22l-35 17l-2 -3z" />
    <glyph glyph-name="paragraph" unicode="&#xb6;" horiz-adv-x="689" 
d="M394 -168h-145v330h-91l-128 130v291l128 127h236v-878zM629 -168h-145v878h145v-878z" />
    <glyph glyph-name="afii10071" unicode="&#x451;" horiz-adv-x="569" 
d="M373 135l125 40l41 -129l-147 -46h-234l-108 107v329l108 107h266l108 -107v-139l-98 -97h-229v-46l19 -19h149zM224 418l-19 -19v-74h158l14 14v60l-19 19h-134zM105 637v75l42 42h71l47 -42v-75l-42 -42h-76zM317 637v75l42 42h71l47 -42v-75l-42 -42h-76z" />
    <glyph glyph-name="afii61352" unicode="&#x2116;" horiz-adv-x="1046" 
d="M679 210v125h334v-125h-334zM819 595l-23 -23v-54l23 -23h54l23 23v54l-23 23h-54zM773 710h146l97 -97v-136l-97 -97h-146l-97 97v136zM215 372v-372h-155v710h139l233 -373l26 -66h4l-11 67v372h155v-710h-139l-233 373l-26 66h-4z" />
    <glyph glyph-name="afii10018" unicode="&#x411;" 
d="M60 0v710h503v-145h-348v-118h263l127 -129v-189l-127 -129h-418zM450 261l-41 41h-194v-157h194l41 41v75z" />
    <glyph glyph-name="afii10020" unicode="&#x413;" horiz-adv-x="552" 
d="M215 565v-565h-155v710h482v-145h-327z" />
    <glyph glyph-name="afii10021" unicode="&#x414;" horiz-adv-x="716" 
d="M696 145v-313h-155v168h-386v-168h-155v313h73l35 85l59 480h456v-565h73zM261 203l-24 -58h231v420h-163z" />
    <glyph glyph-name="afii10024" unicode="&#x416;" horiz-adv-x="929" 
d="M207 682l144 -250h36v278h155v-278h36l144 250l153 48l44 -140l-86 -27l-120 -208l125 -208l86 -27l-44 -140l-153 48l-156 259h-29v-287h-155v287h-29l-156 -259l-153 -48l-44 140l86 27l125 208l-120 208l-86 27l44 140z" />
    <glyph glyph-name="afii10025" unicode="&#x417;" horiz-adv-x="602" 
d="M165 710h269l121 -121v-177l-67 -53l74 -58v-174l-127 -127h-276l-149 49l45 137l125 -41h187l40 40v60l-52 41h-184v145h189l40 32v68l-35 34h-179l-125 -41l-45 137z" />
    <glyph glyph-name="afii10026" unicode="&#x418;" horiz-adv-x="666" 
d="M215 710v-389l-11 -67h4l26 66l232 390h140v-710h-155v389l11 67h-4l-26 -66l-232 -390h-140v710h155z" />
    <glyph glyph-name="afii10027" unicode="&#x419;" horiz-adv-x="666" 
d="M531 850l-86 -85h-224l-86 85v124h135v-61l18 -18h90l18 18v61h135v-124zM215 710v-389l-11 -67h4l26 66l232 390h140v-710h-155v389l11 67h-4l-26 -66l-232 -390h-140v710h155z" />
    <glyph glyph-name="afii10028" unicode="&#x41a;" horiz-adv-x="620" 
d="M269 432l144 250l153 48l44 -140l-86 -27l-120 -208l125 -208l86 -27l-44 -140l-153 48l-156 259h-46v-287h-156v710h156v-278h53z" />
    <glyph glyph-name="afii10029" unicode="&#x41b;" horiz-adv-x="716" 
d="M656 710v-710h-155v565h-177l-51 -449l-86 -88l-140 -48l-47 138l93 32l30 30l61 530h472z" />
    <glyph glyph-name="afii10033" unicode="&#x41f;" horiz-adv-x="665" 
d="M215 565v-565h-155v710h545v-710h-155v565h-235z" />
    <glyph glyph-name="afii10037" unicode="&#x423;" horiz-adv-x="615" 
d="M338 403l136 332l141 -58l-243 -593l-88 -84h-169v145h110l18 17l10 22l-253 480l133 71l175 -332l14 -69h4z" />
    <glyph glyph-name="afii10038" unicode="&#x424;" horiz-adv-x="835" 
d="M600 535h-105v-330h105l40 40v250zM340 535h-105l-40 -40v-250l40 -40h105v330zM168 670h172v105h155v-105h172l128 -128v-344l-128 -128h-172v-95h-155v95h-172l-128 128v344z" />
    <glyph glyph-name="afii10040" unicode="&#x426;" horiz-adv-x="708" 
d="M60 0v710h155v-565h234v565h155v-565h84v-313h-155v168h-473z" />
    <glyph glyph-name="afii10041" unicode="&#x427;" horiz-adv-x="642" 
d="M427 389v321h155v-710h-155v249l-63 -14h-217l-107 108v367h155v-313l17 -17h177z" />
    <glyph glyph-name="afii10042" unicode="&#x428;" horiz-adv-x="1027" 
d="M967 0h-907v710h154v-565h222v565h155v-565h221v565h155v-710z" />
    <glyph glyph-name="afii10043" unicode="&#x429;" horiz-adv-x="1042" 
d="M60 0v710h155v-565h207v565h155v-565h206v565h155v-565h84v-313h-155v168h-807z" />
    <glyph glyph-name="afii10044" unicode="&#x42a;" horiz-adv-x="737" 
d="M163 0v565h-143v145h298v-238h262l127 -129v-214l-127 -129h-417zM552 286l-40 41h-194v-182h194l40 41v100z" />
    <glyph glyph-name="afii10045" unicode="&#x42b;" horiz-adv-x="904" 
d="M689 0v710h155v-710h-155zM449 286l-40 41h-194v-182h194l40 41v100zM60 0v710h155v-238h262l127 -129v-214l-127 -129h-417z" />
    <glyph glyph-name="afii10046" unicode="&#x42c;" horiz-adv-x="634" 
d="M449 286l-40 41h-194v-182h194l40 41v100zM60 0v710h155v-238h262l127 -129v-214l-127 -129h-417z" />
    <glyph glyph-name="afii10047" unicode="&#x42d;" horiz-adv-x="619" 
d="M116 241l96 -96h162l40 40v94h-224v135h224v111l-40 40h-155l-40 -40v-75h-155v132l128 128h289l128 -128v-454l-128 -128h-296l-135 135z" />
    <glyph glyph-name="afii10048" unicode="&#x42e;" horiz-adv-x="909" 
d="M439 710h281l139 -126v-458l-139 -126h-281l-139 126v161h-85v-287h-155v710h155v-278h85v152zM704 524l-45 41h-159l-45 -41v-338l45 -41h159l45 41v338z" />
    <glyph glyph-name="afii10049" unicode="&#x42f;" horiz-adv-x="654" 
d="M439 565h-199l-36 -36v-96l36 -36h199v168zM193 252h-33l-111 110v238l111 110h434v-710h-155v252h-40l-174 -224l-153 -48l-42 133l86 27l79 101l35 25l-2 3z" />
    <glyph glyph-name="afii10066" unicode="&#x431;" horiz-adv-x="585" 
d="M205 485v-40l50 37h175l107 -107v-268l-107 -107h-273l-107 107v425l138 142l185 36l98 69l89 -126l-115 -81l-191 -37zM363 337h-108l-50 -37v-136l19 -19h139l19 19v154z" />
    <glyph glyph-name="afii10067" unicode="&#x432;" horiz-adv-x="572" 
d="M339 340l21 15v44l-19 19h-136v-78h134zM377 189l-35 26h-137v-90h153l19 19v45zM532 234v-128l-106 -106h-376v543h375l90 -90v-145l-42 -31z" />
    <glyph glyph-name="afii10068" unicode="&#x433;" horiz-adv-x="470" 
d="M206 397v-397h-156v543h405v-146h-249z" />
    <glyph glyph-name="afii10069" unicode="&#x434;" horiz-adv-x="619" 
d="M249 200l-24 -65h158v263h-112zM444 0h-289v-150h-155v285h62l36 93l34 315h406v-408h61v-285h-155v150z" />
    <glyph glyph-name="afii10072" unicode="&#x436;" horiz-adv-x="799" 
d="M322 208l-139 -179l-105 -54l-68 133l74 38l95 123l-91 125l-78 41l69 133l115 -60l128 -176v211h155v-211l128 176l115 60l69 -133l-78 -41l-91 -125l95 -123l74 -38l-68 -133l-105 54l-139 179v-208h-155v208z" />
    <glyph glyph-name="afii10073" unicode="&#x437;" horiz-adv-x="547" 
d="M167 0l-147 46l41 129l125 -40h147l19 19v31l-33 25h-173v125h168l33 23v36l-15 14h-144l-121 -41l-43 126l148 50h227l103 -103v-127l-55 -40l60 -44v-122l-107 -107h-233z" />
    <glyph glyph-name="afii10074" unicode="&#x438;" horiz-adv-x="600" 
d="M243 285l165 258h142v-543h-155v257l11 67h-4l-26 -66l-165 -258h-142v396c-11 34 -28 86 -39 119l146 48l48 -146v-131l-11 -67h4z" />
    <glyph glyph-name="afii10075" unicode="&#x439;" horiz-adv-x="600" 
d="M429 618h-239l-76 75v105h135v-45l15 -15h91l15 15v45h135v-105zM243 285l165 258h142v-543h-155v257l11 67h-4l-26 -66l-165 -258h-142v396c-11 34 -28 86 -39 119l146 48l48 -146v-131l-11 -67h4z" />
    <glyph glyph-name="afii10076" unicode="&#x43a;" horiz-adv-x="538" 
d="M205 332h11l128 176l115 60l69 -133l-78 -41l-91 -125l95 -123l74 -38l-68 -133l-105 54l-138 178h-12v-207h-155v543h155v-211z" />
    <glyph glyph-name="afii10077" unicode="&#x43b;" horiz-adv-x="612" 
d="M562 543v-543h-155v398h-114l-36 -291l-77 -80l-131 -47l-49 138l75 27l33 34l45 364h409z" />
    <glyph glyph-name="afii10078" unicode="&#x43c;" horiz-adv-x="706" 
d="M205 228v-228h-155v543h143l146 -243l12 -38h4l12 38l146 243h143v-543h-155v228l11 67h-4l-26 -66l-73 -122h-112l-73 122l-26 66h-4z" />
    <glyph glyph-name="afii10079" unicode="&#x43d;" horiz-adv-x="601" 
d="M69 396l-39 119l146 48l48 -146v-75h172v201h155v-543h-155v197h-172v-197h-155v396z" />
    <glyph glyph-name="afii10081" unicode="&#x43f;" horiz-adv-x="582" 
d="M205 398v-398h-155v543h482v-543h-155v398h-172z" />
    <glyph glyph-name="afii10084" unicode="&#x442;" horiz-adv-x="491" 
d="M15 543h461v-145h-153v-398h-155v398h-153v145z" />
    <glyph glyph-name="afii10086" unicode="&#x444;" horiz-adv-x="755" 
d="M455 584v-54l46 13h98l106 -106v-331l-106 -106h-98l-46 13v-181h-155v181l-46 -13h-98l-106 106v331l106 106h98l46 -13v33l-39 119l146 48zM550 379l-19 19h-65l-16 -4v-245l16 -4h65l19 19v215zM224 398l-19 -19v-215l19 -19h65l16 4v245l-16 4h-65z" />
    <glyph glyph-name="afii10088" unicode="&#x446;" horiz-adv-x="615" 
d="M440 0h-390v543h155v-408h172v408h155v-408h63v-285h-155v150z" />
    <glyph glyph-name="afii10089" unicode="&#x447;" horiz-adv-x="560" 
d="M355 301v242h155v-543h-155v165c-16 -5 -31 -9 -46 -13h-163l-106 106v285h155v-227l19 -19h125c4 1 9 2 16 4z" />
    <glyph glyph-name="afii10090" unicode="&#x448;" horiz-adv-x="853" 
d="M803 0h-753v543h155v-408h144v408h155v-408h144v408h155v-543z" />
    <glyph glyph-name="afii10091" unicode="&#x449;" horiz-adv-x="886" 
d="M711 0h-661v543h155v-408h144v408h155v-408h144v408h155v-408h63v-285h-155v150z" />
    <glyph glyph-name="afii10092" unicode="&#x44a;" horiz-adv-x="648" 
d="M145 0v398h-135v145h290v-170h221l107 -107v-159l-107 -107h-376zM473 229l-19 19h-154v-123h154l19 19v85z" />
    <glyph glyph-name="afii10093" unicode="&#x44b;" horiz-adv-x="798" 
d="M748 543v-543h-155v543h155zM50 0v543h155v-170h221l107 -107v-159l-107 -107h-376zM378 229l-19 19h-154v-123h154l19 19v85z" />
    <glyph glyph-name="afii10094" unicode="&#x44c;" horiz-adv-x="553" 
d="M50 0v543h155v-170h221l107 -107v-159l-107 -107h-376zM378 229l-19 19h-154v-123h154l19 19v85z" />
    <glyph glyph-name="afii10095" unicode="&#x44d;" horiz-adv-x="551" 
d="M51 175l125 -40h151l19 19v53h-162v125h162v57l-19 19h-134l-19 -19v-64h-155v111l108 107h266l108 -107v-329l-108 -107h-236l-147 46z" />
    <glyph glyph-name="afii10096" unicode="&#x44e;" horiz-adv-x="782" 
d="M732 108l-107 -108h-253l-107 108v89h-60v-197h-155v543h155v-201h60v93l107 108h253l107 -108v-327zM439 145h119l19 19v215l-19 19h-119l-19 -19v-215z" />
    <glyph glyph-name="afii10097" unicode="&#x44f;" horiz-adv-x="572" 
d="M210 315h157v103h-157l-15 -15v-72zM145 190h-23l-82 81v191l82 81h400v-543h-155v190h-18l-152 -161l-105 -54l-62 121l74 38l43 45l35 25l-2 3z" />
    <glyph glyph-name="parenright" unicode=")" horiz-adv-x="316" 
d="M276 578v-614l-85 -138l-145 -49l-46 136l85 29l36 59v540l-36 59l-85 29l46 136l145 -49z" />
    <glyph glyph-name="greater" unicode="&#x3e;" horiz-adv-x="389" 
d="M369 303v-80l-261 -233l-98 110l183 163l-183 163l98 110z" />
    <glyph glyph-name="braceright" unicode="}" horiz-adv-x="386" 
d="M366 304v-66l-88 -67v-215l-83 -132l-163 -37l-32 140l95 22l28 44v226l68 52l-68 52v226l-28 44l-95 22l32 140l163 -37l83 -132v-215z" />
    <glyph glyph-name="guillemotright" unicode="&#xbb;" horiz-adv-x="756" 
d="M514 263l-187 167l99 110l310 -277l-310 -277l-99 110zM197 263l-187 167l99 110l310 -277l-310 -277l-99 110z" />
    <glyph glyph-name="afii10039" unicode="&#x425;" horiz-adv-x="606" 
d="M141 735l148 -217l12 -38h4l12 38l148 217l132 -91l-199 -291l203 -285l-131 -93l-153 215l-12 38h-4l-12 -38l-153 -215l-131 93l203 285l-199 291z" />
    <glyph glyph-name="afii10019" unicode="&#x412;" 
d="M450 256l-53 41h-182v-152h197l38 38v73zM215 565v-123h187l27 21v77l-25 25h-189zM531 370l74 -58v-184l-128 -128h-417v710h416l108 -108v-190z" />
    <glyph glyph-name="afii10022" unicode="&#x415;" horiz-adv-x="573" 
d="M60 0v710h493v-145h-338v-122h296v-145h-296v-153h338v-145h-493z" />
    <glyph glyph-name="afii10030" unicode="&#x41c;" horiz-adv-x="852" 
d="M203 710l209 -341l12 -38h4l12 38l209 341h143v-710h-155v378l11 67h-4l-26 -66l-139 -227h-106l-139 227l-26 66h-4l11 -67v-378h-155v710h143z" />
    <glyph glyph-name="afii10031" unicode="&#x41d;" horiz-adv-x="665" 
d="M450 432v278h155v-710h-155v287h-235v-287h-155v710h155v-278h235z" />
    <glyph glyph-name="afii10032" unicode="&#x41e;" horiz-adv-x="675" 
d="M189 710h297l139 -126v-458l-139 -126h-297l-139 126v458zM470 523l-46 42h-173l-46 -42v-336l46 -42h173l46 42v336z" />
    <glyph glyph-name="afii10034" unicode="&#x420;" horiz-adv-x="635" 
d="M215 227v-227h-155v710h417l128 -127v-229l-128 -127h-262zM410 565h-195v-193h195l40 40v113z" />
    <glyph glyph-name="afii10035" unicode="&#x421;" horiz-adv-x="619" 
d="M407 145l96 96l106 -106l-135 -135h-296l-128 128v454l128 128h289l128 -128v-132h-155v75l-40 40h-155l-40 -40v-340l40 -40h162z" />
    <glyph glyph-name="afii10036" unicode="&#x422;" horiz-adv-x="565" 
d="M360 565v-565h-155v565h-195v145h545v-145h-195z" />
    <glyph glyph-name="afii10017" unicode="&#x410;" horiz-adv-x="620" 
d="M229 710h162l229 -681l-146 -49l-54 159h-225l-49 -159l-146 49zM381 274l-56 166l-13 74h-4l-13 -74l-56 -166h142z" />
    <glyph glyph-name="afii10065" unicode="&#x430;" horiz-adv-x="579" 
d="M513 169l36 -156l-123 -28l-18 78l-55 -63h-215l-108 107v130l108 107h220v45l-19 19h-138l-125 -40l-41 129l147 46h223l108 -107v-267zM358 177v42h-154l-19 -19v-56l19 -19h109z" />
    <glyph glyph-name="afii10070" unicode="&#x435;" horiz-adv-x="569" 
d="M373 135l125 40l41 -129l-147 -46h-234l-108 107v329l108 107h266l108 -107v-139l-98 -97h-229v-46l19 -19h149zM224 418l-19 -19v-74h158l14 14v60l-19 19h-134z" />
    <glyph glyph-name="afii10080" unicode="&#x43e;" horiz-adv-x="587" 
d="M537 108l-107 -108h-273l-107 108v327l107 108h273l107 -108v-327zM224 145h139l19 19v215l-19 19h-139l-19 -19v-215z" />
    <glyph glyph-name="afii10082" unicode="&#x440;" horiz-adv-x="598" 
d="M266 398l-45 -52v-164l50 -37h103l19 19v215l-19 19h-108zM226 543h214l108 -107v-329l-108 -107h-169l-50 37v-205h-155v542l-36 156l123 28l18 -78z" />
    <glyph glyph-name="afii10083" unicode="&#x441;" horiz-adv-x="554" 
d="M375 145l125 40l44 -138l-150 -47h-236l-108 107v329l108 107h266l108 -107v-111h-155v54l-19 19h-134l-19 -19v-215l19 -19h151z" />
    <glyph glyph-name="afii10085" unicode="&#x443;" horiz-adv-x="549" 
d="M302 249l105 314l142 -47l-201 -604l-80 -80h-185v145h123l17 17l7 22h-25l-205 488l140 59l132 -314l13 -69h4z" />
    <glyph glyph-name="nine" unicode="9" horiz-adv-x="631" 
d="M581 582v-454l-127 -128h-280l-144 48l46 138l123 -41h187l40 40v89l-63 -14h-200l-127 128v194l127 128h291zM231 405h157l38 9v111l-40 40h-155l-40 -40v-80z" />
    <glyph glyph-name="backslash" unicode="\" horiz-adv-x="577" 
d="M577 52l-126 -82l-451 688l126 82z" />
    <glyph glyph-name="bracketright" unicode="]" horiz-adv-x="299" 
d="M0 -43h104v628h-104v135h259v-898h-259v135z" />
    <glyph glyph-name="comma" unicode="," horiz-adv-x="220" 
d="M0 -180l65 290h145l-105 -290h-105z" />
    <glyph glyph-name="less" unicode="&#x3c;" horiz-adv-x="389" 
d="M20 223v80l261 233l98 -110l-183 -163l183 -163l-98 -110z" />
    <glyph glyph-name="afii10087" unicode="&#x445;" horiz-adv-x="520" 
d="M396 -26l-122 151l-12 38h-4l-12 -38l-122 -151l-119 96l162 201l-162 202l119 95l122 -153l12 -38h4l12 38l122 153l119 -95l-162 -202l162 -201z" />
    <glyph glyph-name="a" unicode="a" horiz-adv-x="579" 
d="M513 169l36 -156l-123 -28l-18 78l-55 -63h-215l-108 107v130l108 107h220v45l-19 19h-138l-125 -40l-41 129l147 46h223l108 -107v-267zM358 177v42h-154l-19 -19v-56l19 -19h109z" />
    <glyph glyph-name="c" unicode="c" horiz-adv-x="554" 
d="M375 145l125 40l44 -138l-150 -47h-236l-108 107v329l108 107h266l108 -107v-111h-155v54l-19 19h-134l-19 -19v-215l19 -19h151z" />
    <glyph glyph-name="e" unicode="e" horiz-adv-x="569" 
d="M373 135l125 40l41 -129l-147 -46h-234l-108 107v329l108 107h266l108 -107v-139l-98 -97h-229v-46l19 -19h149zM224 418l-19 -19v-74h158l14 14v60l-19 19h-134z" />
    <glyph glyph-name="o" unicode="o" horiz-adv-x="587" 
d="M537 108l-107 -108h-273l-107 108v327l107 108h273l107 -108v-327zM224 145h139l19 19v215l-19 19h-139l-19 -19v-215z" />
    <glyph glyph-name="p" unicode="p" horiz-adv-x="598" 
d="M266 398l-45 -52v-164l50 -37h103l19 19v215l-19 19h-108zM226 543h214l108 -107v-329l-108 -107h-169l-50 37v-205h-155v542l-36 156l123 28l18 -78z" />
    <glyph glyph-name="B" unicode="B" 
d="M450 256l-53 41h-182v-152h197l38 38v73zM215 565v-123h187l27 21v77l-25 25h-189zM531 370l74 -58v-184l-128 -128h-417v710h416l108 -108v-190z" />
    <glyph glyph-name="C" unicode="C" horiz-adv-x="619" 
d="M407 145l96 96l106 -106l-135 -135h-296l-128 128v454l128 128h289l128 -128v-132h-155v75l-40 40h-155l-40 -40v-340l40 -40h162z" />
    <glyph glyph-name="E" unicode="E" horiz-adv-x="573" 
d="M60 0v710h493v-145h-338v-122h296v-145h-296v-153h338v-145h-493z" />
    <glyph glyph-name="H" unicode="H" horiz-adv-x="665" 
d="M450 432v278h155v-710h-155v287h-235v-287h-155v710h155v-278h235z" />
    <glyph glyph-name="O" unicode="O" horiz-adv-x="675" 
d="M189 710h297l139 -126v-458l-139 -126h-297l-139 126v458zM470 523l-46 42h-173l-46 -42v-336l46 -42h173l46 42v336z" />
    <glyph glyph-name="P" unicode="P" horiz-adv-x="635" 
d="M215 227v-227h-155v710h417l128 -127v-229l-128 -127h-262zM410 565h-195v-193h195l40 40v113z" />
    <glyph glyph-name="T" unicode="T" horiz-adv-x="565" 
d="M360 565v-565h-155v565h-195v145h545v-145h-195z" />
    <glyph glyph-name="X" unicode="X" horiz-adv-x="606" 
d="M141 735l148 -217l12 -38h4l12 38l148 217l132 -91l-199 -291l203 -285l-131 -93l-153 215l-12 38h-4l-12 -38l-153 -215l-131 93l203 285l-199 291z" />
    <glyph glyph-name="slash" unicode="/" horiz-adv-x="577" 
d="M126 -30l-126 82l451 688l126 -82z" />
    <glyph glyph-name="parenleft" unicode="(" horiz-adv-x="316" 
d="M40 -36v614l85 138l145 49l46 -136l-85 -29l-36 -59v-540l36 -59l85 -29l-46 -136l-145 49z" />
    <glyph glyph-name="quotesingle" unicode="'" horiz-adv-x="202" 
d="M48 390l-18 320h142l-18 -320h-106z" />
    <glyph glyph-name="x" unicode="x" horiz-adv-x="520" 
d="M396 -26l-122 151l-12 38h-4l-12 -38l-122 -151l-119 96l162 201l-162 202l119 95l122 -153l12 -38h4l12 38l122 153l119 -95l-162 -202l162 -201z" />
    <glyph glyph-name="A" unicode="A" horiz-adv-x="620" 
d="M229 710h162l229 -681l-146 -49l-54 159h-225l-49 -159l-146 49zM381 274l-56 166l-13 74h-4l-13 -74l-56 -166h142z" />
    <glyph glyph-name="M" unicode="M" horiz-adv-x="852" 
d="M203 710l209 -341l12 -38h4l12 38l209 341h143v-710h-155v378l11 67h-4l-26 -66l-139 -227h-106l-139 227l-26 66h-4l11 -67v-378h-155v710h143z" />
    <glyph glyph-name="y" unicode="y" horiz-adv-x="549" 
d="M302 249l105 314l142 -47l-201 -604l-80 -80h-185v145h123l17 17l7 22h-25l-205 488l140 59l132 -314l13 -69h4z" />
    <glyph glyph-name="afii10108" unicode="&#x45b;" horiz-adv-x="612" 
d="M380 460h-135v-74l50 37h169l108 -107v-316h-155v259l-19 19h-103l-50 -37v-241h-155v460h-90v120h83l-32 98l146 48l48 -146h135v-120z" />
    <glyph glyph-name="afii10099" unicode="&#x452;" horiz-adv-x="612" 
d="M417 140v119l-19 19h-103l-50 -37v-241h-155v460h-90v120h83l-32 98l146 48l48 -146h135v-120h-135v-74l50 37h169l108 -107v-222l-78 -108l-160 -56l-49 139l108 38z" />
    <glyph glyph-name="afii10060" unicode="&#x40b;" horiz-adv-x="702" 
d="M275 306v-306h-155v565h-120v145h395v-145h-120v-119l63 14h217l107 -108v-352h-155v298l-17 17h-177z" />
    <glyph glyph-name="afii10051" unicode="&#x402;" horiz-adv-x="702" 
d="M662 94l-78 -108l-160 -56l-49 139l108 38l24 33v158l-17 17h-177l-38 -9v-306h-155v565h-120v145h395v-145h-120v-119l63 14h217l107 -108v-258z" />
    <glyph glyph-name="afii10058" unicode="&#x409;" horiz-adv-x="1015" 
d="M626 710v-238h232l127 -129v-214l-127 -129h-387v565h-147l-51 -449l-86 -88l-140 -48l-47 138l93 32l30 30l61 530h442zM830 286l-40 41h-164v-182h164l40 41v100z" />
    <glyph glyph-name="afii10106" unicode="&#x459;" horiz-adv-x="850" 
d="M537 543v-180h186l107 -107v-149l-107 -107h-341v398h-89l-36 -291l-77 -80l-131 -47l-49 138l75 27l33 34l46 364h383zM675 219l-19 19h-119v-113h119l19 19v75z" />
    <glyph glyph-name="afii10059" unicode="&#x40a;" horiz-adv-x="964" 
d="M420 0v312h-205v-312h-155v710h155v-253h205v253h155v-253h232l127 -129v-199l-127 -129h-387zM779 271l-40 41h-164v-167h164l40 41v85z" />
    <glyph glyph-name="afii10107" unicode="&#x45a;" horiz-adv-x="839" 
d="M363 0v213h-139v-213h-155v396l-39 119l146 48l48 -146v-59h139v185h155v-195h194l107 -107v-134l-107 -107h-349zM664 204l-19 19h-127v-98h127l19 19v60z" />
    <glyph glyph-name="afii10050" unicode="&#x490;" horiz-adv-x="552" 
d="M387 710v90h155v-235h-327v-565h-155v710h327z" />
    <glyph glyph-name="afii10098" unicode="&#x491;" horiz-adv-x="470" 
d="M300 543v80h155v-226h-249v-397h-156v543h250z" />
    <glyph glyph-name="afii10193" unicode="&#x45f;" horiz-adv-x="582" 
d="M368 0v-150h-155v150h-163v543h155v-408h172v408h155v-543h-164z" />
    <glyph glyph-name="afii10145" unicode="&#x40f;" horiz-adv-x="664" 
d="M604 0h-194v-168h-155v168h-195v710h155v-565h234v565h155v-710z" />
    <glyph glyph-name="afii10053" unicode="&#x404;" horiz-adv-x="619" 
d="M407 145l96 96l106 -106l-135 -135h-296l-128 128v454l128 128h289l128 -128v-132h-155v75l-40 40h-155l-40 -40v-111h224v-135h-224v-94l40 -40h162z" />
    <glyph glyph-name="afii10101" unicode="&#x454;" horiz-adv-x="554" 
d="M375 135l125 40l41 -129l-147 -46h-236l-108 107v329l108 107h266l108 -107v-111h-155v64l-19 19h-134l-19 -19v-57h162v-125h-162v-53l19 -19h151z" />
    <glyph glyph-name="mu" unicode="&#xb5;" horiz-adv-x="599" 
d="M50 543h155v-365l34 -33h94l45 52v346h155v-374l36 -156l-123 -28l-18 78l-55 -63h-144l-24 24v-192h-155v711z" />
    <glyph glyph-name="uni0406" unicode="&#x406;" horiz-adv-x="407" 
d="M377 0h-347v135h96v440h-96v135h347v-135h-96v-440h96v-135z" />
    <glyph glyph-name="afii10103" unicode="&#x456;" horiz-adv-x="277" 
d="M69 381l-39 119l146 48l48 -146v-402h-155v381zM67 627v75l42 42h71l47 -42v-75l-42 -42h-76z" />
    <glyph glyph-name="afii10054" unicode="&#x405;" horiz-adv-x="600" 
d="M36 448v135l127 127h263l144 -49l-47 -139l-126 43h-172l-34 -34v-25l13 -27l319 -138l42 -79v-135l-127 -127h-264l-144 49l47 139l126 -43h173l34 34v25l-13 27l-319 138z" />
    <glyph glyph-name="afii10102" unicode="&#x455;" horiz-adv-x="525" 
d="M183 374l8 -11l260 -63l45 -74v-119l-107 -107h-224l-145 48l43 130l130 -43h128l20 20v15l-8 12l-260 63l-45 74v117l107 107h225l145 -48l-43 -130l-130 43h-129l-20 -20v-14z" />
    <glyph glyph-name="afii10105" unicode="&#x458;" horiz-adv-x="305" 
d="M97 381l-39 119l146 48l48 -146v-419l-78 -108l-185 -65l-49 139l133 47l24 33v352zM95 627v75l42 42h71l47 -42v-75l-42 -42h-76z" />
    <glyph glyph-name="afii10057" unicode="&#x408;" horiz-adv-x="566" 
d="M142 0l-142 141l105 106l103 -102h113l40 40v380h-138v145h293v-582l-128 -128h-246z" />
    <glyph glyph-name="afii10062" unicode="&#x40e;" horiz-adv-x="615" 
d="M338 403l136 332l141 -58l-243 -593l-88 -84h-169v145h110l18 17l10 22l-253 480l133 71l175 -332l14 -69h4zM509 837l-86 -85h-224l-86 85v124h135v-61l18 -18h90l18 18v61h135v-124z" />
    <glyph glyph-name="afii10110" unicode="&#x45e;" horiz-adv-x="549" 
d="M302 249l105 314l142 -47l-201 -604l-80 -80h-185v145h123l17 17l7 22h-25l-205 488l140 59l132 -314l13 -69h4zM397 601h-239l-76 75v105h135v-45l15 -15h91l15 15v45h135v-105z" />
    <glyph glyph-name="afii10056" unicode="&#x407;" horiz-adv-x="407" 
d="M377 0h-347v135h96v440h-96v135h347v-135h-96v-440h96v-135zM18 808v75l42 42h71l47 -42v-75l-42 -42h-76zM228 808v75l42 42h71l47 -42v-75l-42 -42h-76z" />
    <glyph glyph-name="afii10104" unicode="&#x457;" horiz-adv-x="277" 
d="M69 381l-39 119l146 48l48 -146v-402h-155v381zM-39 627v75l42 42h71l47 -42v-75l-42 -42h-76zM173 627v75l42 42h71l47 -42v-75l-42 -42h-76z" />
    <glyph glyph-name="perthousand" unicode="&#x2030;" horiz-adv-x="1211" 
d="M614 215l-23 -23v-54l23 -23h54l23 23v54l-23 23h-54zM616 735l119 -91l-515 -669l-119 91zM568 330h146l97 -97v-136l-97 -97h-146l-97 97v136zM168 595l-23 -23v-54l23 -23h54l23 23v54l-23 23h-54zM122 710h146l97 -97v-136l-97 -97h-146l-97 97v136zM989 215l-23 -23
v-54l23 -23h54l23 23v54l-23 23h-54zM943 330h146l97 -97v-136l-97 -97h-146l-97 97v136z" />
    <glyph glyph-name="daggerdbl" unicode="&#x2021;" horiz-adv-x="460" 
d="M0 385v135h152v190h156v-190h152v-135h-152v-228h152v-135h-152v-190h-156v190h-152v135h152v228h-152z" />
    <glyph glyph-name="dagger" unicode="&#x2020;" horiz-adv-x="460" 
d="M0 385v135h152v190h156v-190h152v-135h-152v-553h-156v553h-152z" />
    <glyph glyph-name="brokenbar" unicode="&#xa6;" horiz-adv-x="276" 
d="M216 710v-375h-156v375h156zM216 -168h-156v375h156v-375z" />
    <glyph glyph-name="afii10052" unicode="&#x403;" horiz-adv-x="552" 
d="M215 565v-565h-155v710h482v-145h-327zM225 765l100 170h145l-120 -170h-125z" />
    <glyph glyph-name="afii10100" unicode="&#x453;" horiz-adv-x="470" 
d="M206 397v-397h-156v543h405v-146h-249zM180 598l100 170h145l-120 -170h-125z" />
    <glyph glyph-name="afii10061" unicode="&#x40c;" horiz-adv-x="620" 
d="M269 432l144 250l153 48l44 -140l-86 -27l-120 -208l125 -208l86 -27l-44 -140l-153 48l-156 259h-46v-287h-156v710h156v-278h53zM240 730l100 170h145l-120 -170h-125z" />
    <glyph glyph-name="afii10109" unicode="&#x45c;" horiz-adv-x="538" 
d="M205 332h11l128 176l115 60l69 -133l-78 -41l-91 -125l95 -123l74 -38l-68 -133l-105 54l-138 178h-12v-207h-155v543h155v-211zM215 562l100 170h145l-120 -170h-125z" />
    <glyph glyph-name="ellipsis" unicode="&#x2026;" horiz-adv-x="690" 
d="M30 27v85l42 42h81l47 -42v-85l-42 -42h-86zM260 27v85l42 42h81l47 -42v-85l-42 -42h-86zM490 27v85l42 42h81l47 -42v-85l-42 -42h-86z" />
    <glyph glyph-name="guilsinglleft" unicode="&#x2039;" horiz-adv-x="389" 
d="M20 223v80l261 233l98 -110l-183 -163l183 -163l-98 -110z" />
    <glyph glyph-name="guilsinglright" unicode="&#x203a;" horiz-adv-x="389" 
d="M369 303v-80l-261 -233l-98 110l183 163l-183 163l98 110z" />
    <glyph glyph-name="degree" unicode="&#xb0;" horiz-adv-x="390" 
d="M168 595l-23 -23v-54l23 -23h54l23 23v54l-23 23h-54zM122 710h146l97 -97v-136l-97 -97h-146l-97 97v136z" />
    <glyph glyph-name="uni00AD" unicode="&#xad;" horiz-adv-x="500" 
d="M20 277v135h460v-135h-460z" />
    <glyph glyph-name="Euro" unicode="&#x20ac;" horiz-adv-x="619" 
d="M10 377v85h40v120l128 128h289l128 -128v-132h-155v75l-40 40h-155l-40 -40v-63h200v-85h-200v-44h190v-85h-190v-63l40 -40h162l96 96l106 -106l-135 -135h-296l-128 128v120h-50v85h50v44h-40z" />
    <glyph glyph-name="currency" unicode="&#xa4;" horiz-adv-x="634" 
d="M394 565h-199v-148h185l50 36v76zM456 290l64 -149l89 -28l-42 -133l-153 48l-71 167h-148v-195h-155v195h-40v95h40v32h-40v95h40v293h434l111 -110v-198l-111 -80h-279v-32h261z" />
    <glyph glyph-name="asciitilde" unicode="~" horiz-adv-x="667" 
d="M505 481l142 -141l-105 -106l-103 102h-8l-128 -128h-141l-142 141l105 106l103 -102h8l128 128h141z" />
    <glyph glyph-name="logicalnot" unicode="&#xac;" horiz-adv-x="445" 
d="M269 177v100h-249v135h405v-235h-156z" />
    <glyph glyph-name="quotedblright" unicode="&#x201d;" horiz-adv-x="420" 
d="M10 420l65 290h145l-105 -290h-105zM210 420l65 290h145l-105 -290h-105z" />
    <glyph glyph-name="quotedblleft" unicode="&#x201c;" horiz-adv-x="420" 
d="M410 710l-65 -290h-145l105 290h105zM210 710l-65 -290h-145l105 290h105z" />
    <glyph glyph-name="quoteleft" unicode="&#x2018;" horiz-adv-x="220" 
d="M210 710l-65 -290h-145l105 290h105z" />
    <glyph glyph-name="quoteright" unicode="&#x2019;" horiz-adv-x="220" 
d="M10 420l65 290h145l-105 -290h-105z" />
    <glyph glyph-name="quotesinglbase" unicode="&#x201a;" horiz-adv-x="220" 
d="M10 -180l65 290h145l-105 -290h-105z" />
    <glyph glyph-name="quotedblbase" unicode="&#x201e;" horiz-adv-x="420" 
d="M10 -180l65 290h145l-105 -290h-105zM210 -180l65 290h145l-105 -290h-105z" />
    <glyph glyph-name="bullet" unicode="&#x2022;" horiz-adv-x="420" 
d="M137 520h146l97 -97v-136l-97 -97h-146l-97 97v136z" />
    <glyph glyph-name="periodcentered" unicode="&#xb7;" horiz-adv-x="330" 
d="M80 313v85l42 42h81l47 -42v-85l-42 -42h-86z" />
    <glyph glyph-name="uni00A0" unicode="&#xa0;" horiz-adv-x="2345" 
d="M1355 160c0 -95 -75 -170 -170 -170s-170 75 -170 170s75 170 170 170s170 -75 170 -170zM340 0h-320v320zM2020 0h-320l160 320zM2200 160c0 -95 -75 -170 -170 -170v340c95 0 170 -75 170 -170zM1690 320v-295l-285 295h285zM1380 0v295l285 -295h-285zM670 320
l160 -320h-160v320zM990 320v-320h-160zM340 0v160l320 -160h-320zM340 320h320l-320 -160v160zM485 355h-320l320 320v-320zM850 515c0 -95 -75 -170 -170 -170s-170 75 -170 170s75 170 170 170s170 -75 170 -170zM820 675h320l-160 -320zM1345 355h-320l160 320z
M1665 675v-295l-285 295h285zM1355 355v295l285 -295h-285zM2015 675v-295l-285 295h285zM1705 355v295l285 -295h-285zM2025 675h320l-160 -320z" />
    <glyph glyph-name="plusminus" unicode="&#xb1;" horiz-adv-x="520" 
d="M188 580h144v-140h168v-135h-168v-140h-144v140h-168v135h168v140zM30 30v115h460v-115h-460z" />
    <glyph glyph-name="odieresis" unicode="&#xf6;" horiz-adv-x="587" 
d="M537 108l-107 -108h-273l-107 108v327l107 108h273l107 -108v-327zM224 145h139l19 19v215l-19 19h-139l-19 -19v-215zM108 637v75l42 42h71l47 -42v-75l-42 -42h-76zM320 637v75l42 42h71l47 -42v-75l-42 -42h-76z" />
    <glyph glyph-name="udieresis" unicode="&#xfc;" horiz-adv-x="599" 
d="M50 107v436h155v-379l19 -19h109l45 52v346h155v-374l36 -156l-123 -28l-18 78l-55 -63h-215zM105 637v75l42 42h71l47 -42v-75l-42 -42h-76zM317 637v75l42 42h71l47 -42v-75l-42 -42h-76z" />
    <glyph glyph-name="Odieresis" unicode="&#xd6;" horiz-adv-x="675" 
d="M189 710h297l139 -126v-458l-139 -126h-297l-139 126v458zM470 523l-46 42h-173l-46 -42v-336l46 -42h173l46 42v336zM153 808v75l42 42h71l47 -42v-75l-42 -42h-76zM363 808v75l42 42h71l47 -42v-75l-42 -42h-76z" />
    <glyph glyph-name="Udieresis" unicode="&#xdc;" 
d="M178 0l-128 127v583h155v-525l40 -40h155l40 40v525h155v-583l-128 -127h-289zM138 808v75l42 42h71l47 -42v-75l-42 -42h-76zM348 808v75l42 42h71l47 -42v-75l-42 -42h-76z" />
    <glyph glyph-name="edieresis" unicode="&#xeb;" horiz-adv-x="569" 
d="M373 135l125 40l41 -129l-147 -46h-234l-108 107v329l108 107h266l108 -107v-139l-98 -97h-229v-46l19 -19h149zM224 418l-19 -19v-74h158l14 14v60l-19 19h-134zM105 637v75l42 42h71l47 -42v-75l-42 -42h-76zM317 637v75l42 42h71l47 -42v-75l-42 -42h-76z" />
    <glyph glyph-name="Edieresis" unicode="&#xcb;" horiz-adv-x="573" 
d="M60 0v710h493v-145h-338v-122h296v-145h-296v-153h338v-145h-493zM126 808v75l42 42h71l47 -42v-75l-42 -42h-76zM336 808v75l42 42h71l47 -42v-75l-42 -42h-76z" />
    <glyph glyph-name="Tcommaaccent" unicode="&#x162;" horiz-adv-x="565" 
d="M360 565v-565h-155v565h-195v145h545v-145h-195zM155 -330l65 290h145l-105 -290h-105z" />
    <glyph glyph-name="tcommaaccent" unicode="&#x163;" horiz-adv-x="518" 
d="M120 378h-90v145h90v157h155v-157h135v-145h-135v-209l24 -24h52c36 11 89 28 124 39l43 -137l-150 -47h-141l-107 107v271zM170 -330l65 290h145l-105 -290h-105z" />
    <glyph glyph-name="adieresis" unicode="&#xe4;" horiz-adv-x="579" 
d="M513 169l36 -156l-123 -28l-18 78l-55 -63h-215l-108 107v130l108 107h220v45l-19 19h-138l-125 -40l-41 129l147 46h223l108 -107v-267zM358 177v42h-154l-19 -19v-56l19 -19h109zM105 637v75l42 42h71l47 -42v-75l-42 -42h-76zM317 637v75l42 42h71l47 -42v-75l-42 -42
h-76z" />
    <glyph glyph-name="Adieresis" unicode="&#xc4;" horiz-adv-x="620" 
d="M126 808v75l42 42h71l47 -42v-75l-42 -42h-76zM336 808v75l42 42h71l47 -42v-75l-42 -42h-76zM229 710h162l229 -681l-146 -49l-54 159h-225l-49 -159l-146 49zM381 274l-56 166l-13 74h-4l-13 -74l-56 -166h142z" />
    <glyph glyph-name="Scommaaccent" unicode="&#x218;" horiz-adv-x="600" 
d="M36 448v135l127 127h263l144 -49l-47 -139l-126 43h-172l-34 -34v-25l13 -27l319 -138l42 -79v-135l-127 -127h-264l-144 49l47 139l126 -43h173l34 34v25l-13 27l-319 138zM170 -330l65 290h145l-105 -290h-105z" />
    <glyph glyph-name="scommaaccent" unicode="&#x219;" horiz-adv-x="525" 
d="M183 374l8 -11l260 -63l45 -74v-119l-107 -107h-224l-145 48l43 130l130 -43h128l20 20v15l-8 12l-260 63l-45 74v117l107 107h225l145 -48l-43 -130l-130 43h-129l-20 -20v-14zM144 -330l65 290h145l-105 -290h-105z" />
    <glyph glyph-name="zdotaccent" unicode="&#x17c;" horiz-adv-x="506" 
d="M261 408h-237v135h462v-118l-243 -279l-35 -25l2 -3l35 17h237v-135h-462v117l243 280l35 25l-2 3zM175 627v75l42 42h71l47 -42v-75l-42 -42h-76z" />
    <glyph glyph-name="Zdotaccent" unicode="&#x17b;" horiz-adv-x="585" 
d="M341 565h-308v145h527v-115l-318 -439l-35 -25l2 -3l35 17h308v-145h-527v113l318 441l35 25l-2 3zM216 808v75l42 42h71l47 -42v-75l-42 -42h-76z" />
    <glyph glyph-name="Abreve" unicode="&#x102;" horiz-adv-x="620" 
d="M503 850l-86 -85h-214l-86 85v124h125v-61l18 -18h100l18 18v61h125v-124zM229 710h162l229 -681l-146 -49l-54 159h-225l-49 -159l-146 49zM381 274l-56 166l-13 74h-4l-13 -74l-56 -166h142z" />
    <glyph glyph-name="abreve" unicode="&#x103;" horiz-adv-x="579" 
d="M513 169l36 -156l-123 -28l-18 78l-55 -63h-215l-108 107v130l108 107h220v45l-19 19h-138l-125 -40l-41 129l147 46h223l108 -107v-267zM358 177v42h-154l-19 -19v-56l19 -19h109zM408 618h-229l-76 75v105h125v-45l15 -15h101l15 15v45h125v-105z" />
    <glyph glyph-name="Dcroat" unicode="&#x110;" horiz-adv-x="656" 
d="M451 525l-40 40h-196v-150h135v-120h-135v-150h196l40 40v340zM-30 415h90v295h418l128 -129v-452l-128 -129h-418v295h-90v120z" />
    <glyph glyph-name="dcroat" unicode="&#x111;" horiz-adv-x="598" 
d="M242 610h135v100h155v-100h90v-120h-90v-321l36 -156l-123 -28l-18 78l-55 -63h-214l-108 107v239l108 107h169l50 -37v74h-135v120zM332 145l45 52v74l-50 37h-103l-19 -19v-125l19 -19h108z" />
    <glyph glyph-name="Sacute" unicode="&#x15a;" horiz-adv-x="600" 
d="M36 448v135l127 127h263l144 -49l-47 -139l-126 43h-172l-34 -34v-25l13 -27l319 -138l42 -79v-135l-127 -127h-264l-144 49l47 139l126 -43h173l34 34v25l-13 27l-319 138zM208 750l129 210h159l-148 -210h-140z" />
    <glyph glyph-name="Zacute" unicode="&#x179;" horiz-adv-x="585" 
d="M341 565h-308v145h527v-115l-318 -439l-35 -25l2 -3l35 17h308v-145h-527v113l318 441l35 25l-2 3zM213 750l129 210h159l-148 -210h-140z" />
    <glyph glyph-name="sacute" unicode="&#x15b;" horiz-adv-x="525" 
d="M183 374l8 -11l260 -63l45 -74v-119l-107 -107h-224l-145 48l43 130l130 -43h128l20 20v15l-8 12l-260 63l-45 74v117l107 107h225l145 -48l-43 -130l-130 43h-129l-20 -20v-14zM179 583l129 210h159l-148 -210h-140z" />
    <glyph glyph-name="zacute" unicode="&#x17a;" horiz-adv-x="506" 
d="M261 408h-237v135h462v-118l-243 -279l-35 -25l2 -3l35 17h237v-135h-462v117l243 280l35 25l-2 3zM179 583l129 210h159l-148 -210h-140z" />
    <glyph glyph-name="Racute" unicode="&#x154;" horiz-adv-x="641" 
d="M414 565h-199v-156h199l36 37v82zM456 253l165 -169l-111 -109l-282 289h-13v-264h-155v710h434l111 -110v-226l-111 -110h-36l-35 17l-2 -3zM226 750l129 210h159l-148 -210h-140z" />
    <glyph glyph-name="Aacute" unicode="&#xc1;" horiz-adv-x="620" 
d="M240 750l129 210h159l-148 -210h-140zM229 710h162l229 -681l-146 -49l-54 159h-225l-49 -159l-146 49zM381 274l-56 166l-13 74h-4l-13 -74l-56 -166h142z" />
    <glyph glyph-name="Lacute" unicode="&#x139;" horiz-adv-x="553" 
d="M60 0v710h155v-565h328v-145h-483zM68 750l129 210h159l-148 -210h-140z" />
    <glyph glyph-name="Cacute" unicode="&#x106;" horiz-adv-x="619" 
d="M407 145l96 96l106 -106l-135 -135h-296l-128 128v454l128 128h289l128 -128v-132h-155v75l-40 40h-155l-40 -40v-340l40 -40h162zM240 750l129 210h159l-148 -210h-140z" />
    <glyph glyph-name="Eacute" unicode="&#xc9;" horiz-adv-x="573" 
d="M60 0v710h493v-145h-338v-122h296v-145h-296v-153h338v-145h-493zM219 750l129 210h159l-148 -210h-140z" />
    <glyph glyph-name="Iacute" unicode="&#xcd;" horiz-adv-x="407" 
d="M377 0h-347v135h96v440h-96v135h347v-135h-96v-440h96v-135zM130 750l129 210h159l-148 -210h-140z" />
    <glyph glyph-name="Nacute" unicode="&#x143;" horiz-adv-x="666" 
d="M215 372v-372h-155v710h139l233 -373l26 -66h4l-11 67v372h155v-710h-139l-233 373l-26 66h-4zM244 740l129 210h159l-148 -210h-140z" />
    <glyph glyph-name="Oacute" unicode="&#xd3;" horiz-adv-x="675" 
d="M189 710h297l139 -126v-458l-139 -126h-297l-139 126v458zM470 523l-46 42h-173l-46 -42v-336l46 -42h173l46 42v336zM254 750l129 210h159l-148 -210h-140z" />
    <glyph glyph-name="Uacute" unicode="&#xda;" 
d="M178 0l-128 127v583h155v-525l40 -40h155l40 40v525h155v-583l-128 -127h-289zM244 740l129 210h159l-148 -210h-140z" />
    <glyph glyph-name="Yacute" unicode="&#xdd;" horiz-adv-x="604" 
d="M604 665l-225 -445v-220h-155v222l-224 443l139 70l149 -295l12 -69h4l12 69l149 295zM223 740l129 210h159l-148 -210h-140z" />
    <glyph glyph-name="racute" unicode="&#x155;" horiz-adv-x="520" 
d="M266 398l-45 -52v-346h-155v374l-36 156l123 28l18 -78l55 63h188l116 -114l-103 -105l-76 74h-85zM236 583l129 210h159l-148 -210h-140z" />
    <glyph glyph-name="aacute" unicode="&#xe1;" horiz-adv-x="579" 
d="M513 169l36 -156l-123 -28l-18 78l-55 -63h-215l-108 107v130l108 107h220v45l-19 19h-138l-125 -40l-41 129l147 46h223l108 -107v-267zM358 177v42h-154l-19 -19v-56l19 -19h109zM217 583l129 210h159l-148 -210h-140z" />
    <glyph glyph-name="lacute" unicode="&#x13a;" horiz-adv-x="274" 
d="M69 559l-39 119l146 48l48 -146v-580h-155v559zM50 750l129 210h159l-148 -210h-140z" />
    <glyph glyph-name="cacute" unicode="&#x107;" horiz-adv-x="554" 
d="M375 145l125 40l44 -138l-150 -47h-236l-108 107v329l108 107h266l108 -107v-111h-155v54l-19 19h-134l-19 -19v-215l19 -19h151zM219 583l129 210h159l-148 -210h-140z" />
    <glyph glyph-name="eacute" unicode="&#xe9;" horiz-adv-x="569" 
d="M373 135l125 40l41 -129l-147 -46h-234l-108 107v329l108 107h266l108 -107v-139l-98 -97h-229v-46l19 -19h149zM224 418l-19 -19v-74h158l14 14v60l-19 19h-134zM219 583l129 210h159l-148 -210h-140z" />
    <glyph glyph-name="iacute" unicode="&#xed;" horiz-adv-x="277" 
d="M69 381l-39 119l146 48l48 -146v-402h-155v381zM50 583l129 210h159l-148 -210h-140z" />
    <glyph glyph-name="nacute" unicode="&#x144;" horiz-adv-x="599" 
d="M549 436v-436h-155v379l-19 19h-109l-45 -52v-346h-155v374l-36 156l123 28l18 -78l55 63h215zM241 583l129 210h159l-148 -210h-140z" />
    <glyph glyph-name="oacute" unicode="&#xf3;" horiz-adv-x="587" 
d="M537 108l-107 -108h-273l-107 108v327l107 108h273l107 -108v-327zM224 145h139l19 19v215l-19 19h-139l-19 -19v-215zM221 583l129 210h159l-148 -210h-140z" />
    <glyph glyph-name="uacute" unicode="&#xfa;" horiz-adv-x="599" 
d="M50 107v436h155v-379l19 -19h109l45 52v346h155v-374l36 -156l-123 -28l-18 78l-55 -63h-215zM218 583l129 210h159l-148 -210h-140z" />
    <glyph glyph-name="yacute" unicode="&#xfd;" horiz-adv-x="549" 
d="M302 249l105 314l142 -47l-201 -604l-80 -80h-185v145h123l17 17l7 22h-25l-205 488l140 59l132 -314l13 -69h4zM198 583l129 210h159l-148 -210h-140z" />
    <glyph glyph-name="uhungarumlaut" unicode="&#x171;" horiz-adv-x="599" 
d="M50 107v436h155v-379l19 -19h109l45 52v346h155v-374l36 -156l-123 -28l-18 78l-55 -63h-215zM100 593l129 210h159l-148 -210h-140zM335 593l129 210h159l-148 -210h-140z" />
    <glyph glyph-name="ohungarumlaut" unicode="&#x151;" horiz-adv-x="587" 
d="M537 108l-107 -108h-273l-107 108v327l107 108h273l107 -108v-327zM224 145h139l19 19v215l-19 19h-139l-19 -19v-215zM103 593l129 210h159l-148 -210h-140zM338 593l129 210h159l-148 -210h-140z" />
    <glyph glyph-name="Uhungarumlaut" unicode="&#x170;" 
d="M178 0l-128 127v583h155v-525l40 -40h155l40 40v525h155v-583l-128 -127h-289zM126 750l129 210h159l-148 -210h-140zM361 750l129 210h159l-148 -210h-140z" />
    <glyph glyph-name="Ohungarumlaut" unicode="&#x150;" horiz-adv-x="675" 
d="M189 710h297l139 -126v-458l-139 -126h-297l-139 126v458zM470 523l-46 42h-173l-46 -42v-336l46 -42h173l46 42v336zM136 750l129 210h159l-148 -210h-140zM371 750l129 210h159l-148 -210h-140z" />
    <glyph glyph-name="Zcaron" unicode="&#x17d;" horiz-adv-x="585" 
d="M341 565h-308v145h527v-115l-318 -439l-35 -25l2 -3l35 17h308v-145h-527v113l318 441l35 25l-2 3zM229 750l-141 150h140l73 -69l73 69h140l-141 -150h-144z" />
    <glyph glyph-name="Tcaron" unicode="&#x164;" horiz-adv-x="565" 
d="M360 565v-565h-155v565h-195v145h545v-145h-195zM208 750l-141 150h140l73 -69l73 69h140l-141 -150h-144z" />
    <glyph glyph-name="Scaron" unicode="&#x160;" horiz-adv-x="600" 
d="M36 448v135l127 127h263l144 -49l-47 -139l-126 43h-172l-34 -34v-25l13 -27l319 -138l42 -79v-135l-127 -127h-264l-144 49l47 139l126 -43h173l34 34v25l-13 27l-319 138zM232 750l-141 150h140l73 -69l73 69h140l-141 -150h-144z" />
    <glyph glyph-name="scaron" unicode="&#x161;" horiz-adv-x="525" 
d="M183 374l8 -11l260 -63l45 -74v-119l-107 -107h-224l-145 48l43 130l130 -43h128l20 20v15l-8 12l-260 63l-45 74v117l107 107h225l145 -48l-43 -130l-130 43h-129l-20 -20v-14zM191 583l-141 150h140l73 -69l73 69h140l-141 -150h-144z" />
    <glyph glyph-name="zcaron" unicode="&#x17e;" horiz-adv-x="506" 
d="M261 408h-237v135h462v-118l-243 -279l-35 -25l2 -3l35 17h237v-135h-462v117l243 280l35 25l-2 3zM191 583l-141 150h140l73 -69l73 69h140l-141 -150h-144z" />
    <glyph glyph-name="Lcaron" unicode="&#x13d;" horiz-adv-x="553" 
d="M60 0v710h155v-565h328v-145h-483zM65 750l-141 150h140l73 -69l73 69h140l-141 -150h-144z" />
    <glyph glyph-name="Ccaron" unicode="&#x10c;" horiz-adv-x="619" 
d="M407 145l96 96l106 -106l-135 -135h-296l-128 128v454l128 128h289l128 -128v-132h-155v75l-40 40h-155l-40 -40v-340l40 -40h162zM251 750l-141 150h140l73 -69l73 69h140l-141 -150h-144z" />
    <glyph glyph-name="Ecaron" unicode="&#x11a;" horiz-adv-x="573" 
d="M60 0v710h493v-145h-338v-122h296v-145h-296v-153h338v-145h-493zM238 750l-141 150h140l73 -69l73 69h140l-141 -150h-144z" />
    <glyph glyph-name="Dcaron" unicode="&#x10e;" horiz-adv-x="656" 
d="M60 0v710h418l128 -129v-452l-128 -129h-418zM451 525l-40 40h-196v-420h196l40 40v340zM244 750l-141 150h140l73 -69l73 69h140l-141 -150h-144z" />
    <glyph glyph-name="Ncaron" unicode="&#x147;" horiz-adv-x="666" 
d="M215 372v-372h-155v710h139l233 -373l26 -66h4l-11 67v372h155v-710h-139l-233 373l-26 66h-4zM258 750l-141 150h140l73 -69l73 69h140l-141 -150h-144z" />
    <glyph glyph-name="Rcaron" unicode="&#x158;" horiz-adv-x="641" 
d="M414 565h-199v-156h199l36 37v82zM456 253l165 -169l-111 -109l-282 289h-13v-264h-155v710h434l111 -110v-226l-111 -110h-36l-35 17l-2 -3zM246 750l-141 150h140l73 -69l73 69h140l-141 -150h-144z" />
    <glyph glyph-name="ccaron" unicode="&#x10d;" horiz-adv-x="554" 
d="M375 145l125 40l44 -138l-150 -47h-236l-108 107v329l108 107h266l108 -107v-111h-155v54l-19 19h-134l-19 -19v-215l19 -19h151zM219 583l-141 150h140l73 -69l73 69h140l-141 -150h-144z" />
    <glyph glyph-name="ecaron" unicode="&#x11b;" horiz-adv-x="569" 
d="M373 135l125 40l41 -129l-147 -46h-234l-108 107v329l108 107h266l108 -107v-139l-98 -97h-229v-46l19 -19h149zM224 418l-19 -19v-74h158l14 14v60l-19 19h-134zM219 583l-141 150h140l73 -69l73 69h140l-141 -150h-144z" />
    <glyph glyph-name="ncaron" unicode="&#x148;" horiz-adv-x="599" 
d="M549 436v-436h-155v379l-19 19h-109l-45 -52v-346h-155v374l-36 156l123 28l18 -78l55 63h215zM252 583l-141 150h140l73 -69l73 69h140l-141 -150h-144z" />
    <glyph glyph-name="rcaron" unicode="&#x159;" horiz-adv-x="520" 
d="M266 398l-45 -52v-346h-155v374l-36 156l123 28l18 -78l55 63h188l116 -114l-103 -105l-76 74h-85zM240 583l-141 150h140l73 -69l73 69h140l-141 -150h-144z" />
    <glyph glyph-name="ocircumflex" unicode="&#xf4;" horiz-adv-x="587" 
d="M537 108l-107 -108h-273l-107 108v327l107 108h273l107 -108v-327zM224 145h139l19 19v215l-19 19h-139l-19 -19v-215zM81 583l141 150h144l141 -150h-140l-73 69l-73 -69h-140z" />
    <glyph glyph-name="lcaron" unicode="&#x13e;" horiz-adv-x="450" 
d="M69 559l-39 119l146 48l48 -146v-580h-155v559zM260 420l65 290h145l-105 -290h-105z" />
    <glyph glyph-name="tcaron" unicode="&#x165;" horiz-adv-x="585" 
d="M120 378h-90v145h90v157h155v-157h105v-145h-105v-209l24 -24h52c36 11 89 28 124 39l43 -137l-150 -47h-141l-107 107v271zM395 420l65 290h145l-105 -290h-105z" />
    <glyph glyph-name="dcaron" unicode="&#x10f;" horiz-adv-x="758" 
d="M332 145l45 52v164l-50 37h-103l-19 -19v-215l19 -19h108zM372 0h-214l-108 107v329l108 107h169l50 -37v204h155v-541l36 -156l-123 -28l-18 78zM568 420l65 290h145l-105 -290h-105z" />
    <glyph glyph-name="icircumflex" unicode="&#xee;" horiz-adv-x="277" 
d="M69 381l-39 119l146 48l48 -146v-402h-155v381zM-66 583l141 150h144l141 -150h-140l-73 69l-73 -69h-140z" />
    <glyph glyph-name="acircumflex" unicode="&#xe2;" horiz-adv-x="579" 
d="M513 169l36 -156l-123 -28l-18 78l-55 -63h-215l-108 107v130l108 107h220v45l-19 19h-138l-125 -40l-41 129l147 46h223l108 -107v-267zM358 177v42h-154l-19 -19v-56l19 -19h109zM89 583l141 150h144l141 -150h-140l-73 69l-73 -69h-140z" />
    <glyph glyph-name="Ocircumflex" unicode="&#xd4;" horiz-adv-x="675" 
d="M189 710h297l139 -126v-458l-139 -126h-297l-139 126v458zM470 523l-46 42h-173l-46 -42v-336l46 -42h173l46 42v336zM134 750l173 185v-154l-33 -31h-140zM387 935l173 -185h-140l-33 31v154z" />
    <glyph glyph-name="Icircumflex" unicode="&#xce;" horiz-adv-x="407" 
d="M377 0h-347v135h96v440h-96v135h347v-135h-96v-440h96v-135zM-9 750l173 185v-154l-33 -31h-140zM244 935l173 -185h-140l-33 31v154z" />
    <glyph glyph-name="Acircumflex" unicode="&#xc2;" horiz-adv-x="620" 
d="M97 750l173 185v-154l-33 -31h-140zM350 935l173 -185h-140l-33 31v154zM229 710h162l229 -681l-146 -49l-54 159h-225l-49 -159l-146 49zM381 274l-56 166l-13 74h-4l-13 -74l-56 -166h142z" />
    <glyph glyph-name="Ydieresis" unicode="&#x178;" horiz-adv-x="604" 
d="M604 665l-225 -445v-220h-155v222l-224 443l139 70l149 -295l12 -69h4l12 69l149 295zM118 808v75l42 42h71l47 -42v-75l-42 -42h-76zM328 808v75l42 42h71l47 -42v-75l-42 -42h-76z" />
    <glyph glyph-name="Agrave" unicode="&#xc0;" horiz-adv-x="620" 
d="M255 960l129 -210h-140l-148 210h159zM229 710h162l229 -681l-146 -49l-54 159h-225l-49 -159l-146 49zM381 274l-56 166l-13 74h-4l-13 -74l-56 -166h142z" />
    <glyph glyph-name="Egrave" unicode="&#xc8;" horiz-adv-x="573" 
d="M60 0v710h493v-145h-338v-122h296v-145h-296v-153h338v-145h-493zM273 960l129 -210h-140l-148 210h159z" />
    <glyph glyph-name="Ecircumflex" unicode="&#xca;" horiz-adv-x="573" 
d="M60 0v710h493v-145h-338v-122h296v-145h-296v-153h338v-145h-493zM93 750l173 185v-154l-33 -31h-140zM346 935l173 -185h-140l-33 31v154z" />
    <glyph glyph-name="Igrave" unicode="&#xcc;" horiz-adv-x="407" 
d="M377 0h-347v135h96v440h-96v135h347v-135h-96v-440h96v-135zM146 960l129 -210h-140l-148 210h159z" />
    <glyph glyph-name="Idieresis" unicode="&#xcf;" horiz-adv-x="407" 
d="M377 0h-347v135h96v440h-96v135h347v-135h-96v-440h96v-135zM18 808v75l42 42h71l47 -42v-75l-42 -42h-76zM228 808v75l42 42h71l47 -42v-75l-42 -42h-76z" />
    <glyph glyph-name="idieresis" unicode="&#xef;" horiz-adv-x="277" 
d="M69 381l-39 119l146 48l48 -146v-402h-155v381zM-39 627v75l42 42h71l47 -42v-75l-42 -42h-76zM173 627v75l42 42h71l47 -42v-75l-42 -42h-76z" />
    <glyph glyph-name="Gbreve" unicode="&#x11e;" 
d="M245 145h155c14 14 26 25 40 40v81h-153v125h308v-264l-127 -127h-290l-128 128v454l128 128h289l128 -128v-132h-155v75l-40 40h-155l-40 -40v-340zM512 850l-86 -85h-214l-86 85v124h125v-61l18 -18h100l18 18v61h125v-124z" />
    <glyph glyph-name="Ograve" unicode="&#xd2;" horiz-adv-x="675" 
d="M189 710h297l139 -126v-458l-139 -126h-297l-139 126v458zM470 523l-46 42h-173l-46 -42v-336l46 -42h173l46 42v336zM292 960l129 -210h-140l-148 210h159z" />
    <glyph glyph-name="Ugrave" unicode="&#xd9;" 
d="M178 0l-128 127v583h155v-525l40 -40h155l40 40v525h155v-583l-128 -127h-289zM278 950l129 -210h-140l-148 210h159z" />
    <glyph glyph-name="Ucircumflex" unicode="&#xdb;" 
d="M178 0l-128 127v583h155v-525l40 -40h155l40 40v525h155v-583l-128 -127h-289zM108 750l173 185v-154l-33 -31h-140zM361 935l173 -185h-140l-33 31v154z" />
    <glyph glyph-name="agrave" unicode="&#xe0;" horiz-adv-x="579" 
d="M513 169l36 -156l-123 -28l-18 78l-55 -63h-215l-108 107v130l108 107h220v45l-19 19h-138l-125 -40l-41 129l147 46h223l108 -107v-267zM358 177v42h-154l-19 -19v-56l19 -19h109zM243 793l129 -210h-140l-148 210h159z" />
    <glyph glyph-name="egrave" unicode="&#xe8;" horiz-adv-x="569" 
d="M373 135l125 40l41 -129l-147 -46h-234l-108 107v329l108 107h266l108 -107v-139l-98 -97h-229v-46l19 -19h149zM224 418l-19 -19v-74h158l14 14v60l-19 19h-134zM248 793l129 -210h-140l-148 210h159z" />
    <glyph glyph-name="ecircumflex" unicode="&#xea;" horiz-adv-x="569" 
d="M373 135l125 40l41 -129l-147 -46h-234l-108 107v329l108 107h266l108 -107v-139l-98 -97h-229v-46l19 -19h149zM224 418l-19 -19v-74h158l14 14v60l-19 19h-134zM77 583l141 150h144l141 -150h-140l-73 69l-73 -69h-140z" />
    <glyph glyph-name="igrave" unicode="&#xec;" horiz-adv-x="277" 
d="M69 381l-39 119l146 48l48 -146v-402h-155v381zM102 793l129 -210h-140l-148 210h159z" />
    <glyph glyph-name="gbreve" unicode="&#x11f;" horiz-adv-x="572" 
d="M372 368l-52 45h-106l-19 -19v-74l38 -38h120l19 19v67zM177 -168l-147 46l38 119l125 -40h183l13 13v9l-13 13h-251l-85 85v115l48 48l-48 48v148l108 107h210l156 36l28 -123l-78 -18l63 -55v-124l-108 -107h-231l-13 -13v-9l13 -13h251l85 -85v-115l-85 -85h-262z
M403 618h-229l-76 75v105h125v-45l15 -15h101l15 15v45h125v-105z" />
    <glyph glyph-name="ograve" unicode="&#xf2;" horiz-adv-x="587" 
d="M537 108l-107 -108h-273l-107 108v327l107 108h273l107 -108v-327zM224 145h139l19 19v215l-19 19h-139l-19 -19v-215zM244 793l129 -210h-140l-148 210h159z" />
    <glyph glyph-name="ugrave" unicode="&#xf9;" horiz-adv-x="599" 
d="M50 107v436h155v-379l19 -19h109l45 52v346h155v-374l36 -156l-123 -28l-18 78l-55 -63h-215zM247 793l129 -210h-140l-148 210h159z" />
    <glyph glyph-name="ucircumflex" unicode="&#xfb;" horiz-adv-x="599" 
d="M50 107v436h155v-379l19 -19h109l45 52v346h155v-374l36 -156l-123 -28l-18 78l-55 -63h-215zM76 583l141 150h144l141 -150h-140l-73 69l-73 -69h-140z" />
    <glyph glyph-name="dotlessi" unicode="&#x131;" horiz-adv-x="277" 
d="M69 381l-39 119l146 48l48 -146v-402h-155v381z" />
    <glyph glyph-name="scedilla" unicode="&#x15f;" horiz-adv-x="525" 
d="M183 374l8 -11l260 -63l45 -74v-119l-107 -107h-224l-145 48l43 130l130 -43h128l20 20v15l-8 12l-260 63l-45 74v117l107 107h225l145 -48l-43 -130l-130 43h-129l-20 -20v-14zM144 -330l65 290h145l-105 -290h-105z" />
    <glyph glyph-name="ydieresis" unicode="&#xff;" horiz-adv-x="549" 
d="M302 249l105 314l142 -47l-201 -604l-80 -80h-185v145h123l17 17l7 22h-25l-205 488l140 59l132 -314l13 -69h4zM87 637v75l42 42h71l47 -42v-75l-42 -42h-76zM299 637v75l42 42h71l47 -42v-75l-42 -42h-76z" />
    <glyph glyph-name="Scedilla" unicode="&#x15e;" horiz-adv-x="600" 
d="M36 448v135l127 127h263l144 -49l-47 -139l-126 43h-172l-34 -34v-25l13 -27l319 -138l42 -79v-135l-127 -127h-264l-144 49l47 139l126 -43h173l34 34v25l-13 27l-319 138zM170 -330l65 290h145l-105 -290h-105z" />
    <glyph glyph-name="Idotaccent" unicode="&#x130;" horiz-adv-x="407" 
d="M377 0h-347v135h96v440h-96v135h347v-135h-96v-440h96v-135zM123 808v75l42 42h71l47 -42v-75l-42 -42h-76z" />
    <glyph glyph-name="ccedilla" unicode="&#xe7;" horiz-adv-x="554" 
d="M375 145l125 40l44 -138l-150 -47h-236l-108 107v329l108 107h266l108 -107v-111h-155v54l-19 19h-134l-19 -19v-215l19 -19h151zM300 -125h-60v154h80v-39h26l81 -81v-102l-81 -81h-106v115h60l7 7v20z" />
    <glyph glyph-name="Ccedilla" unicode="&#xc7;" horiz-adv-x="619" 
d="M321 -125h-60v125h-83l-128 128v454l128 128h289l128 -128v-132h-155v75l-40 40h-155l-40 -40v-340l40 -40h162l96 96l106 -106l-135 -135h-133v-10h26l81 -81v-102l-81 -81h-106v115h60l7 7v20z" />
    <glyph glyph-name="eogonek" unicode="&#x119;" horiz-adv-x="569" 
d="M373 135l125 40l41 -129l-147 -46h-57v-48l7 -7h70v-115h-116l-81 81v89h-57l-108 107v329l108 107h266l108 -107v-139l-98 -97h-229v-46l19 -19h149zM224 418l-19 -19v-74h158l14 14v60l-19 19h-134z" />
    <glyph glyph-name="Eogonek" unicode="&#x118;" horiz-adv-x="573" 
d="M60 0v710h493v-145h-338v-122h296v-145h-296v-153h338v-145h-192v-48l7 -7h70v-115h-116l-81 81v89h-181z" />
    <glyph glyph-name="divide" unicode="&#xf7;" horiz-adv-x="520" 
d="M20 412h480v-135h-480v135zM175 113v85l42 42h81l47 -42v-85l-42 -42h-86zM175 492v85l42 42h81l47 -42v-85l-42 -42h-86z" />
    <glyph glyph-name="multiply" unicode="&#xd7;" horiz-adv-x="474" 
d="M20 460l102 102l119 -119l119 119l95 -96l-119 -119l118 -118l-101 -102l-119 118l-118 -118l-96 95l119 119z" />
    <glyph glyph-name="Atilde" unicode="&#xc3;" horiz-adv-x="620" 
d="M437 962l96 -95l-105 -106l-70 69l-85 -76h-103l-96 95l105 106l70 -69l85 76h103zM229 710h162l229 -681l-146 -49l-54 159h-225l-49 -159l-146 49zM381 274l-56 166l-13 74h-4l-13 -74l-56 -166h142z" />
    <glyph glyph-name="Ntilde" unicode="&#xd1;" horiz-adv-x="666" 
d="M215 372v-372h-155v710h139l233 -373l26 -66h4l-11 67v372h155v-710h-139l-233 373l-26 66h-4zM453 962l96 -95l-105 -106l-70 69l-85 -76h-103l-96 95l105 106l70 -69l85 76h103z" />
    <glyph glyph-name="Otilde" unicode="&#xd5;" horiz-adv-x="675" 
d="M189 710h297l139 -126v-458l-139 -126h-297l-139 126v458zM470 523l-46 42h-173l-46 -42v-336l46 -42h173l46 42v336zM469 962l96 -95l-105 -106l-70 69l-85 -76h-103l-96 95l105 106l70 -69l85 76h103z" />
    <glyph glyph-name="atilde" unicode="&#xe3;" horiz-adv-x="579" 
d="M513 169l36 -156l-123 -28l-18 78l-55 -63h-215l-108 107v130l108 107h220v45l-19 19h-138l-125 -40l-41 129l147 46h223l108 -107v-267zM358 177v42h-154l-19 -19v-56l19 -19h109zM415 795l96 -95l-105 -106l-70 69l-85 -76h-103l-96 95l105 106l70 -69l85 76h103z" />
    <glyph glyph-name="ntilde" unicode="&#xf1;" horiz-adv-x="599" 
d="M549 436v-436h-155v379l-19 19h-109l-45 -52v-346h-155v374l-36 156l123 28l18 -78l55 63h215zM444 795l96 -95l-105 -106l-70 69l-85 -76h-103l-96 95l105 106l70 -69l85 76h103z" />
    <glyph glyph-name="otilde" unicode="&#xf5;" horiz-adv-x="587" 
d="M537 108l-107 -108h-273l-107 108v327l107 108h273l107 -108v-327zM224 145h139l19 19v215l-19 19h-139l-19 -19v-215zM432 795l96 -95l-105 -106l-70 69l-85 -76h-103l-96 95l105 106l70 -69l85 76h103z" />
    <glyph glyph-name="Rcommaaccent" unicode="&#x156;" horiz-adv-x="641" 
d="M414 565h-199v-156h199l36 37v82zM456 253l165 -169l-111 -109l-282 289h-13v-264h-155v710h434l111 -110v-226l-111 -110h-36l-35 17l-2 -3zM196 -325l65 290h145l-105 -290h-105z" />
    <glyph glyph-name="rcommaaccent" unicode="&#x157;" horiz-adv-x="520" 
d="M266 398l-45 -52v-346h-155v374l-36 156l123 28l18 -78l55 63h188l116 -114l-103 -105l-76 74h-85zM14 -325l65 290h145l-105 -290h-105z" />
    <glyph glyph-name="Gcommaaccent" unicode="&#x122;" 
d="M245 145h155c14 14 26 25 40 40v81h-153v125h308v-264l-127 -127h-290l-128 128v454l128 128h289l128 -128v-132h-155v75l-40 40h-155l-40 -40v-340zM196 -325l65 290h145l-105 -290h-105z" />
    <glyph glyph-name="Kcommaaccent" unicode="&#x136;" horiz-adv-x="594" 
d="M378 389l215 -325l-126 -84l-197 297l-55 -61v-216h-155v710h155v-273l264 293l114 -102zM193 -325l65 290h145l-105 -290h-105z" />
    <glyph glyph-name="Lcommaaccent" unicode="&#x13b;" horiz-adv-x="553" 
d="M60 0v710h155v-565h328v-145h-483zM187 -325l65 290h145l-105 -290h-105z" />
    <glyph glyph-name="Ncommaaccent" unicode="&#x145;" horiz-adv-x="666" 
d="M215 372v-372h-155v710h139l233 -373l26 -66h4l-11 67v372h155v-710h-139l-233 373l-26 66h-4zM199 -325l65 290h145l-105 -290h-105z" />
    <glyph glyph-name="Edotaccent" unicode="&#x116;" horiz-adv-x="573" 
d="M60 0v710h493v-145h-338v-122h296v-145h-296v-153h338v-145h-493zM220 808v75l42 42h71l47 -42v-75l-42 -42h-76z" />
    <glyph glyph-name="edotaccent" unicode="&#x117;" horiz-adv-x="569" 
d="M373 135l125 40l41 -129l-147 -46h-234l-108 107v329l108 107h266l108 -107v-139l-98 -97h-229v-46l19 -19h149zM224 418l-19 -19v-74h158l14 14v60l-19 19h-134zM204 637v75l42 42h71l47 -42v-75l-42 -42h-76z" />
    <glyph glyph-name="gcommaaccent" unicode="&#x123;" horiz-adv-x="572" 
d="M372 368l-52 45h-106l-19 -19v-74l38 -38h120l19 19v67zM177 -168l-147 46l38 119l125 -40h183l13 13v9l-13 13h-251l-85 85v115l48 48l-48 48v148l108 107h210l156 36l28 -123l-78 -18l63 -55v-124l-108 -107h-231l-13 -13v-9l13 -13h251l85 -85v-115l-85 -85h-262z
M412 868l-65 -290h-145l105 290h105z" />
    <glyph glyph-name="kcommaaccent" unicode="&#x137;" horiz-adv-x="535" 
d="M69 559l-39 119l146 48l48 -146v-220l205 203l106 -108l-172 -170l172 -208l-117 -97l-166 201l-28 -27v-154h-155v559zM170 -325l65 290h145l-105 -290h-105z" />
    <glyph glyph-name="lcommaaccent" unicode="&#x13c;" horiz-adv-x="274" 
d="M69 559l-39 119l146 48l48 -146v-580h-155v559zM19 -325l65 290h145l-105 -290h-105z" />
    <glyph glyph-name="ncommaaccent" unicode="&#x146;" horiz-adv-x="599" 
d="M549 436v-436h-155v379l-19 19h-109l-45 -52v-346h-155v374l-36 156l123 28l18 -78l55 63h215zM181 -325l65 290h145l-105 -290h-105z" />
    <glyph glyph-name="Amacron" unicode="&#x100;" horiz-adv-x="620" 
d="M151 785v135h318v-135h-318zM229 710h162l229 -681l-146 -49l-54 159h-225l-49 -159l-146 49zM381 274l-56 166l-13 74h-4l-13 -74l-56 -166h142z" />
    <glyph glyph-name="Emacron" unicode="&#x112;" horiz-adv-x="573" 
d="M60 0v710h493v-145h-338v-122h296v-145h-296v-153h338v-145h-493zM152 785v135h318v-135h-318z" />
    <glyph glyph-name="Omacron" unicode="&#x14c;" horiz-adv-x="675" 
d="M189 710h297l139 -126v-458l-139 -126h-297l-139 126v458zM470 523l-46 42h-173l-46 -42v-336l46 -42h173l46 42v336zM180 785v135h318v-135h-318z" />
    <glyph glyph-name="Umacron" unicode="&#x16a;" 
d="M178 0l-128 127v583h155v-525l40 -40h155l40 40v525h155v-583l-128 -127h-289zM161 785v135h318v-135h-318z" />
    <glyph glyph-name="amacron" unicode="&#x101;" horiz-adv-x="579" 
d="M513 169l36 -156l-123 -28l-18 78l-55 -63h-215l-108 107v130l108 107h220v45l-19 19h-138l-125 -40l-41 129l147 46h223l108 -107v-267zM358 177v42h-154l-19 -19v-56l19 -19h109zM132 598v135h318v-135h-318z" />
    <glyph glyph-name="emacron" unicode="&#x113;" horiz-adv-x="569" 
d="M373 135l125 40l41 -129l-147 -46h-234l-108 107v329l108 107h266l108 -107v-139l-98 -97h-229v-46l19 -19h149zM224 418l-19 -19v-74h158l14 14v60l-19 19h-134zM133 598v135h318v-135h-318z" />
    <glyph glyph-name="imacron" unicode="&#x12b;" horiz-adv-x="277" 
d="M69 381l-39 119l146 48l48 -146v-402h-155v381zM-20 598v135h318v-135h-318z" />
    <glyph glyph-name="omacron" unicode="&#x14d;" horiz-adv-x="587" 
d="M537 108l-107 -108h-273l-107 108v327l107 108h273l107 -108v-327zM224 145h139l19 19v215l-19 19h-139l-19 -19v-215zM136 598v135h318v-135h-318z" />
    <glyph glyph-name="umacron" unicode="&#x16b;" horiz-adv-x="599" 
d="M50 107v436h155v-379l19 -19h109l45 52v346h155v-374l36 -156l-123 -28l-18 78l-55 -63h-215zM135 598v135h318v-135h-318z" />
    <glyph glyph-name="aring" unicode="&#xe5;" horiz-adv-x="579" 
d="M513 169l36 -156l-123 -28l-18 78l-55 -63h-215l-108 107v130l108 107h220v45l-19 19h-138l-125 -40l-41 129l147 46h223l108 -107v-267zM358 177v42h-154l-19 -19v-56l19 -19h109zM279 738l-15 -15v-30l15 -15h30l15 15v30l-15 15h-30zM251 828h86l82 -82v-76l-82 -82
h-86l-82 82v76z" />
    <glyph glyph-name="Aring" unicode="&#xc5;" horiz-adv-x="620" 
d="M267 860h86l82 -82v-76l-31 -31l216 -642l-146 -49l-54 159h-225l-49 -159l-146 49l216 642l-31 31v76zM381 274l-56 166l-13 74h-4l-13 -74l-56 -166h142zM295 770l-15 -15v-30l15 -15h30l15 15v30l-15 15h-30z" />
    <glyph glyph-name="Uring" unicode="&#x16e;" 
d="M178 0l-128 127v583h155v-525l40 -40h155l40 40v525h155v-583l-128 -127h-289zM338 840l15 15v55h95v-78l-82 -82h-86l-82 82v78h95v-55l15 -15h30z" />
    <glyph glyph-name="uring" unicode="&#x16f;" horiz-adv-x="599" 
d="M50 107v436h155v-379l19 -19h109l45 52v346h155v-374l36 -156l-123 -28l-18 78l-55 -63h-215zM277 733l-15 -15v-30l15 -15h30l15 15v30l-15 15h-30zM249 823h86l82 -82v-76l-82 -82h-86l-82 82v76z" />
    <glyph glyph-name="Uogonek" unicode="&#x172;" 
d="M178 0l-128 127v583h155v-525l40 -40h155l40 40v525h155v-583l-128 -127h-88v-48l7 -7h70v-115h-116l-81 81v89h-81z" />
    <glyph glyph-name="Iogonek" unicode="&#x12e;" horiz-adv-x="407" 
d="M145 0h-115v135h96v440h-96v135h347v-135h-96v-440h96v-135h-112v-48l7 -7h70v-115h-116l-81 81v89z" />
    <glyph glyph-name="Aogonek" unicode="&#x104;" horiz-adv-x="620" 
d="M490 -35v-28l7 -7h80v-100h-116l-81 81v91l70 48l-30 89h-225l-49 -159l-146 49l229 681h162l222 -661zM381 274l-56 166l-13 74h-4l-13 -74l-56 -166h142z" />
    <glyph glyph-name="uogonek" unicode="&#x173;" horiz-adv-x="599" 
d="M481 -56v-14l8 -7h79v-93h-116l-81 74v72l65 50l-8 37l-55 -63h-215l-108 107v436h155v-379l19 -19h109l45 52v346h155v-374l37 -158z" />
    <glyph glyph-name="iogonek" unicode="&#x12f;" horiz-adv-x="277" 
d="M135 -56v-14l8 -7h79v-93h-116l-81 74v72l44 33v372l-39 119l146 48l48 -146v-391zM67 627v75l42 42h71l47 -42v-75l-42 -42h-76z" />
    <glyph glyph-name="aogonek" unicode="&#x105;" horiz-adv-x="579" 
d="M461 -56v-14l8 -7h79v-93h-116l-81 74v72l65 50l-8 37l-55 -63h-215l-108 107v130l108 107h220v45l-19 19h-138l-125 -40l-41 129l147 46h223l108 -107v-267l37 -158zM358 177v42h-154l-19 -19v-56l19 -19h109z" />
    <glyph glyph-name="Lslash" unicode="&#x141;" horiz-adv-x="553" 
d="M300 570v-169l-85 -63v-193h328v-145h-483v224l-70 -51v171l70 51v315h155v-202z" />
    <glyph glyph-name="lslash" unicode="&#x142;" horiz-adv-x="274" 
d="M300 498v-169l-76 -56v-273h-155v159l-79 -58v171l79 57v230l-39 119l146 48l48 -146v-138z" />
    <glyph glyph-name="ae" unicode="&#xe6;" horiz-adv-x="840" 
d="M651 135l125 40l41 -129l-147 -46h-219l-61 60l-52 -60h-200l-108 107v121l108 107h205v54l-19 19h-123l-125 -40l-41 129l147 46h208l30 -30l31 30h251l108 -107v-129l-98 -97h-214v-56l19 -19h134zM517 418l-19 -19v-64h143l14 14v50l-19 19h-119zM343 177v33h-139
l-19 -19v-47l19 -19h94z" />
    <glyph glyph-name="AE" unicode="&#xc6;" horiz-adv-x="971" 
d="M951 710v-145h-328v-122h286v-145h-286v-153h328v-145h-483v139h-247l-86 -159l-135 73l356 657h595zM452 565l-158 -291h174v291h-16z" />
    <glyph glyph-name="oe" unicode="&#x153;" horiz-adv-x="872" 
d="M676 135l125 40l41 -129l-147 -46h-220l-31 30l-29 -30h-258l-107 108v327l107 108h258l29 -30l31 30h252l108 -107v-139l-98 -97h-215v-46l19 -19h135zM224 145h124l19 19v215l-19 19h-124l-19 -19v-215zM541 418l-19 -19v-74h144l14 14v60l-19 19h-120z" />
    <glyph glyph-name="OE" unicode="&#x152;" horiz-adv-x="938" 
d="M189 710h729v-145h-323v-122h281v-145h-281v-153h323v-145h-729l-139 126v458zM440 145v420h-189l-46 -42v-336l46 -42h189z" />
    <glyph glyph-name="germandbls" unicode="&#xdf;" horiz-adv-x="663" 
d="M215 540v-540h-155v602l108 108h308l108 -108v-125l-123 -83v-14l8 -11l109 -26l45 -74v-162l-107 -107h-119l-145 48l43 130l130 -43h23l20 20v58l-8 12l-109 26l-45 74v117l123 83v15l-25 25h-164z" />
    <glyph glyph-name="Oslash" unicode="&#xd8;" horiz-adv-x="675" 
d="M140 -30l-120 91l41 54l-11 11v458l139 126h297l15 -14l34 44l120 -91l-42 -55l12 -10v-458l-139 -126h-297l-16 14zM424 145l46 42v218l-197 -260h151zM205 523v-218l197 260h-151z" />
    <glyph glyph-name="oslash" unicode="&#xf8;" horiz-adv-x="587" 
d="M118 -19l-88 77l32 37l-12 13v327l107 108h273l11 -12l28 32l88 -77l-33 -38l13 -13v-327l-107 -108h-273l-12 12zM363 145l19 19v130l-132 -149h113zM205 379v-130l130 149h-111z" />
    <glyph glyph-name="cent" unicode="&#xa2;" horiz-adv-x="554" 
d="M359 543h65l108 -107v-111h-155v54l-19 19h-134l-19 -19v-215l19 -19h151l125 40l44 -138l-150 -47h-35v-70h-139v70h-62l-108 107v329l108 107h62v70h139v-70z" />
    <glyph glyph-name="yen" unicode="&#xa5;" horiz-adv-x="604" 
d="M72 240v100h92l-164 325l139 70l149 -295l12 -69h4l12 69l149 295l139 -70l-165 -325h92v-100h-142l-10 -20v-20h152v-100h-152v-100h-155v100h-152v100h152v22l-9 18h-143z" />
    <glyph glyph-name="apple" horiz-adv-x="2345" 
d="M1355 160c0 -95 -75 -170 -170 -170s-170 75 -170 170s75 170 170 170s170 -75 170 -170zM340 0h-320v320zM2020 0h-320l160 320zM2200 160c0 -95 -75 -170 -170 -170v340c95 0 170 -75 170 -170zM1690 320v-295l-285 295h285zM1380 0v295l285 -295h-285zM670 320
l160 -320h-160v320zM990 320v-320h-160zM340 0v160l320 -160h-320zM340 320h320l-320 -160v160zM485 355h-320l320 320v-320zM850 515c0 -95 -75 -170 -170 -170s-170 75 -170 170s75 170 170 170s170 -75 170 -170zM820 675h320l-160 -320zM1345 355h-320l160 320z
M1665 675v-295l-285 295h285zM1355 355v295l285 -295h-285zM2015 675v-295l-285 295h285zM1705 355v295l285 -295h-285zM2025 675h320l-160 -320z" />
    <glyph glyph-name="space" unicode=" " horiz-adv-x="330" 
 />
    </font>
</defs>
</svg>
