<?xml version="1.0" standalone="no"?>
<!DOCTYPE svg PUBLIC "-//W3C//DTD SVG 1.1//EN" "http://www.w3.org/Graphics/SVG/1.1/DTD/svg11.dtd" >
<svg>
<metadata>
Created by FontForge 20090622 at Mon May  6 12:04:13 2019
 By deploy user
Copyright (c) 2018 by Oleh Lishchuk. All rights reserved.
</metadata>
<defs>
<font id="VinSansPro-Light" horiz-adv-x="403" >
  <font-face 
    font-family="Vin Sans Pro Light"
    font-weight="350"
    font-stretch="normal"
    units-per-em="1000"
    panose-1="0 0 0 0 0 0 0 0 0 0"
    ascent="800"
    descent="-200"
    x-height="550"
    cap-height="700"
    bbox="-14 -175 997 869"
    underline-thickness="50"
    underline-position="-75"
    unicode-range="U+0020-U+FB04"
  />
<missing-glyph horiz-adv-x="0" 
 />
    <glyph glyph-name="ff" unicode="ff" horiz-adv-x="507" 
d="M13 510v28q0 12 12 12h63v37q0 51 31.5 82t82.5 31h27q12 0 12 -12v-28q0 -11 -12 -11h-27q-27 0 -43.5 -16.5t-16.5 -43.5v-39h87q12 0 12 -12v-28q0 -11 -12 -11h-87v-487q0 -12 -12 -12h-30q-12 0 -12 12v487h-63q-12 0 -12 11zM266 510v28q0 12 12 12h64v37
q0 51 31 82t82 31h27q12 0 12 -12v-28q0 -11 -12 -11h-27q-27 0 -43.5 -16.5t-16.5 -43.5v-39h87q12 0 12 -12v-28q0 -11 -12 -11h-87v-487q0 -12 -11 -12h-31q-11 0 -11 12v487h-64q-12 0 -12 11z" />
    <glyph glyph-name="fi" unicode="fi" horiz-adv-x="440" 
d="M13 510v28q0 12 12 12h63v37q0 51 31.5 82t82.5 31h27q12 0 12 -12v-28q0 -11 -12 -11h-27q-27 0 -43.5 -16.5t-16.5 -43.5v-39h87q12 0 12 -12v-28q0 -11 -12 -11h-87v-487q0 -12 -12 -12h-30q-12 0 -12 12v487h-63q-12 0 -12 11zM320 12v526q0 12 12 12h30q12 0 12 -12
v-526q0 -12 -12 -12h-30q-12 0 -12 12zM312 656v30q0 18 18 18h33q18 0 18 -18v-30q0 -18 -18 -18h-33q-18 0 -18 18z" />
    <glyph glyph-name="fl" unicode="fl" horiz-adv-x="440" 
d="M13 510v28q0 12 12 12h63v37q0 51 31.5 82t82.5 31h27q12 0 12 -12v-28q0 -11 -12 -11h-27q-27 0 -43.5 -16.5t-16.5 -43.5v-39h87q12 0 12 -12v-28q0 -11 -12 -11h-87v-487q0 -12 -12 -12h-30q-12 0 -12 12v487h-63q-12 0 -12 11zM320 12v676q0 12 12 12h30q12 0 12 -12
v-676q0 -12 -12 -12h-30q-12 0 -12 12z" />
    <glyph glyph-name="ffi" unicode="ffi" horiz-adv-x="694" 
d="M13 510v28q0 12 12 12h63v37q0 51 31.5 82t82.5 31h27q12 0 12 -12v-28q0 -11 -12 -11h-27q-27 0 -43.5 -16.5t-16.5 -43.5v-39h87q12 0 12 -12v-28q0 -11 -12 -11h-87v-487q0 -12 -12 -12h-30q-12 0 -12 12v487h-63q-12 0 -12 11zM266 510v28q0 12 12 12h64v37
q0 51 31 82t82 31h27q12 0 12 -12v-28q0 -11 -12 -11h-27q-27 0 -43.5 -16.5t-16.5 -43.5v-39h87q12 0 12 -12v-28q0 -11 -12 -11h-87v-487q0 -12 -11 -12h-31q-11 0 -11 12v487h-64q-12 0 -12 11zM574 12v526q0 12 12 12h30q12 0 12 -12v-526q0 -12 -12 -12h-30
q-12 0 -12 12zM566 656v30q0 18 18 18h33q18 0 18 -18v-30q0 -18 -18 -18h-33q-18 0 -18 18z" />
    <glyph glyph-name="ffl" unicode="ffl" horiz-adv-x="694" 
d="M13 510v28q0 12 12 12h63v37q0 51 31.5 82t82.5 31h27q12 0 12 -12v-28q0 -11 -12 -11h-27q-27 0 -43.5 -16.5t-16.5 -43.5v-39h87q12 0 12 -12v-28q0 -11 -12 -11h-87v-487q0 -12 -12 -12h-30q-12 0 -12 12v487h-63q-12 0 -12 11zM266 510v28q0 12 12 12h64v37
q0 51 31 82t82 31h27q12 0 12 -12v-28q0 -11 -12 -11h-27q-27 0 -43.5 -16.5t-16.5 -43.5v-39h87q12 0 12 -12v-28q0 -11 -12 -11h-87v-487q0 -12 -11 -12h-31q-11 0 -11 12v487h-64q-12 0 -12 11zM573 12v676q0 12 12 12h30q12 0 12 -12v-676q0 -12 -12 -12h-30
q-12 0 -12 12z" />
    <glyph glyph-name="afii10104_afii10104" unicode="&#x457;&#x457;" horiz-adv-x="372" 
d="M67 12v526q0 12 11 12h31q11 0 11 -12v-526q0 -12 -11 -12h-31q-11 0 -11 12zM159 619v22q0 18 18 18h22q18 0 18 -18v-22q0 -18 -18 -18h-22q-18 0 -18 18zM10 619v22q0 18 18 18h22q18 0 18 -18v-22q0 -18 -18 -18h-22q-18 0 -18 18zM253 12v526q0 12 11 12h31
q11 0 11 -12v-526q0 -12 -11 -12h-31q-11 0 -11 12zM308 619v22q0 18 18 18h21q18 0 18 -18v-22q0 -18 -18 -18h-21q-18 0 -18 18z" />
    <glyph glyph-name=".notdef" horiz-adv-x="0" 
 />
    <glyph glyph-name=".null" horiz-adv-x="0" 
 />
    <glyph glyph-name="nonmarkingreturn" horiz-adv-x="333" 
 />
    <glyph glyph-name="space" unicode=" " horiz-adv-x="237" 
 />
    <glyph glyph-name="exclam" unicode="!" horiz-adv-x="193" 
d="M71 192l-4 492q0 16 16 16h26q16 0 16 -16l-4 -492q0 -17 -16 -17h-17q-17 0 -17 17zM59 18v40q0 18 18 18h38q18 0 18 -18v-40q0 -18 -18 -18h-38q-18 0 -18 18z" />
    <glyph glyph-name="quotedbl" unicode="&#x22;" horiz-adv-x="236" 
d="M147 512l-3 179q-2 9 9 9h28q9 0 9 -9l-3 -179q0 -10 -10 -10h-20q-10 0 -10 10zM49 512l-3 179q-2 9 9 9h28q9 0 9 -9l-3 -179q0 -10 -10 -10h-20q-10 0 -10 10z" />
    <glyph glyph-name="numbersign" unicode="#" horiz-adv-x="572" 
d="M188 236h157l40 228h-157zM15 201v24q0 11 11 11h114l40 228h-104q-11 0 -11 12v23q0 12 11 12h113l31 177q2 12 14 12h24q12 0 9 -12l-31 -177h157l32 177q2 12 14 12h23q12 0 10 -12l-31 -177h105q11 0 11 -12v-23q0 -12 -11 -12h-114l-40 -228h104q11 0 11 -11v-24
q0 -12 -11 -12h-112l-32 -177q-2 -12 -14 -12h-23q-12 0 -10 12l31 177h-157l-31 -177q-2 -12 -14 -12h-24q-12 0 -9 12l31 177h-106q-11 0 -11 12z" />
    <glyph glyph-name="dollar" unicode="$" horiz-adv-x="393" 
d="M175 -83v79h-15q-54 0 -87 33t-33 87v70q0 12 11 12h33q12 0 12 -12v-72q0 -28 17 -45t45 -17h76q28 0 45 17t17 45v83q0 34 -25 57l-181 161q-43 40 -43 98v71q0 54 33 87t87 33h8v78q0 12 12 12h23q12 0 12 -12v-78h6q54 0 87.5 -33t33.5 -87v-70q0 -12 -12 -12h-33
q-11 0 -11 12v72q0 28 -17 45t-45 17h-66q-28 0 -45 -17t-17 -45v-73q0 -34 25 -56l180 -162q44 -39 44 -97v-82q0 -54 -33 -87t-87 -33h-10v-79q0 -11 -12 -11h-23q-12 0 -12 11z" />
    <glyph glyph-name="percent" unicode="%" horiz-adv-x="730" 
d="M110 28l471 672q3 4 7 4q2 0 6 -2l22 -16q8 -5 3 -13l-470 -672q-3 -5 -8 -5q-3 0 -5 3l-23 15q-7 5 -3 14zM92 593v-165q0 -28 18 -46t46 -18h19q29 0 46.5 18t17.5 46v165q0 29 -17.5 46.5t-46.5 17.5h-19q-28 0 -46 -17.5t-18 -46.5zM46 431v159q0 51 31 82.5t82 31.5
h12q52 0 83.5 -31.5t31.5 -82.5v-159q0 -51 -31.5 -82.5t-83.5 -31.5h-12q-51 0 -82 31.5t-31 82.5zM444 111v158q0 51 31 82.5t83 31.5h12q51 0 82.5 -31.5t31.5 -82.5v-158q0 -52 -31.5 -83.5t-82.5 -31.5h-12q-52 0 -83 31.5t-31 83.5zM491 272v-165q0 -29 17.5 -46.5
t46.5 -17.5h18q29 0 46.5 17.5t17.5 46.5v165q0 28 -17.5 46t-46.5 18h-18q-29 0 -46.5 -17.5t-17.5 -46.5z" />
    <glyph glyph-name="ampersand" unicode="&#x26;" horiz-adv-x="462" 
d="M107 287v-171q0 -28 17 -45t45 -17h87q28 0 45 17t17 45v233h-149q-28 0 -45 -17t-17 -45zM248 646h-76q-28 0 -45 -17t-17 -45v-118q0 -28 17 -45t45 -17h266q12 0 12 -12v-32q0 -11 -12 -11h-64v-232q0 -53 -33.5 -86t-87.5 -33h-81q-54 0 -87.5 33t-33.5 87v155
q0 72 58 104q-55 30 -55 103v103q0 53 33 86t87 33h72q54 0 87 -33t33 -86v-59q0 -12 -12 -12h-32q-12 0 -12 12v60q0 28 -17 45t-45 17z" />
    <glyph glyph-name="quotesingle" unicode="'" horiz-adv-x="138" 
d="M49 512l-3 179q-2 9 9 9h28q9 0 9 -9l-3 -179q-2 -10 -10 -10h-20q-10 0 -10 10z" />
    <glyph glyph-name="parenleft" unicode="(" horiz-adv-x="219" 
d="M177 746l25 -23q6 -7 0 -13l-40 -39q-39 -34 -39 -89v-564q0 -55 39 -89l40 -39q6 -6 0 -13l-25 -23q-3 -3 -7 -3t-7 3l-45 44q-51 48 -51 118v568q0 70 51 118l45 44q3 3 7 3t7 -3z" />
    <glyph glyph-name="parenright" unicode=")" horiz-adv-x="219" 
d="M18 723l25 23q3 3 6 3q4 0 7 -3l46 -44q23 -22 37 -54.5t14 -63.5v-568q0 -31 -14 -63.5t-37 -54.5l-46 -44q-3 -3 -7 -3q-3 0 -6 3l-25 23q-7 7 -1 13l41 39q39 36 39 89v564q0 53 -39 89l-41 39q-6 6 1 13z" />
    <glyph glyph-name="asterisk" unicode="*" horiz-adv-x="317" 
d="M176 579l104 40q2 1 4 1q7 0 8 -7l9 -27q4 -9 -6 -11l-108 -29l70 -87q7 -7 -2 -13l-23 -17q-4 -2 -5 -2q-4 0 -8 4l-61 94l-61 -94q-1 -4 -7 -4q-3 0 -5 2l-24 17q-7 5 -1 13l69 86l-107 29q-10 2 -6 11l9 28q1 6 8 6q3 0 4 -1l104 -39l-6 112q0 9 9 9h28q11 0 9 -9z
" />
    <glyph glyph-name="plus" unicode="+" 
d="M62 378h114v114q0 12 11 12h28q12 0 12 -12v-114h114q12 0 12 -12v-28q0 -11 -12 -11h-114v-114q0 -12 -12 -12h-28q-11 0 -11 12v114h-114q-12 0 -12 11v28q0 12 12 12z" />
    <glyph glyph-name="comma" unicode="," horiz-adv-x="167" 
d="M40 -90l17 145q2 18 19 18h31q17 0 14 -17l-35 -146q-4 -16 -19 -16h-13q-16 0 -14 16z" />
    <glyph glyph-name="hyphen" unicode="-" horiz-adv-x="280" 
d="M46 291v28q0 10 9 10h170q10 0 10 -10v-28q0 -9 -10 -9h-170q-9 0 -9 9z" />
    <glyph glyph-name="period" unicode="." horiz-adv-x="165" 
d="M46 18v40q0 18 17 18h38q18 0 18 -18v-40q0 -18 -18 -18h-38q-17 0 -17 18z" />
    <glyph glyph-name="slash" unicode="/" horiz-adv-x="364" 
d="M1 -127l318 871q1 6 12 6l26 -10q10 -3 6 -12l-318 -872q-3 -6 -12 -6l-27 11q-8 3 -5 12z" />
    <glyph glyph-name="zero" unicode="0" horiz-adv-x="438" 
d="M113 568v-436q0 -36 22 -58t58 -22h52q36 0 58 22t22 58v436q0 36 -22 58t-58 22h-52q-36 0 -58 -22t-22 -58zM57 136v428q0 63 38.5 101.5t101.5 38.5h44q63 0 101.5 -38.5t38.5 -101.5v-428q0 -63 -38.5 -101.5t-101.5 -38.5h-44q-63 0 -101.5 38.5t-38.5 101.5z" />
    <glyph glyph-name="one" unicode="1" horiz-adv-x="319" 
d="M172 12v623l-130 -61q-2 -1 -5 -1q-6 0 -6 8v35q0 11 11 16l138 64q12 4 22 4h15q11 0 11 -12v-676q0 -12 -11 -12h-33q-12 0 -12 12z" />
    <glyph glyph-name="two" unicode="2" horiz-adv-x="392" 
d="M47 12v120q0 50 40 85l184 172q19 19 19 44v135q0 36 -22 58t-58 22h-31q-36 0 -58 -22t-22 -58v-43q0 -12 -11 -12h-33q-12 0 -12 12v39q0 63 38.5 101.5t102.5 38.5h22q63 0 101.5 -38.5t38.5 -101.5v-132q0 -51 -38 -86l-184 -170q-20 -18 -20 -45v-75h240
q12 0 12 -12v-32q0 -12 -12 -12h-285q-12 0 -12 12z" />
    <glyph glyph-name="three" unicode="3" horiz-adv-x="404" 
d="M357 250v-114q0 -63 -38.5 -101.5t-101.5 -38.5h-41q-63 0 -101.5 38.5t-38.5 101.5v33q0 12 12 12h32q12 0 12 -12v-37q0 -36 22 -58t58 -22h49q36 0 58 22t22 58v125q0 36 -22 57.5t-58 21.5h-53q-12 0 -12 12v33q0 11 12 11h45q36 0 58 22t22 58v95q0 35 -22 57
t-57 22h-37q-36 0 -58 -22t-22 -57v-38q0 -11 -12 -11h-32q-12 0 -12 11v33q0 63 38.5 101.5t101.5 38.5h28q63 0 101.5 -38.5t38.5 -101.5v-83q0 -78 -63 -113q71 -32 71 -116z" />
    <glyph glyph-name="four" unicode="4" horiz-adv-x="418" 
d="M331 212h60q12 0 12 -12v-32q0 -12 -12 -12h-60v-144q0 -12 -12 -12h-32q-12 0 -12 12v144h-243q-11 0 -11 12v19q0 14 4 22l204 480q5 11 16 11h38q10 0 7 -11l-203 -477h188v199q0 11 12 11h32q12 0 12 -11v-199z" />
    <glyph glyph-name="five" unicode="5" horiz-adv-x="417" 
d="M338 691v-37q0 -10 -10 -10h-202v-213h99q64 0 102.5 -39t38.5 -102v-154q0 -63 -38.5 -101.5t-101.5 -38.5h-40q-63 0 -101.5 38.5t-38.5 101.5v35q0 10 10 10h37q9 0 9 -10v-39q0 -36 22 -58t58 -22h48q36 0 58 22t22 58v163q0 36 -22 58t-58 22h-148q-12 0 -12 11v302
q0 12 12 12h246q10 0 10 -9z" />
    <glyph glyph-name="six" unicode="6" horiz-adv-x="416" 
d="M108 288v-156q0 -36 21.5 -58t57.5 -22h50q36 0 58 22t22 58v156q0 36 -22 58t-58 22h-50q-36 0 -57.5 -22t-21.5 -58zM352 527h-32q-12 0 -12 11v30q0 36 -22 58t-58 22h-41q-36 0 -57.5 -22t-21.5 -58v-168q35 24 84 24h40q63 0 102 -38.5t39 -101.5v-148
q0 -63 -39 -101.5t-102 -38.5h-40q-63 0 -101.5 38.5t-38.5 101.5v428q0 63 38.5 101.5t101.5 38.5h32q63 0 101.5 -38.5t38.5 -101.5v-26q0 -11 -12 -11z" />
    <glyph glyph-name="seven" unicode="7" horiz-adv-x="349" 
d="M22 700h287q11 0 11 -12v-25q0 -14 -4 -22l-125 -369q-4 -14 -4 -23v-237q0 -12 -11 -12h-33q-12 0 -12 12v250q0 11 5 23l122 361h-236q-12 0 -12 12v30q0 12 12 12z" />
    <glyph glyph-name="eight" unicode="8" horiz-adv-x="418" 
d="M103 268v-138q0 -36 21.5 -58t57.5 -22h54q36 0 58 22t22 58v138q0 35 -22 57t-58 22h-54q-36 0 -57.5 -22t-21.5 -57zM113 569v-86q0 -36 22 -58t58 -22h33q36 0 58 22t22 58v86q0 36 -22 58t-58 22h-33q-36 0 -58 -22t-22 -58zM57 490v72q0 63 38.5 101.5t101.5 38.5
h24q64 0 102.5 -38.5t38.5 -101.5v-72q0 -77 -62 -112q72 -34 72 -117v-125q0 -63 -38.5 -101.5t-102.5 -38.5h-44q-63 0 -101.5 38.5t-38.5 101.5v125q0 83 71 117q-61 35 -61 112z" />
    <glyph glyph-name="nine" unicode="9" horiz-adv-x="414" 
d="M306 417v151q0 36 -22 58t-58 22h-47q-36 0 -58 -22t-22 -58v-151q0 -36 22 -58t58 -22h47q36 0 58 22t22 58zM56 174h33q11 0 11 -12v-30q0 -36 22 -58t58 -22h46q36 0 58 22t22 58v173q-37 -24 -84 -24h-38q-64 0 -102.5 38.5t-38.5 101.5v143q0 63 38.5 101.5
t102.5 38.5h38q63 0 101.5 -38.5t38.5 -101.5v-428q0 -63 -38.5 -101.5t-101.5 -38.5h-37q-64 0 -102.5 38.5t-38.5 101.5v26q0 12 12 12z" />
    <glyph glyph-name="colon" unicode=":" horiz-adv-x="166" 
d="M47 492v40q0 18 18 18h37q18 0 18 -18v-40q0 -18 -18 -18h-37q-18 0 -18 18zM46 18v40q0 18 17 18h38q18 0 18 -18v-40q0 -18 -18 -18h-38q-17 0 -17 18z" />
    <glyph glyph-name="semicolon" unicode=";" horiz-adv-x="168" 
d="M49 492v40q0 18 18 18h38q18 0 18 -18v-40q0 -18 -18 -18h-38q-18 0 -18 18zM40 -90l17 145q2 18 19 18h31q17 0 14 -17l-35 -146q-4 -16 -19 -16h-13q-16 0 -14 16z" />
    <glyph glyph-name="less" unicode="&#x3c;" 
d="M346 473l-214 -123l214 -123q10 -6 5 -16l-14 -25q-3 -5 -9 -5q-5 0 -7 1l-261 151q-10 5 -10 17t10 17l261 151q4 2 6 2q7 0 10 -6l14 -25q5 -10 -5 -16z" />
    <glyph glyph-name="equal" unicode="=" 
d="M50 264v28q0 12 12 12h279q12 0 12 -12v-28q0 -12 -12 -12h-279q-12 0 -12 12zM50 413v28q0 12 12 12h279q12 0 12 -12v-28q0 -12 -12 -12h-279q-12 0 -12 12z" />
    <glyph glyph-name="greater" unicode="&#x3e;" 
d="M270 350l-214 123q-9 6 -4 16l13 25q5 6 10 6q2 0 6 -2l262 -151q10 -6 10 -17t-10 -17l-262 -151q-4 -2 -6 -2q-4 0 -10 6l-13 25q-5 10 4 16z" />
    <glyph glyph-name="question" unicode="?" horiz-adv-x="363" 
d="M325 584v-102q0 -60 -39 -101l-60 -68q-22 -27 -22 -60l-1 -66q-2 -12 -13 -12h-28q-12 0 -12 12v65q-2 58 38 101l60 69q21 24 21 59v105q0 28 -17 45t-45 17h-58q-28 0 -44 -17t-16 -45v-73q0 -12 -11 -12h-33q-12 0 -12 12v71q0 54 32 87t86 33h54q54 0 87 -33t33 -87
zM140 18v40q0 18 18 18h38q18 0 18 -18v-40q0 -18 -18 -18h-38q-18 0 -18 18z" />
    <glyph glyph-name="at" unicode="@" horiz-adv-x="772" 
d="M477 165v214q-78 62 -131 62q-25 0 -43 -16.5t-18 -45.5v-213q0 -29 18 -46t43 -17q48 0 131 62zM477 436v38q0 12 12 12h30q12 0 12 -12v-331q0 -23 13 -37.5t35 -14.5h36q22 0 35.5 14.5t13.5 37.5v269q0 74 -46 120t-120 46h-224q-74 0 -119.5 -46t-45.5 -120v-279
q0 -75 45.5 -120.5t119.5 -45.5h210q12 0 12 -12v-23q0 -12 -12 -12h-210q-95 0 -153.5 58.5t-58.5 154.5v279q0 96 58.5 154.5t153.5 58.5h224q96 0 154.5 -58.5t58.5 -154.5v-269q0 -46 -27.5 -74t-72.5 -28h-36q-74 0 -94 70q-88 -59 -147 -59q-43 0 -72.5 32t-29.5 82
v212q0 51 29.5 83t72.5 32q59 0 143 -57z" />
    <glyph glyph-name="A" unicode="A" horiz-adv-x="412" 
d="M118 193h177l-85 368q-3 15 -3 33h-2q0 -23 -2 -33zM308 137h-203l-29 -126q-2 -11 -14 -11h-34q-13 0 -9 11l161 678q4 11 14 11h24q12 0 14 -11l162 -678q2 -11 -9 -11h-34q-11 0 -15 11z" />
    <glyph glyph-name="B" unicode="B" horiz-adv-x="425" 
d="M128 334v-278h133q28 0 45 17t17 45v154q0 28 -17 45t-45 17h-133zM128 644v-255h112q28 0 45 17t17 45v131q0 28 -17 45t-45 17h-112zM72 12v676q0 12 11 12h155q54 0 87 -33t33 -87v-115q0 -65 -47 -98q68 -28 68 -109v-138q0 -54 -33 -87t-87 -33h-176q-11 0 -11 12z
" />
    <glyph glyph-name="C" unicode="C" horiz-adv-x="424" 
d="M331 198h33q11 0 11 -12v-70q0 -54 -33 -87t-87 -33h-73q-54 0 -87 33t-33 87v468q0 54 33 87t87 33h73q54 0 87 -33t33 -87v-70q0 -12 -11 -12h-33q-12 0 -12 12v72q0 28 -17 45t-45 17h-77q-28 0 -45 -17t-17 -45v-472q0 -28 17 -45t45 -17h77q28 0 45 17t17 45v72
q0 12 12 12z" />
    <glyph glyph-name="D" unicode="D" horiz-adv-x="447" 
d="M268 644h-140v-588h140q28 0 45 17t17 45v464q0 28 -17 45t-45 17zM72 12v676q0 12 11 12h183q54 0 87 -33t33 -87v-460q0 -54 -33 -87t-87 -33h-183q-11 0 -11 12z" />
    <glyph glyph-name="E" unicode="E" horiz-adv-x="373" 
d="M328 644h-200v-292h158q11 0 11 -11v-33q0 -12 -11 -12h-158v-240h200q12 0 12 -12v-32q0 -12 -12 -12h-245q-11 0 -11 12v676q0 12 11 12h245q12 0 12 -12v-32q0 -12 -12 -12z" />
    <glyph glyph-name="F" unicode="F" horiz-adv-x="368" 
d="M328 644h-200v-292h158q11 0 11 -11v-33q0 -12 -11 -12h-158v-284q0 -12 -12 -12h-33q-11 0 -11 12v676q0 12 11 12h245q12 0 12 -12v-32q0 -12 -12 -12z" />
    <glyph glyph-name="G" unicode="G" horiz-adv-x="435" 
d="M215 310v33q0 12 12 12h144q12 0 12 -12v-227q0 -54 -33 -87t-87 -33h-81q-54 0 -87 33t-33 87v468q0 54 33 87t87 33h81q54 0 87 -33t33 -87v-70q0 -12 -12 -12h-32q-12 0 -12 12v72q0 28 -17 45t-45 17h-85q-28 0 -45 -17t-17 -45v-472q0 -28 17 -45t45 -17h85
q28 0 45 17t17 45v185h-100q-12 0 -12 11z" />
    <glyph glyph-name="H" unicode="H" horiz-adv-x="457" 
d="M72 12v676q0 12 11 12h33q12 0 12 -12v-336h202v336q0 12 12 12h32q12 0 12 -12v-676q0 -12 -12 -12h-32q-12 0 -12 12v284h-202v-284q0 -12 -12 -12h-33q-11 0 -11 12z" />
    <glyph glyph-name="I" unicode="I" horiz-adv-x="284" 
d="M33 12v30q0 12 12 12h69v592h-69q-12 0 -12 12v30q0 12 12 12h194q12 0 12 -12v-30q0 -12 -12 -12h-69v-592h69q12 0 12 -12v-30q0 -12 -12 -12h-194q-12 0 -12 12z" />
    <glyph glyph-name="J" unicode="J" horiz-adv-x="387" 
d="M202 -4h-61q-54 0 -87 33t-33 87v44q0 12 11 12h33q12 0 12 -12v-46q0 -28 17 -45t45 -17h66q28 0 45 17t17 45v532h-100q-11 0 -11 12v30q0 12 11 12h144q12 0 12 -12v-572q0 -54 -33.5 -87t-87.5 -33z" />
    <glyph glyph-name="K" unicode="K" horiz-adv-x="404" 
d="M72 12v676q0 12 11 12h33q12 0 12 -12v-676q0 -12 -12 -12h-33q-11 0 -11 12zM326 700h39q11 0 6 -11l-166 -329l182 -349q5 -11 -6 -11h-40q-11 0 -17 11l-181 349l166 329q5 11 17 11z" />
    <glyph glyph-name="L" unicode="L" horiz-adv-x="347" 
d="M128 56h193q11 0 11 -11v-33q0 -12 -11 -12h-238q-11 0 -11 12v676q0 12 11 12h33q12 0 12 -12v-632z" />
    <glyph glyph-name="M" unicode="M" horiz-adv-x="550" 
d="M125 545v-533q0 -12 -11 -12h-31q-11 0 -11 12v676q0 12 11 12h37q11 0 16 -11l133 -402q5 -15 5 -31h2q0 19 4 31l134 402q3 11 15 11h37q12 0 12 -12v-676q0 -12 -12 -12h-30q-12 0 -12 12v533q0 12 4 32h-2q-7 -30 -7 -31l-121 -366q-3 -11 -16 -11h-15q-12 0 -15 11
l-122 366q-4 11 -6 31h-2q3 -30 3 -32z" />
    <glyph glyph-name="N" unicode="N" horiz-adv-x="466" 
d="M128 527v-515q0 -12 -12 -12h-33q-11 0 -11 12v676q0 12 11 12h24q11 0 16 -11l209 -519q4 -10 9 -31h2q-4 20 -4 32v517q0 12 11 12h33q12 0 12 -12v-676q0 -12 -12 -12h-24q-11 0 -16 11l-209 517q-4 10 -9 31h-2q5 -25 5 -32z" />
    <glyph glyph-name="O" unicode="O" horiz-adv-x="452" 
d="M118 586v-472q0 -28 17 -45t45 -17h92q28 0 45 17t17 45v472q0 28 -17 45t-45 17h-92q-28 0 -45 -17t-17 -45zM62 116v468q0 54 33 87t87 33h88q54 0 87 -33t33 -87v-468q0 -54 -33 -87t-87 -33h-88q-54 0 -87 33t-33 87z" />
    <glyph glyph-name="P" unicode="P" 
d="M246 644h-118v-309h118q28 0 45 17t17 45v185q0 28 -17 45t-45 17zM244 279h-116v-267q0 -12 -12 -12h-33q-11 0 -11 12v676q0 12 11 12h161q54 0 87 -33t33 -87v-180q0 -55 -33 -88t-87 -33z" />
    <glyph glyph-name="Q" unicode="Q" horiz-adv-x="452" 
d="M118 586v-470q0 -28 17 -45t45 -17h92q28 0 45 17t17 45v470q0 28 -17 45t-45 17h-92q-28 0 -45 -17t-17 -45zM315 -82h30q12 0 12 -11v-28q0 -12 -12 -12h-30q-51 0 -82 31t-31 82v18h-20q-54 0 -87 33t-33 88v465q0 54 33 87t87 33h88q54 0 87 -33t33 -87v-465
q0 -55 -33 -88t-87 -33h-14v-20q0 -27 16 -43.5t43 -16.5z" />
    <glyph glyph-name="R" unicode="R" horiz-adv-x="422" 
d="M246 644h-118v-298h118q28 0 45 17t17 45v174q0 28 -17 45t-45 17zM322 11l-82 279h-112v-278q0 -12 -12 -12h-33q-11 0 -11 12v676q0 12 11 12h161q54 0 87 -33t33 -87v-169q0 -84 -69 -111l85 -289q4 -11 -8 -11h-35q-11 0 -15 11z" />
    <glyph glyph-name="S" unicode="S" horiz-adv-x="393" 
d="M47 513v71q0 54 33 87t87 33h61q54 0 87.5 -33t33.5 -87v-70q0 -12 -12 -12h-33q-11 0 -11 12v72q0 28 -17 45t-45 17h-66q-28 0 -45 -17t-17 -45v-73q0 -34 25 -56l180 -162q44 -39 44 -97v-82q0 -54 -33 -87t-87 -33h-72q-54 0 -87 33t-33 87v70q0 12 11 12h33
q12 0 12 -12v-72q0 -28 17 -45t45 -17h76q28 0 45 17t17 45v83q0 34 -25 57l-181 161q-43 40 -43 98z" />
    <glyph glyph-name="T" unicode="T" horiz-adv-x="369" 
d="M359 688v-32q0 -12 -12 -12h-134v-632q0 -12 -12 -12h-33q-11 0 -11 12v632h-135q-12 0 -12 12v32q0 12 12 12h325q12 0 12 -12z" />
    <glyph glyph-name="U" unicode="U" horiz-adv-x="445" 
d="M339 700h32q12 0 12 -12v-572q0 -54 -33 -87t-87 -33h-81q-54 0 -87 33t-33 87v572q0 12 11 12h33q12 0 12 -12v-574q0 -28 17 -45t45 -17h85q28 0 45 17t17 45v574q0 12 12 12z" />
    <glyph glyph-name="V" unicode="V" horiz-adv-x="408" 
d="M346 700h34q13 0 9 -11l-159 -678q-2 -11 -14 -11h-24q-12 0 -14 11l-159 678q-4 11 9 11h35q10 0 14 -11l124 -550q2 -10 2 -33h2q0 18 3 33l124 550q2 11 14 11z" />
    <glyph glyph-name="W" unicode="W" horiz-adv-x="586" 
d="M321 688l87 -535q1 -10 1 -33h2q0 13 2 33l98 535q2 12 14 12h33q12 0 10 -12l-131 -676q-2 -12 -14 -12h-24q-12 0 -14 12l-89 524q-2 10 -2 33h-2q0 -23 -2 -33l-89 -524q-2 -12 -14 -12h-24q-12 0 -14 12l-131 676q-2 12 10 12h33q12 0 14 -12l97 -535q2 -10 2 -33h2
q0 23 2 33l88 535q2 12 13 12h28q11 0 14 -12z" />
    <glyph glyph-name="X" unicode="X" horiz-adv-x="379" 
d="M308 700h37q11 0 8 -11l-133 -324l146 -354q3 -11 -8 -11h-37q-11 0 -16 11l-109 268q-5 11 -5 32h-2q0 -17 -5 -32l-110 -268q-3 -11 -16 -11h-37q-12 0 -7 11l145 354l-132 324q-5 11 7 11h37q13 0 16 -11l97 -237q5 -17 5 -32h2q0 20 5 32l96 237q5 11 16 11z" />
    <glyph glyph-name="Y" unicode="Y" horiz-adv-x="391" 
d="M167 12v269l-148 408q-3 11 8 11h35q12 0 15 -11l113 -309q4 -12 4 -32h2q0 21 5 32l112 309q5 11 16 11h35q11 0 8 -11l-149 -408v-269q0 -12 -11 -12h-33q-12 0 -12 12z" />
    <glyph glyph-name="Z" unicode="Z" horiz-adv-x="371" 
d="M333 44v-32q0 -12 -12 -12h-273q-12 0 -12 12v32q0 11 5 23l232 577h-222q-12 0 -12 12v32q0 12 12 12h271q12 0 12 -12v-32q0 -11 -5 -23l-232 -577h224q12 0 12 -12z" />
    <glyph glyph-name="bracketleft" unicode="[" horiz-adv-x="224" 
d="M214 741v-33q0 -9 -10 -9h-81v-798h81q10 0 10 -9v-33q0 -9 -10 -9h-128q-9 0 -9 9v882q0 9 9 9h128q10 0 10 -9z" />
    <glyph glyph-name="backslash" unicode="\" horiz-adv-x="364" 
d="M45 744l318 -871q3 -8 -6 -12l-26 -11q-11 0 -12 6l-318 872q-3 9 5 12l26 10h4q6 0 9 -6z" />
    <glyph glyph-name="bracketright" unicode="]" horiz-adv-x="224" 
d="M157 741v-882q0 -9 -9 -9h-128q-10 0 -10 9v33q0 9 10 9h81v798h-81q-10 0 -10 9v33q0 9 10 9h128q9 0 9 -9z" />
    <glyph glyph-name="asciicircum" unicode="^" 
d="M310 481l-109 158l-110 -159q-3 -4 -8 -4t-8 3l-21 19q-8 8 -1 16l125 177q7 9 19 9h9q12 0 19 -9l124 -176q7 -7 -1 -16l-21 -19q-5 -3 -8 -3q-5 0 -9 4z" />
    <glyph glyph-name="underscore" unicode="_" horiz-adv-x="237" 
d="M0 -150v56h237v-56h-237z" />
    <glyph glyph-name="grave" unicode="`" horiz-adv-x="183" 
d="M102 779l44 -73q5 -8 -5 -8h-22q-9 0 -16 7l-64 75q-7 7 3 7h47q9 0 13 -8z" />
    <glyph glyph-name="a" unicode="a" horiz-adv-x="409" 
d="M289 102v158q-81 18 -117 18q-30 0 -48.5 -18t-18.5 -48v-109q0 -27 17.5 -43t42.5 -16q46 0 124 58zM289 12v34q-78 -53 -135 -53q-44 0 -73.5 31t-29.5 80v107q0 52 31.5 83.5t82.5 31.5q38 0 124 -16v126q0 30 -16 48t-46 18h-55q-30 0 -46 -18t-16 -48v-25
q0 -12 -12 -12h-30q-12 0 -12 12v29q0 52 31 83t83 31h59q51 0 82.5 -31t31.5 -83v-428q0 -12 -12 -12h-30q-12 0 -12 12z" />
    <glyph glyph-name="b" unicode="b" horiz-adv-x="422" 
d="M120 444v-338q86 -62 131 -62q26 0 43.5 16.5t17.5 46.5v336q0 30 -17.5 46.5t-43.5 16.5q-45 0 -131 -62zM78 700h31q11 0 11 -12v-188q84 57 143 57q44 0 73.5 -32t29.5 -82v-336q0 -50 -29.5 -82t-73.5 -32q-59 0 -143 57v-38q0 -12 -11 -12h-31q-11 0 -11 12v676
q0 12 11 12z" />
    <glyph glyph-name="c" unicode="c" horiz-adv-x="384" 
d="M170 48h60q26 0 42.5 16.5t16.5 42.5v44q0 12 12 12h30q12 0 12 -12v-41q0 -51 -31 -82.5t-82 -31.5h-60q-51 0 -82 31.5t-31 82.5v330q0 52 31 83t82 31h60q51 0 82 -31t31 -83v-41q0 -11 -12 -11h-30q-12 0 -12 11v44q0 27 -16.5 43t-42.5 16h-60q-27 0 -43.5 -16
t-16.5 -43v-336q0 -26 16.5 -42.5t43.5 -16.5z" />
    <glyph glyph-name="d" unicode="d" horiz-adv-x="422" 
d="M302 106v338q-86 62 -131 62q-25 0 -43 -17t-18 -46v-336q0 -29 18 -46t43 -17q45 0 131 62zM314 700h30q12 0 12 -12v-676q0 -12 -12 -12h-30q-12 0 -12 12v38q-84 -57 -143 -57q-43 0 -72.5 32t-29.5 82v336q0 50 29.5 82t72.5 32q59 0 143 -57v188q0 12 12 12z" />
    <glyph glyph-name="e" unicode="e" horiz-adv-x="396" 
d="M232 502h-62q-27 0 -43.5 -16t-16.5 -42v-144h182v144q0 26 -16.5 42t-43.5 16zM334 248h-224v-140q0 -27 16.5 -43.5t43.5 -16.5h62q27 0 43.5 16.5t16.5 42.5v35q0 12 11 12h31q11 0 11 -12v-32q0 -51 -31 -82.5t-82 -31.5h-62q-51 0 -82 31.5t-31 82.5v330q0 52 31 83
t82 31h62q51 0 82 -31t31 -81v-182q0 -12 -11 -12z" />
    <glyph glyph-name="f" unicode="f" horiz-adv-x="253" 
d="M13 510v28q0 12 12 12h63v37q0 51 31.5 82t82.5 31h27q12 0 12 -12v-28q0 -11 -12 -11h-27q-27 0 -43.5 -16.5t-16.5 -43.5v-39h87q12 0 12 -12v-28q0 -11 -12 -11h-87v-487q0 -12 -12 -12h-30q-12 0 -12 12v487h-63q-12 0 -12 11z" />
    <glyph glyph-name="g" unicode="g" horiz-adv-x="422" 
d="M302 106v338q-86 62 -131 62q-25 0 -43 -17t-18 -46v-336q0 -29 18 -46t43 -17q49 0 131 62zM302 500v38q0 12 12 12h30q12 0 12 -12l-1 -554q0 -69 -48.5 -105t-120.5 -36q-30 0 -91 14q-20 4 -20 16v28q0 9 10 9h8q49 -15 88 -15q50 0 85.5 23.5t35.5 69.5v61
q-86 -56 -143 -56q-43 0 -72.5 32t-29.5 82v336q0 50 29.5 82t72.5 32q59 0 143 -57z" />
    <glyph glyph-name="h" unicode="h" horiz-adv-x="433" 
d="M78 700h31q11 0 11 -12v-188q84 57 144 57q43 0 72.5 -32t29.5 -82v-431q0 -12 -11 -12h-31q-11 0 -11 12v431q0 29 -18 46t-43 17q-46 0 -132 -62v-430q0 -14 -11 -14h-31q-11 0 -11 14v674q0 12 11 12z" />
    <glyph glyph-name="i" unicode="i" horiz-adv-x="187" 
d="M67 12v526q0 12 12 12h30q12 0 12 -12v-526q0 -12 -12 -12h-30q-12 0 -12 12zM59 656v30q0 18 18 18h33q18 0 18 -18v-30q0 -18 -18 -18h-33q-18 0 -18 18z" />
    <glyph glyph-name="j" unicode="j" horiz-adv-x="209" 
d="M-2 -99h27q27 0 43.5 16.5t16.5 43.5v577q0 12 12 12h30q12 0 12 -12v-575q0 -51 -31 -82t-83 -31h-27q-12 0 -12 12v28q0 11 12 11zM78 656v30q0 18 18 18h33q17 0 17 -18v-30q0 -18 -17 -18h-33q-18 0 -18 18z" />
    <glyph glyph-name="k" unicode="k" horiz-adv-x="363" 
d="M67 12v676q0 12 11 12h31q11 0 11 -12v-676q0 -12 -11 -12h-31q-11 0 -11 12zM339 540l-150 -260l160 -270q5 -10 -6 -10h-34q-12 0 -17 10l-161 270l150 260q5 10 17 10h34q12 0 7 -10z" />
    <glyph glyph-name="l" unicode="l" horiz-adv-x="187" 
d="M67 12v676q0 12 11 12h31q11 0 11 -12v-676q0 -12 -11 -12h-31q-11 0 -11 12z" />
    <glyph glyph-name="m" unicode="m" horiz-adv-x="637" 
d="M517 12v431q0 29 -17.5 46t-42.5 17q-28 0 -59 -19.5t-53 -43.5v-431q0 -12 -11 -12h-31q-11 0 -11 12v431q0 29 -17.5 46t-42.5 17q-45 0 -112 -59v-435q0 -12 -11 -12h-31q-11 0 -11 12v526q0 12 11 12h31q11 0 11 -12v-33q66 52 123 52q29 0 53.5 -15.5t37.5 -43.5
q71 59 134 59q43 0 72.5 -32t29.5 -82v-431q0 -12 -11 -12h-31q-11 0 -11 12z" />
    <glyph glyph-name="n" unicode="n" horiz-adv-x="433" 
d="M78 550h31q11 0 11 -12v-38q84 57 144 57q43 0 72.5 -32t29.5 -82v-431q0 -12 -11 -12h-31q-11 0 -11 12v431q0 29 -18 46t-43 17q-46 0 -132 -62v-432q0 -12 -11 -12h-31q-11 0 -11 12v526q0 12 11 12z" />
    <glyph glyph-name="o" unicode="o" horiz-adv-x="412" 
d="M110 443v-336q0 -26 16.5 -42.5t43.5 -16.5h72q27 0 43.5 16.5t16.5 42.5v336q0 27 -16.5 43t-43.5 16h-72q-27 0 -43.5 -16t-16.5 -43zM57 110v330q0 52 31 83t82 31h72q51 0 82 -31t31 -83v-330q0 -51 -31 -82.5t-82 -31.5h-72q-51 0 -82 31.5t-31 82.5z" />
    <glyph glyph-name="p" unicode="p" horiz-adv-x="422" 
d="M120 444v-338q86 -62 131 -62q26 0 43.5 16.5t17.5 46.5v336q0 30 -17.5 46.5t-43.5 16.5q-45 0 -131 -62zM109 -150h-31q-11 0 -11 12v676q0 12 11 12h31q11 0 11 -12v-38q84 57 143 57q44 0 73.5 -32t29.5 -82v-336q0 -50 -29.5 -82t-73.5 -32q-59 0 -143 57v-188
q0 -12 -11 -12z" />
    <glyph glyph-name="q" unicode="q" horiz-adv-x="422" 
d="M302 106v338q-86 62 -131 62q-25 0 -43 -17t-18 -46v-336q0 -29 18 -46t43 -17q45 0 131 62zM344 -150h-30q-12 0 -12 12v188q-84 -57 -143 -57q-43 0 -72.5 32t-29.5 82v336q0 50 29.5 82t72.5 32q59 0 143 -57v38q0 12 12 12h30q12 0 12 -12v-676q0 -12 -12 -12z" />
    <glyph glyph-name="r" unicode="r" horiz-adv-x="273" 
d="M78 550h31q11 0 11 -12v-37q71 52 125 55q12 2 12 -10v-36q1 -5 -2.5 -7t-11.5 -2q-48 0 -123 -62v-427q0 -12 -11 -12h-31q-11 0 -11 12v526q0 12 11 12z" />
    <glyph glyph-name="s" unicode="s" horiz-adv-x="375" 
d="M332 154v-44q0 -51 -31 -82.5t-82 -31.5h-62q-51 0 -82.5 31.5t-31.5 82.5v41q0 12 12 12h30q12 0 12 -12v-37q0 -30 16 -48t46 -18h57q30 0 46 18t16 48v42q0 36 -31 56l-144 96q-25 17 -40 44.5t-15 57.5v30q0 51 31 82.5t83 31.5h52q51 0 82 -31t31 -83v-41
q0 -11 -12 -11h-30q-12 0 -12 11v37q0 30 -16 48t-46 18h-47q-30 0 -46 -18t-16 -48v-28q0 -36 31 -56l144 -97q25 -16 40 -44t15 -57z" />
    <glyph glyph-name="t" unicode="t" horiz-adv-x="269" 
d="M16 510v28q0 12 11 12h64v88q0 12 12 12h30q12 0 12 -12v-88h87q11 0 11 -12v-28q0 -11 -11 -11h-87v-392q0 -26 16.5 -42.5t43.5 -16.5h27q11 0 11 -12v-28q0 -12 -11 -12h-27q-52 0 -83 31.5t-31 82.5v389h-64q-11 0 -11 11z" />
    <glyph glyph-name="u" unicode="u" horiz-adv-x="435" 
d="M356 0h-30q-12 0 -12 12v41q-80 -60 -145 -60q-43 0 -72.5 32t-29.5 82v431q0 12 11 12h31q11 0 11 -12v-431q0 -29 18 -46t43 -17q51 0 133 66v428q0 12 12 12h30q12 0 12 -12v-526q0 -12 -12 -12z" />
    <glyph glyph-name="v" unicode="v" horiz-adv-x="343" 
d="M175 124l99 414q3 12 15 12h32q11 0 9 -11l-130 -527q-2 -12 -14 -12h-29q-12 0 -15 12l-129 527q-4 11 9 11h32q12 0 15 -12l98 -414q3 -11 3 -35h2q0 19 3 35z" />
    <glyph glyph-name="w" unicode="w" horiz-adv-x="532" 
d="M262 417l-80 -405q-2 -12 -14 -12h-29q-12 0 -15 12l-111 527q-2 11 9 11h32q12 0 14 -12l82 -421q3 -15 3 -35h2q0 25 2 35l81 421q2 12 14 12h28q11 0 13 -12l82 -421q2 -10 2 -35h2q0 20 3 35l81 421q3 12 15 12h31q12 0 10 -12l-112 -526q-2 -12 -14 -12h-29
q-12 0 -14 12l-81 405q-2 10 -2 35h-2q0 -20 -3 -35z" />
    <glyph glyph-name="x" unicode="x" horiz-adv-x="359" 
d="M185 349l94 190q6 11 17 11h34q12 0 7 -11l-128 -259l127 -269q5 -11 -6 -11h-34q-11 0 -17 11l-94 200q-5 8 -3 18h-2q-3 -17 -4 -18l-99 -200q-5 -11 -17 -11h-34q-12 0 -7 11l133 269l-123 259q-5 11 7 11h34q11 0 17 -11l90 -190q3 -7 3 -18h2q0 13 3 18z" />
    <glyph glyph-name="y" unicode="y" horiz-adv-x="347" 
d="M113 -139l35 140l-135 538q-4 11 9 11h32q12 0 15 -12l101 -414q3 -16 3 -35h2q0 24 3 35l101 414q2 12 14 12h32q13 0 9 -11l-169 -678q-2 -11 -14 -11h-29q-11 0 -9 11z" />
    <glyph glyph-name="z" unicode="z" horiz-adv-x="343" 
d="M42 62l204 437h-195q-12 0 -12 11v28q0 12 12 12h243q12 0 12 -12v-28q0 -13 -6 -22l-203 -436h200q12 0 12 -12v-28q0 -12 -12 -12h-249q-11 0 -11 12v28q0 12 5 22z" />
    <glyph glyph-name="braceleft" unicode="{" horiz-adv-x="261" 
d="M155 637v-233q0 -71 -55 -103q57 -31 57 -104v-234q0 -28 17 -45t45 -17h20q12 0 12 -11v-28q0 -12 -12 -12h-18q-54 0 -87 33t-33 87v241q0 28 -17 44.5t-45 16.5h-14q-12 0 -12 12v32q0 12 12 12h14q28 0 44 16.5t16 44.5v241q0 54 32.5 87t86.5 33h21q12 0 12 -12v-28
q0 -11 -12 -11h-23q-28 0 -44.5 -17t-16.5 -45z" />
    <glyph glyph-name="bar" unicode="|" horiz-adv-x="180" 
d="M67 -141v882q0 9 9 9h28q10 0 10 -9v-882q0 -9 -10 -9h-28q-9 0 -9 9z" />
    <glyph glyph-name="braceright" unicode="}" horiz-adv-x="261" 
d="M104 -37v234q0 73 57 104q-54 32 -54 103v233q0 28 -17 45t-45 17h-23q-12 0 -12 11v28q0 12 12 12h21q54 0 87 -33t33 -87v-241q0 -28 15.5 -44.5t43.5 -16.5h15q11 0 11 -12v-32q0 -12 -11 -12h-15q-28 0 -45 -16.5t-17 -44.5v-241q0 -54 -33 -87t-87 -33h-18
q-12 0 -12 12v28q0 11 12 11h20q28 0 45 17t17 45z" />
    <glyph glyph-name="asciitilde" unicode="~" 
d="M53 335v34q0 10 8 15l31 21q20 12 43 12q16 0 29 -6l88 -35q8 -4 19 -4q16 0 27 7l44 29q2 2 4 2q4 0 4 -6v-35q0 -9 -8 -14l-32 -21q-18 -12 -42 -12q-16 0 -30 6l-87 35q-8 4 -19 4q-16 0 -27 -8l-44 -29q-2 -1 -4 -1q-4 0 -4 6z" />
    <glyph glyph-name="exclamdown" unicode="&#xa1;" horiz-adv-x="193" 
d="M67 -134l4 493q0 16 17 16h17q16 0 16 -16l4 -493q0 -16 -16 -16h-26q-16 0 -16 16zM59 492v40q0 18 18 18h38q18 0 18 -18v-40q0 -18 -18 -18h-38q-18 0 -18 18z" />
    <glyph glyph-name="cent" unicode="&#xa2;" horiz-adv-x="384" 
d="M181 6v85h-11q-51 0 -82 31t-31 82v292q0 51 31 82.5t82 31.5h11v84q0 10 9 10h24q9 0 9 -10v-84h7q51 0 82 -31.5t31 -82.5v-39q0 -12 -12 -12h-30q-12 0 -12 12v41q0 27 -16.5 43.5t-42.5 16.5h-60q-27 0 -43.5 -16.5t-16.5 -43.5v-296q0 -27 16.5 -43.5t43.5 -16.5h60
q26 0 42.5 16.5t16.5 43.5v41q0 12 12 12h30q12 0 12 -12v-39q0 -51 -31 -82t-82 -31h-7v-85q0 -10 -9 -10h-24q-9 0 -9 10z" />
    <glyph glyph-name="sterling" unicode="&#xa3;" horiz-adv-x="435" 
d="M25 12v32q0 12 11 12h67v232h-67q-11 0 -11 12v23q0 12 11 12h67v249q0 54 33 87t87 33h53q54 0 87.5 -33t33.5 -87v-70q0 -12 -12 -12h-33q-11 0 -11 12v72q0 28 -17 45t-45 17h-58q-28 0 -45 -17t-17 -45v-251h121q12 0 12 -12v-23q0 -12 -12 -12h-121v-232h224
q12 0 12 -12v-32q0 -12 -12 -12h-347q-11 0 -11 12z" />
    <glyph glyph-name="currency" unicode="&#xa4;" horiz-adv-x="528" 
d="M114 350q0 -62 44.5 -106.5t106.5 -44.5t106.5 44.5t44.5 106.5t-44.5 106.5t-106.5 44.5t-106.5 -44.5t-44.5 -106.5zM425 226l58 -58q9 -8 0 -17l-20 -19q-3 -4 -8 -4q-4 0 -8 4l-58 58q-54 -43 -124 -43t-124 43l-59 -59q-6 -4 -8 -4q-4 0 -8 4l-20 20q-9 8 0 17
l59 58q-43 56 -43 124t42 123l-59 60q-9 7 0 16l20 20q4 4 8 4q5 0 9 -4l59 -59q54 43 124 43q68 0 124 -43l59 59q3 4 8 4q4 0 8 -4l20 -19q8 -8 0 -17l-59 -59q42 -53 42 -124t-42 -124z" />
    <glyph glyph-name="yen" unicode="&#xa5;" horiz-adv-x="391" 
d="M53 118v24q0 12 12 12h102v69h-102q-12 0 -12 12v24q0 12 12 12h102v10l-148 408q-3 11 8 11h35q12 0 15 -11l113 -309q4 -12 4 -32h2q0 21 5 32l112 309q5 11 16 11h35q11 0 8 -11l-149 -408v-10h103q12 0 12 -12v-24q0 -12 -12 -12h-103v-69h103q12 0 12 -12v-24
q0 -11 -12 -11h-103v-95q0 -12 -11 -12h-33q-12 0 -12 12v95h-102q-12 0 -12 11z" />
    <glyph glyph-name="brokenbar" unicode="&#xa6;" horiz-adv-x="180" 
d="M67 -141v381h47v-381q0 -9 -10 -9h-28q-9 0 -9 9zM114 741v-380h-47v380q0 9 9 9h28q10 0 10 -9z" />
    <glyph glyph-name="section" unicode="&#xa7;" horiz-adv-x="387" 
d="M208 196l-117 104q-43 40 -43 92v198q0 51 31 82.5t83 31.5h64q51 0 82 -31t31 -83v-63q0 -11 -12 -11h-30q-12 0 -12 11v59q0 30 -18 48t-48 18h-50q-30 0 -48.5 -18t-18.5 -48v-190q0 -33 25 -55l117 -105q9 -5 1 -13l-23 -26q-3 -4 -7 -4t-7 3zM185 460l111 -101
q43 -40 43 -92v-198q0 -51 -31 -82.5t-82 -31.5h-64q-51 0 -82.5 31t-31.5 83v63q0 11 12 11h30q12 0 12 -11v-59q0 -30 18.5 -48t48.5 -18h50q30 0 48 18t18 48v190q0 33 -25 55l-111 102q-7 5 -1 13l23 26q5 3 8 3q2 0 6 -2z" />
    <glyph glyph-name="dieresis" unicode="&#xa8;" horiz-adv-x="242" 
d="M148 723v22q0 18 18 18h21q18 0 18 -18v-22q0 -17 -18 -17h-21q-18 0 -18 17zM37 723v22q0 18 17 18h22q18 0 18 -18v-22q0 -17 -18 -17h-22q-17 0 -17 17z" />
    <glyph glyph-name="copyright" unicode="&#xa9;" horiz-adv-x="786" 
d="M109 488v-275q0 -75 45.5 -120.5t119.5 -45.5h238q74 0 119.5 45.5t45.5 120.5v275q0 74 -45.5 119.5t-119.5 45.5h-238q-74 0 -119.5 -45.5t-45.5 -119.5zM62 213v275q0 95 58.5 153.5t153.5 58.5h238q95 0 153.5 -58.5t58.5 -153.5v-275q0 -96 -58.5 -154.5
t-153.5 -58.5h-238q-95 0 -153.5 58.5t-58.5 154.5zM368 177h60q27 0 43.5 16.5t16.5 43.5v30q0 12 11 12h31q11 0 11 -12v-28q0 -51 -31 -82t-82 -31h-60q-51 0 -82 31t-31 82v222q0 51 31 82t82 31h60q51 0 82 -31t31 -82v-28q0 -11 -11 -11h-31q-11 0 -11 11v30
q0 27 -16.5 43.5t-43.5 16.5h-60q-27 0 -43 -16.5t-16 -43.5v-226q0 -27 16 -43.5t43 -16.5z" />
    <glyph glyph-name="ordfeminine" unicode="&#xaa;" horiz-adv-x="266" 
d="M71 480v-69q0 -17 11 -27t26 -10q32 0 79 36v100q-47 11 -74 11q-18 0 -30 -11.5t-12 -29.5zM32 411v68q0 34 21 55t55 21q19 0 79 -10v79q0 41 -39 41h-36q-18 0 -28 -11t-10 -30v-16q0 -8 -9 -8h-21q-9 0 -9 8v19q0 34 21 54.5t55 20.5h39q34 0 54.5 -20.5t20.5 -54.5
v-276q0 -9 -8 -9h-22q-8 0 -8 9v20q-51 -34 -87 -34q-28 0 -48 21t-20 53z" />
    <glyph glyph-name="guillemotleft" unicode="&#xab;" horiz-adv-x="427" 
d="M230 457l-159 -152l159 -151q9 -9 1 -17l-17 -17q-6 -4 -9 -4q-2 0 -8 4l-169 161q-8 8 -8 20v8q0 12 8 20l169 161q6 4 9 4q2 0 8 -4l17 -17q7 -7 -1 -16zM395 457l-159 -152l159 -151q10 -8 1 -17l-18 -17q-3 -4 -8 -4t-8 4l-169 161q-8 8 -8 20v8q0 12 8 20l169 161
q3 4 8 4t9 -4l16 -16q9 -9 0 -17z" />
    <glyph glyph-name="logicalnot" unicode="&#xac;" 
d="M300 357h-238q-12 0 -12 11v28q0 12 12 12h279q12 0 12 -12v-118q0 -11 -12 -11h-29q-12 0 -12 11v79z" />
    <glyph glyph-name="uni00AD" unicode="&#xad;" horiz-adv-x="280" 
d="M46 291v28q0 10 9 10h170q10 0 10 -10v-28q0 -9 -10 -9h-170q-9 0 -9 9z" />
    <glyph glyph-name="registered" unicode="&#xae;" horiz-adv-x="786" 
d="M109 488v-275q0 -75 45.5 -120.5t119.5 -45.5h238q74 0 119.5 45.5t45.5 120.5v275q0 74 -45.5 119.5t-119.5 45.5h-238q-74 0 -119.5 -45.5t-45.5 -119.5zM423 535h-93v-187h93q27 0 43.5 16.5t16.5 43.5v66q0 28 -16.5 44.5t-43.5 16.5zM62 213v275q0 95 58.5 153.5
t153.5 58.5h238q95 0 153.5 -58.5t58.5 -153.5v-275q0 -96 -58.5 -154.5t-153.5 -58.5h-238q-95 0 -153.5 58.5t-58.5 154.5zM490 124l-69 173h-91v-172q0 -11 -11 -11h-30q-11 0 -11 11v450q0 11 11 11h132q51 0 82.5 -31t31.5 -82v-62q0 -78 -64 -105l72 -182
q3 -10 -9 -10h-31q-10 0 -13 10z" />
    <glyph glyph-name="macron" unicode="&#xaf;" horiz-adv-x="234" 
d="M37 725v21q0 9 9 9h142q9 0 9 -9v-21q0 -10 -9 -10h-142q-9 0 -9 10z" />
    <glyph glyph-name="degree" unicode="&#xb0;" horiz-adv-x="256" 
d="M25 604q0 43 30 73t73 30t73.5 -30t30.5 -73t-30.5 -73.5t-73.5 -30.5t-73 30.5t-30 73.5zM68 604q0 -25 17.5 -42.5t42.5 -17.5t42.5 17.5t17.5 42.5q0 24 -17.5 42t-42.5 18t-42.5 -18t-17.5 -42z" />
    <glyph glyph-name="plusminus" unicode="&#xb1;" 
d="M215 236h-28q-11 0 -11 11v114h-114q-12 0 -12 12v28q0 12 12 12h114v113q0 12 11 12h28q12 0 12 -12v-113h114q12 0 12 -12v-28q0 -12 -12 -12h-114v-114q0 -11 -12 -11zM50 129v28q0 12 12 12h279q12 0 12 -12v-28q0 -11 -12 -11h-279q-12 0 -12 11z" />
    <glyph glyph-name="twosuperior" unicode="&#xb2;" horiz-adv-x="200" 
d="M96 702h8q34 0 55 -20.5t21 -54.5v-62q0 -30 -23 -48l-88 -76q-9 -9 -9 -20v-33h116q7 0 7 -8v-22q0 -8 -7 -8h-147q-7 0 -7 8v64q0 28 22 47l89 77q9 9 9 20v64q0 16 -9.5 25t-25.5 9h-15q-15 0 -24.5 -9t-9.5 -25v-23q0 -7 -8 -7h-23q-7 0 -7 7v20q0 34 21 54.5
t55 20.5z" />
    <glyph glyph-name="threesuperior" unicode="&#xb3;" horiz-adv-x="206" 
d="M94 702h14q34 0 54.5 -21t20.5 -55v-37q0 -38 -32 -57q36 -18 36 -59v-50q0 -33 -21 -54t-55 -21h-18q-34 0 -55 21t-21 54v17q0 7 8 7h23q7 0 7 -7v-20q0 -15 9.5 -24.5t24.5 -9.5h25q16 0 25.5 9.5t9.5 24.5v58q0 15 -9.5 24.5t-25.5 9.5h-26q-8 0 -8 8v23q0 7 8 7h22
q16 0 25.5 9.5t9.5 24.5v45q0 16 -9.5 25.5t-24.5 9.5h-20q-16 0 -25 -9.5t-9 -25.5v-19q0 -7 -9 -7h-22q-7 0 -7 7v16q0 34 20.5 55t54.5 21z" />
    <glyph glyph-name="acute" unicode="&#xb4;" horiz-adv-x="183" 
d="M37 706l44 73q4 8 13 8h47q9 0 4 -7l-65 -75q-5 -7 -15 -7h-23q-8 0 -5 8z" />
    <glyph glyph-name="paragraph" unicode="&#xb6;" horiz-adv-x="488" 
d="M211 285h-42q-55 0 -88 33t-33 87v175q0 54 33 87t88 33h234q12 0 12 -12v-826q0 -12 -12 -12h-33q-11 0 -11 12v782h-92v-782q0 -12 -12 -12h-32q-12 0 -12 12v423z" />
    <glyph glyph-name="periodcentered" unicode="&#xb7;" horiz-adv-x="165" 
d="M46 330v40q0 18 17 18h38q18 0 18 -18v-40q0 -18 -18 -18h-38q-17 0 -17 18z" />
    <glyph glyph-name="cedilla" unicode="&#xb8;" horiz-adv-x="180" 
d="M143 -77v-19q0 -19 -11.5 -30.5t-30.5 -11.5h-55q-9 0 -9 10v12q0 9 9 9h49q15 0 15 15v10q0 15 -15 15h-27q-17 0 -13 16l9 53h36l-7 -37h8q19 0 30.5 -11.5t11.5 -30.5z" />
    <glyph glyph-name="onesuperior" unicode="&#xb9;" horiz-adv-x="163" 
d="M102 700h9q8 0 8 -8v-334q0 -8 -8 -8h-23q-7 0 -7 8v298l-60 -27q-7 0 -7 6v23q0 8 7 11l66 28q6 3 15 3z" />
    <glyph glyph-name="ordmasculine" unicode="&#xba;" horiz-adv-x="269" 
d="M233 627v-212q0 -34 -20.5 -54.5t-54.5 -20.5h-47q-34 0 -55 20.5t-21 54.5v212q0 34 21 54.5t55 20.5h47q34 0 54.5 -20.5t20.5 -54.5zM74 629v-216q0 -17 10 -27t27 -10h47q16 0 26 10t10 27v216q0 16 -10 26t-26 10h-47q-16 0 -26.5 -10t-10.5 -26z" />
    <glyph glyph-name="guillemotright" unicode="&#xbb;" horiz-adv-x="427" 
d="M355 305l-159 152q-8 8 0 16l16 17q4 4 9 4t8 -4l169 -161q9 -9 9 -20v-8q0 -11 -9 -20l-169 -161q-3 -4 -8 -4t-8 4l-17 17q-8 9 0 17zM191 305l-160 152q-8 8 0 17l17 16q4 4 8 4q5 0 9 -4l168 -161q9 -7 9 -20v-8q0 -13 -9 -20l-168 -161q-4 -4 -9 -4q-2 0 -8 4
l-17 17q-9 9 0 17z" />
    <glyph glyph-name="onequarter" unicode="&#xbc;" horiz-adv-x="777" 
d="M180 700h9q8 0 8 -8v-334q0 -8 -8 -8h-23q-7 0 -7 8v298l-61 -27q-7 0 -7 6v23q0 8 7 11l66 28q6 3 16 3zM91 -19l535 764q3 5 7 5q2 0 6 -2l23 -16q8 -6 2 -14l-534 -763q-3 -5 -8 -5q-3 0 -5 2l-23 16q-9 5 -3 13zM685 73h-28v-65q0 -8 -7 -8h-24q-7 0 -7 8v65h-120
q-8 0 -8 8v12q0 6 4 14l98 236q3 7 11 7h26q8 0 5 -7l-98 -232h82v88q0 7 7 7h24q7 0 7 -7v-88h28q7 0 7 -8v-22q0 -8 -7 -8z" />
    <glyph glyph-name="onehalf" unicode="&#xbd;" horiz-adv-x="760" 
d="M180 700h9q8 0 8 -8v-334q0 -8 -8 -8h-23q-7 0 -7 8v298l-61 -27q-7 0 -7 6v23q0 8 7 11l66 28q6 3 16 3zM91 -19l535 764q3 5 7 5q2 0 6 -2l23 -16q8 -6 2 -14l-534 -763q-3 -5 -8 -5q-3 0 -5 2l-23 16q-9 5 -3 13zM578 352h8q34 0 55 -20.5t21 -54.5v-62q0 -31 -22 -48
l-88 -76q-10 -10 -10 -20v-33h116q8 0 8 -8v-22q0 -8 -8 -8h-146q-8 0 -8 8v64q0 28 22 47l89 77q9 9 9 20v64q0 16 -9.5 25t-24.5 9h-15q-16 0 -25.5 -9t-9.5 -25v-23q0 -7 -7 -7h-23q-8 0 -8 7v20q0 34 21 54.5t55 20.5z" />
    <glyph glyph-name="threequarters" unicode="&#xbe;" horiz-adv-x="820" 
d="M171 702h14q34 0 54.5 -21t20.5 -55v-37q0 -38 -32 -57q36 -18 36 -59v-50q0 -33 -21 -54t-55 -21h-17q-34 0 -55 21t-21 54v17q0 7 7 7h23q8 0 8 -7v-20q0 -15 9.5 -24.5t24.5 -9.5h24q16 0 25.5 9.5t9.5 24.5v58q0 15 -9.5 24.5t-25.5 9.5h-26q-7 0 -7 8v23q0 7 7 7h23
q15 0 24.5 9.5t9.5 24.5v45q0 16 -9 25.5t-25 9.5h-20q-16 0 -25 -9.5t-9 -25.5v-19q0 -7 -8 -7h-22q-8 0 -8 7v16q0 34 20.5 55t54.5 21zM134 -19l535 764q3 5 8 5q1 0 5 -2l23 -16q8 -6 2 -14l-534 -763q-3 -5 -8 -5q-3 0 -5 2l-23 16q-9 5 -3 13zM728 73h-28v-65
q0 -8 -7 -8h-24q-7 0 -7 8v65h-120q-8 0 -8 8v12q0 6 4 14l98 236q4 7 11 7h26q9 0 5 -7l-98 -232h82v88q0 7 7 7h24q7 0 7 -7v-88h28q7 0 7 -8v-22q0 -8 -7 -8z" />
    <glyph glyph-name="questiondown" unicode="&#xbf;" horiz-adv-x="363" 
d="M33 -34v102q0 59 40 101l59 69q23 25 23 59l1 66q0 12 12 12h28q11 0 13 -12v-65q2 -59 -38 -102l-60 -68q-22 -25 -22 -59v-105q0 -28 17 -45t45 -17h59q27 0 43 17t16 45v71q0 12 12 12h33q11 0 11 -12v-69q0 -54 -31.5 -87t-85.5 -33h-54q-55 0 -88 33t-33 87z
M218 532v-40q0 -18 -17 -18h-38q-18 0 -18 18v40q0 18 18 18h38q17 0 17 -18z" />
    <glyph glyph-name="Agrave" unicode="&#xc0;" horiz-adv-x="412" 
d="M118 193h177l-85 368q-3 15 -3 33h-2q0 -23 -2 -33zM308 137h-203l-29 -126q-2 -11 -14 -11h-34q-13 0 -9 11l161 678q4 11 14 11h24q12 0 14 -11l162 -678q2 -11 -9 -11h-34q-11 0 -15 11zM191 824l43 -73q5 -8 -4 -8h-23q-9 0 -16 7l-64 75q-7 7 3 7h47q9 0 14 -8z" />
    <glyph glyph-name="Aacute" unicode="&#xc1;" horiz-adv-x="412" 
d="M118 193h177l-85 368q-3 15 -3 33h-2q0 -23 -2 -33zM308 137h-203l-29 -126q-2 -11 -14 -11h-34q-13 0 -9 11l161 678q4 11 14 11h24q12 0 14 -11l162 -678q2 -11 -9 -11h-34q-11 0 -15 11zM178 751l43 73q5 8 13 8h48q10 0 3 -7l-64 -75q-7 -7 -16 -7h-23q-9 0 -4 8z
" />
    <glyph glyph-name="Acircumflex" unicode="&#xc2;" horiz-adv-x="412" 
d="M118 193h177l-85 368q-3 15 -3 33h-2q0 -23 -2 -33zM308 137h-203l-29 -126q-2 -11 -14 -11h-34q-13 0 -9 11l161 678q4 11 14 11h24q12 0 14 -11l162 -678q2 -11 -9 -11h-34q-11 0 -15 11zM235 827l55 -75q6 -6 -3 -6h-29q-10 0 -15 7l-37 50l-38 -50q-7 -7 -15 -7h-28
q-8 0 -4 6l55 75q7 7 16 7h28q10 0 15 -7z" />
    <glyph glyph-name="Atilde" unicode="&#xc3;" horiz-adv-x="412" 
d="M118 193h177l-85 368q-3 15 -3 33h-2q0 -23 -2 -33zM308 137h-203l-29 -126q-2 -11 -14 -11h-34q-13 0 -9 11l161 678q4 11 14 11h24q12 0 14 -11l162 -678q2 -11 -9 -11h-34q-11 0 -15 11zM123 761v24q0 13 19 22.5t33 9.5q11 0 23 -6l23 -13q7 -3 15 -3q11 0 39 18
q4 2 5 2q3 0 3 -6v-24q0 -13 -18 -22t-33 -9q-12 0 -23 6l-24 13q-7 3 -14 3q-10 0 -40 -19q-2 -2 -4 -2q-4 0 -4 6z" />
    <glyph glyph-name="Adieresis" unicode="&#xc4;" horiz-adv-x="412" 
d="M118 193h177l-85 368q-3 15 -3 33h-2q0 -23 -2 -33zM308 137h-203l-29 -126q-2 -11 -14 -11h-34q-13 0 -9 11l161 678q4 11 14 11h24q12 0 14 -11l162 -678q2 -11 -9 -11h-34q-11 0 -15 11zM123 769v22q0 18 18 18h21q18 0 18 -18v-22q0 -18 -18 -18h-21q-18 0 -18 18z
M234 769v22q0 18 18 18h22q17 0 17 -18v-22q0 -18 -17 -18h-22q-18 0 -18 18z" />
    <glyph glyph-name="Aring" unicode="&#xc5;" horiz-adv-x="412" 
d="M118 193h177l-85 368q-3 15 -3 33h-2q0 -23 -2 -33zM174 802q0 -14 9 -23t23 -9q13 0 22.5 9.5t9.5 22.5t-9.5 22.5t-22.5 9.5t-22.5 -9.5t-9.5 -22.5zM308 137h-203l-29 -126q-2 -11 -14 -11h-34q-13 0 -9 11l161 678q4 11 14 11h24q12 0 14 -11l162 -678q2 -11 -9 -11
h-34q-11 0 -15 11zM142 802q0 26 19 44.5t45 18.5t44.5 -18.5t18.5 -44.5t-18.5 -45t-44.5 -19t-45 19t-19 45z" />
    <glyph glyph-name="AE" unicode="&#xc6;" horiz-adv-x="610" 
d="M151 193h158v388q0 12 4 32h-2q-6 -26 -8 -31zM309 137h-180l-49 -126q-6 -11 -15 -11h-37q-5 0 -7.5 3.5t-0.5 7.5l268 678q4 11 15 11h262q12 0 12 -12v-32q0 -12 -12 -12h-200v-292h158q12 0 12 -11v-33q0 -12 -12 -12h-158v-240h200q12 0 12 -12v-32q0 -12 -12 -12
h-244q-12 0 -12 12v125z" />
    <glyph glyph-name="Ccedilla" unicode="&#xc7;" horiz-adv-x="424" 
d="M273 -77v-19q0 -19 -11 -30.5t-30 -11.5h-56q-9 0 -9 10v12q0 9 9 9h49q15 0 15 15v10q0 15 -15 15h-27q-17 0 -13 16l8 47h-11q-54 0 -87 33t-33 87v468q0 54 33 87t87 33h73q54 0 87 -33t33 -87v-70q0 -12 -11 -12h-33q-12 0 -12 12v72q0 28 -17 45t-45 17h-77
q-28 0 -45 -17t-17 -45v-472q0 -28 17 -45t45 -17h77q28 0 45 17t17 45v72q0 12 12 12h33q11 0 11 -12v-70q0 -54 -33 -87t-87 -33h-26l-6 -31h9q19 0 30 -11.5t11 -30.5z" />
    <glyph glyph-name="Egrave" unicode="&#xc8;" horiz-adv-x="373" 
d="M328 644h-200v-292h158q11 0 11 -11v-33q0 -12 -11 -12h-158v-240h200q12 0 12 -12v-32q0 -12 -12 -12h-245q-11 0 -11 12v676q0 12 11 12h245q12 0 12 -12v-32q0 -12 -12 -12zM190 824l44 -73q5 -8 -5 -8h-22q-9 0 -16 7l-64 75q-7 7 3 7h47q10 0 13 -8z" />
    <glyph glyph-name="Eacute" unicode="&#xc9;" horiz-adv-x="373" 
d="M328 644h-200v-292h158q11 0 11 -11v-33q0 -12 -11 -12h-158v-240h200q12 0 12 -12v-32q0 -12 -12 -12h-245q-11 0 -11 12v676q0 12 11 12h245q12 0 12 -12v-32q0 -12 -12 -12zM177 751l44 73q3 8 13 8h47q10 0 3 -7l-64 -75q-7 -7 -16 -7h-22q-8 0 -5 8z" />
    <glyph glyph-name="Ecircumflex" unicode="&#xca;" horiz-adv-x="373" 
d="M328 644h-200v-292h158q11 0 11 -11v-33q0 -12 -11 -12h-158v-240h200q12 0 12 -12v-32q0 -12 -12 -12h-245q-11 0 -11 12v676q0 12 11 12h245q12 0 12 -12v-32q0 -12 -12 -12zM235 827l55 -75q5 -6 -4 -6h-29q-8 0 -15 7l-36 50l-39 -50q-5 -7 -15 -7h-27q-8 0 -4 6
l55 75q5 7 15 7h29q10 0 15 -7z" />
    <glyph glyph-name="Edieresis" unicode="&#xcb;" horiz-adv-x="373" 
d="M328 644h-200v-292h158q11 0 11 -11v-33q0 -12 -11 -12h-158v-240h200q12 0 12 -12v-32q0 -12 -12 -12h-245q-11 0 -11 12v676q0 12 11 12h245q12 0 12 -12v-32q0 -12 -12 -12zM122 769v22q0 18 18 18h22q18 0 18 -18v-22q0 -18 -18 -18h-22q-18 0 -18 18zM234 769v22
q0 18 17 18h22q18 0 18 -18v-22q0 -18 -18 -18h-22q-17 0 -17 18z" />
    <glyph glyph-name="Igrave" unicode="&#xcc;" horiz-adv-x="284" 
d="M33 12v30q0 12 12 12h69v592h-69q-12 0 -12 12v30q0 12 12 12h194q12 0 12 -12v-30q0 -12 -12 -12h-69v-592h69q12 0 12 -12v-30q0 -12 -12 -12h-194q-12 0 -12 12zM127 824l43 -73q5 -8 -4 -8h-23q-9 0 -16 7l-64 75q-7 7 3 7h47q9 0 14 -8z" />
    <glyph glyph-name="Iacute" unicode="&#xcd;" horiz-adv-x="284" 
d="M33 12v30q0 12 12 12h69v592h-69q-12 0 -12 12v30q0 12 12 12h194q12 0 12 -12v-30q0 -12 -12 -12h-69v-592h69q12 0 12 -12v-30q0 -12 -12 -12h-194q-12 0 -12 12zM113 751l44 73q5 8 13 8h48q8 0 3 -7l-65 -75q-5 -7 -15 -7h-23q-8 0 -5 8z" />
    <glyph glyph-name="Icircumflex" unicode="&#xce;" horiz-adv-x="284" 
d="M33 12v30q0 12 12 12h69v592h-69q-12 0 -12 12v30q0 12 12 12h194q12 0 12 -12v-30q0 -12 -12 -12h-69v-592h69q12 0 12 -12v-30q0 -12 -12 -12h-194q-12 0 -12 12zM171 827l55 -75q4 -6 -3 -6h-29q-10 0 -15 7l-37 50l-38 -50q-7 -7 -15 -7h-28q-9 0 -4 6l55 75
q7 7 15 7h29q10 0 15 -7z" />
    <glyph glyph-name="Idieresis" unicode="&#xcf;" horiz-adv-x="284" 
d="M33 12v30q0 12 12 12h69v592h-69q-12 0 -12 12v30q0 12 12 12h194q12 0 12 -12v-30q0 -12 -12 -12h-69v-592h69q12 0 12 -12v-30q0 -12 -12 -12h-194q-12 0 -12 12zM59 769v22q0 18 17 18h22q18 0 18 -18v-22q0 -18 -18 -18h-22q-17 0 -17 18zM170 769v22q0 18 18 18h21
q18 0 18 -18v-22q0 -18 -18 -18h-21q-18 0 -18 18z" />
    <glyph glyph-name="Eth" unicode="&#xd0;" horiz-adv-x="447" 
d="M223 338h-95v-282h140q28 0 45 17t17 45v464q0 28 -17 45t-45 17h-140v-259h95q11 0 11 -12v-24q0 -11 -11 -11zM16 349v24q0 12 12 12h44v303q0 12 11 12h183q54 0 87 -33t33 -87v-460q0 -54 -33 -87t-87 -33h-183q-11 0 -11 12v326h-44q-12 0 -12 11z" />
    <glyph glyph-name="Ntilde" unicode="&#xd1;" horiz-adv-x="466" 
d="M128 527v-515q0 -12 -12 -12h-33q-11 0 -11 12v676q0 12 11 12h24q11 0 16 -11l209 -519q4 -10 9 -31h2q-4 20 -4 32v517q0 12 11 12h33q12 0 12 -12v-676q0 -12 -12 -12h-24q-11 0 -16 11l-209 517q-4 10 -9 31h-2q5 -25 5 -32zM151 761v24q0 13 18.5 22.5t33.5 9.5
q12 0 22 -6l24 -13q7 -3 14 -3q12 0 40 18l4 2q4 0 4 -6v-24q0 -13 -18.5 -22t-33.5 -9q-11 0 -23 6l-24 13q-6 3 -13 3t-13 -2.5t-16.5 -9.5t-11.5 -7q-1 -2 -4 -2t-3 6z" />
    <glyph glyph-name="Ograve" unicode="&#xd2;" horiz-adv-x="452" 
d="M118 586v-472q0 -28 17 -45t45 -17h92q28 0 45 17t17 45v472q0 28 -17 45t-45 17h-92q-28 0 -45 -17t-17 -45zM62 116v468q0 54 33 87t87 33h88q54 0 87 -33t33 -87v-468q0 -54 -33 -87t-87 -33h-88q-54 0 -87 33t-33 87zM211 824l44 -73q3 -8 -5 -8h-23q-10 0 -15 7
l-65 75q-5 7 3 7h48q8 0 13 -8z" />
    <glyph glyph-name="Oacute" unicode="&#xd3;" horiz-adv-x="452" 
d="M118 586v-472q0 -28 17 -45t45 -17h92q28 0 45 17t17 45v472q0 28 -17 45t-45 17h-92q-28 0 -45 -17t-17 -45zM62 116v468q0 54 33 87t87 33h88q54 0 87 -33t33 -87v-468q0 -54 -33 -87t-87 -33h-88q-54 0 -87 33t-33 87zM198 751l43 73q5 8 14 8h47q10 0 3 -7l-64 -75
q-7 -7 -16 -7h-23q-9 0 -4 8z" />
    <glyph glyph-name="Ocircumflex" unicode="&#xd4;" horiz-adv-x="452" 
d="M118 586v-472q0 -28 17 -45t45 -17h92q28 0 45 17t17 45v472q0 28 -17 45t-45 17h-92q-28 0 -45 -17t-17 -45zM62 116v468q0 54 33 87t87 33h88q54 0 87 -33t33 -87v-468q0 -54 -33 -87t-87 -33h-88q-54 0 -87 33t-33 87zM256 827l55 -75q5 -6 -4 -6h-29q-10 0 -15 7
l-37 50l-38 -50q-5 -7 -15 -7h-28q-9 0 -4 6l56 75q5 7 15 7h29q8 0 15 -7z" />
    <glyph glyph-name="Otilde" unicode="&#xd5;" horiz-adv-x="452" 
d="M118 586v-472q0 -28 17 -45t45 -17h92q28 0 45 17t17 45v472q0 28 -17 45t-45 17h-92q-28 0 -45 -17t-17 -45zM62 116v468q0 54 33 87t87 33h88q54 0 87 -33t33 -87v-468q0 -54 -33 -87t-87 -33h-88q-54 0 -87 33t-33 87zM143 761v24q0 13 19 22.5t33 9.5q11 0 23 -6
l24 -13q7 -3 14 -3q9 0 40 18q2 2 4 2q4 0 4 -6v-24q0 -13 -18.5 -22t-33.5 -9q-12 0 -23 6l-24 13q-7 3 -13 3q-11 0 -41 -19q-2 -2 -4 -2q-4 0 -4 6z" />
    <glyph glyph-name="Odieresis" unicode="&#xd6;" horiz-adv-x="452" 
d="M118 586v-472q0 -28 17 -45t45 -17h92q28 0 45 17t17 45v472q0 28 -17 45t-45 17h-92q-28 0 -45 -17t-17 -45zM62 116v468q0 54 33 87t87 33h88q54 0 87 -33t33 -87v-468q0 -54 -33 -87t-87 -33h-88q-54 0 -87 33t-33 87zM254 769v22q0 18 18 18h22q18 0 18 -18v-22
q0 -18 -18 -18h-22q-18 0 -18 18zM143 769v22q0 18 18 18h22q17 0 17 -18v-22q0 -18 -17 -18h-22q-18 0 -18 18z" />
    <glyph glyph-name="multiply" unicode="&#xd7;" 
d="M201 314l-107 -108q-4 -4 -9 -4q-4 0 -8 4l-20 20q-8 8 0 16l108 108l-108 108q-10 9 0 17l20 20q4 4 8 4q2 0 8 -4l108 -109l109 109q4 4 8 4t8 -4l20 -20q8 -8 0 -16l-108 -109l107 -108q11 -7 0 -16l-19 -20q-4 -4 -8 -4q-3 0 -9 4z" />
    <glyph glyph-name="Oslash" unicode="&#xd8;" horiz-adv-x="452" 
d="M129 76l164 569q-9 3 -21 3h-92q-28 0 -45 -17t-17 -45v-472q0 -22 11 -38zM322 625l-163 -570q9 -3 21 -3h92q28 0 45 17t17 45v472q0 24 -12 39zM355 734l-15 -49q50 -33 50 -101v-468q0 -54 -33 -87t-87 -33h-88q-19 0 -39 5l-14 -45q-1 -6 -10 -6l-17 5q-8 3 -6 11
l15 50q-49 32 -49 100v468q0 54 33 87t87 33h88q19 0 39 -5l14 45q1 6 11 6l16 -5q9 -2 5 -11z" />
    <glyph glyph-name="Ugrave" unicode="&#xd9;" horiz-adv-x="445" 
d="M339 700h32q12 0 12 -12v-572q0 -54 -33 -87t-87 -33h-81q-54 0 -87 33t-33 87v572q0 12 11 12h33q12 0 12 -12v-574q0 -28 17 -45t45 -17h85q28 0 45 17t17 45v574q0 12 12 12zM207 824l44 -73q3 -8 -5 -8h-23q-10 0 -15 7l-65 75q-5 7 4 7h47q10 0 13 -8z" />
    <glyph glyph-name="Uacute" unicode="&#xda;" horiz-adv-x="445" 
d="M339 700h32q12 0 12 -12v-572q0 -54 -33 -87t-87 -33h-81q-54 0 -87 33t-33 87v572q0 12 11 12h33q12 0 12 -12v-574q0 -28 17 -45t45 -17h85q28 0 45 17t17 45v574q0 12 12 12zM194 751l43 73q5 8 14 8h47q10 0 3 -7l-64 -75q-7 -7 -16 -7h-22q-10 0 -5 8z" />
    <glyph glyph-name="Ucircumflex" unicode="&#xdb;" horiz-adv-x="445" 
d="M339 700h32q12 0 12 -12v-572q0 -54 -33 -87t-87 -33h-81q-54 0 -87 33t-33 87v572q0 12 11 12h33q12 0 12 -12v-574q0 -28 17 -45t45 -17h85q28 0 45 17t17 45v574q0 12 12 12zM252 827l55 -75q5 -6 -4 -6h-29q-8 0 -15 7l-37 50l-38 -50q-5 -7 -15 -7h-28q-7 0 -3 6
l55 75q5 7 15 7h29q8 0 15 -7z" />
    <glyph glyph-name="Udieresis" unicode="&#xdc;" horiz-adv-x="445" 
d="M339 700h32q12 0 12 -12v-572q0 -54 -33 -87t-87 -33h-81q-54 0 -87 33t-33 87v572q0 12 11 12h33q12 0 12 -12v-574q0 -28 17 -45t45 -17h85q28 0 45 17t17 45v574q0 12 12 12zM250 769v22q0 18 18 18h22q18 0 18 -18v-22q0 -18 -18 -18h-22q-18 0 -18 18zM139 769v22
q0 18 18 18h22q7 0 12.5 -5.5t5.5 -12.5v-22q0 -18 -18 -18h-22q-18 0 -18 18z" />
    <glyph glyph-name="Yacute" unicode="&#xdd;" horiz-adv-x="391" 
d="M372 689l-149 -408v-269q0 -12 -11 -12h-33q-12 0 -12 12v269l-148 408q-3 11 8 11h35q12 0 15 -11l113 -309q4 -12 4 -32h2q0 21 5 32l112 309q5 11 16 11h35q11 0 8 -11zM167 751l44 73q3 8 13 8h47q9 0 4 -7l-65 -75q-5 -7 -15 -7h-23q-8 0 -5 8z" />
    <glyph glyph-name="Thorn" unicode="&#xde;" 
d="M246 509h-118v-309h118q28 0 45 17t17 45v185q0 28 -17 45t-45 17zM244 144h-116v-132q0 -12 -12 -12h-33q-11 0 -11 12v676q0 12 11 12h33q12 0 12 -12v-123h116q54 0 87 -33t33 -87v-180q0 -54 -33 -87.5t-87 -33.5z" />
    <glyph glyph-name="germandbls" unicode="&#xdf;" horiz-adv-x="417" 
d="M180 702h49q52 0 83 -29.5t31 -77.5v-90q0 -65 -49 -95q67 -26 67 -104v-197q0 -49 -31.5 -79t-82.5 -30h-57q-11 0 -11 12v28q0 12 11 12h55q30 0 46 16.5t16 46.5v198q0 31 -16.5 49t-45.5 18h-55q-11 0 -11 12v28q0 11 11 11h35q30 0 47 18.5t17 48.5v93
q0 27 -16.5 43.5t-45.5 16.5h-47q-27 0 -43.5 -16.5t-16.5 -43.5v-579q0 -12 -11 -12h-31q-11 0 -11 12v577q0 51 31 82t82 31z" />
    <glyph glyph-name="agrave" unicode="&#xe0;" horiz-adv-x="409" 
d="M289 102v158q-81 18 -117 18q-30 0 -48.5 -18t-18.5 -48v-109q0 -27 17.5 -43t42.5 -16q46 0 124 58zM289 12v34q-78 -53 -135 -53q-44 0 -73.5 31t-29.5 80v107q0 52 31.5 83.5t82.5 31.5q38 0 124 -16v126q0 30 -16 48t-46 18h-55q-30 0 -46 -18t-16 -48v-25
q0 -12 -12 -12h-30q-12 0 -12 12v29q0 52 31 83t83 31h59q51 0 82.5 -31t31.5 -83v-428q0 -12 -12 -12h-30q-12 0 -12 12zM190 674l43 -73q5 -8 -4 -8h-23q-9 0 -16 7l-64 75q-7 7 3 7h47q9 0 14 -8z" />
    <glyph glyph-name="aacute" unicode="&#xe1;" horiz-adv-x="409" 
d="M289 102v158q-81 18 -117 18q-30 0 -48.5 -18t-18.5 -48v-109q0 -27 17.5 -43t42.5 -16q46 0 124 58zM289 12v34q-78 -53 -135 -53q-44 0 -73.5 31t-29.5 80v107q0 52 31.5 83.5t82.5 31.5q38 0 124 -16v126q0 30 -16 48t-46 18h-55q-30 0 -46 -18t-16 -48v-25
q0 -12 -12 -12h-30q-12 0 -12 12v29q0 52 31 83t83 31h59q51 0 82.5 -31t31.5 -83v-428q0 -12 -12 -12h-30q-12 0 -12 12zM177 601l43 73q5 8 13 8h48q10 0 3 -7l-64 -75q-7 -7 -16 -7h-23q-9 0 -4 8z" />
    <glyph glyph-name="acircumflex" unicode="&#xe2;" horiz-adv-x="409" 
d="M289 102v158q-81 18 -117 18q-30 0 -48.5 -18t-18.5 -48v-109q0 -27 17.5 -43t42.5 -16q46 0 124 58zM289 12v34q-78 -53 -135 -53q-44 0 -73.5 31t-29.5 80v107q0 52 31.5 83.5t82.5 31.5q38 0 124 -16v126q0 30 -16 48t-46 18h-55q-30 0 -46 -18t-16 -48v-25
q0 -12 -12 -12h-30q-12 0 -12 12v29q0 52 31 83t83 31h59q51 0 82.5 -31t31.5 -83v-428q0 -12 -12 -12h-30q-12 0 -12 12zM234 677l55 -75q5 -6 -3 -6h-29q-10 0 -15 7l-37 50l-38 -50q-7 -7 -15 -7h-28q-8 0 -4 6l55 75q7 7 15 7h29q10 0 15 -7z" />
    <glyph glyph-name="atilde" unicode="&#xe3;" horiz-adv-x="409" 
d="M289 102v158q-81 18 -117 18q-30 0 -48.5 -18t-18.5 -48v-109q0 -27 17.5 -43t42.5 -16q46 0 124 58zM289 12v34q-78 -53 -135 -53q-44 0 -73.5 31t-29.5 80v107q0 52 31.5 83.5t82.5 31.5q38 0 124 -16v126q0 30 -16 48t-46 18h-55q-30 0 -46 -18t-16 -48v-25
q0 -12 -12 -12h-30q-12 0 -12 12v29q0 52 31 83t83 31h59q51 0 82.5 -31t31.5 -83v-428q0 -12 -12 -12h-30q-12 0 -12 12zM122 611v24q0 13 19 22.5t33 9.5q11 0 23 -6l23 -13q8 -3 15 -3q11 0 39 18q4 2 5 2q3 0 3 -6v-24q0 -13 -18 -22t-33 -9q-13 0 -23 6l-24 13
q-8 3 -14 3q-10 0 -40 -19q-2 -2 -4 -2q-4 0 -4 6z" />
    <glyph glyph-name="adieresis" unicode="&#xe4;" horiz-adv-x="409" 
d="M289 102v158q-81 18 -117 18q-30 0 -48.5 -18t-18.5 -48v-109q0 -27 17.5 -43t42.5 -16q46 0 124 58zM289 12v34q-78 -53 -135 -53q-44 0 -73.5 31t-29.5 80v107q0 52 31.5 83.5t82.5 31.5q38 0 124 -16v126q0 30 -16 48t-46 18h-55q-30 0 -46 -18t-16 -48v-25
q0 -12 -12 -12h-30q-12 0 -12 12v29q0 52 31 83t83 31h59q51 0 82.5 -31t31.5 -83v-428q0 -12 -12 -12h-30q-12 0 -12 12zM122 619v22q0 18 18 18h21q18 0 18 -18v-22q0 -18 -18 -18h-21q-18 0 -18 18zM233 619v22q0 18 18 18h22q17 0 17 -18v-22q0 -18 -17 -18h-22
q-18 0 -18 18z" />
    <glyph glyph-name="aring" unicode="&#xe5;" horiz-adv-x="409" 
d="M289 102v158q-81 18 -117 18q-30 0 -48.5 -18t-18.5 -48v-109q0 -27 17.5 -43t42.5 -16q46 0 124 58zM173 652q0 -14 9.5 -23t22.5 -9t22.5 9.5t9.5 22.5t-9.5 22.5t-22.5 9.5t-22.5 -9.5t-9.5 -22.5zM289 12v34q-78 -53 -135 -53q-44 0 -73.5 31t-29.5 80v107
q0 52 31.5 83.5t82.5 31.5q38 0 124 -16v126q0 30 -16 48t-46 18h-55q-30 0 -46 -18t-16 -48v-25q0 -12 -12 -12h-30q-12 0 -12 12v29q0 52 31 83t83 31h59q51 0 82.5 -31t31.5 -83v-428q0 -12 -12 -12h-30q-12 0 -12 12zM141 652q0 26 19 44.5t45 18.5t44.5 -18.5
t18.5 -44.5t-18.5 -45t-44.5 -19t-45 19t-19 45z" />
    <glyph glyph-name="ae" unicode="&#xe6;" horiz-adv-x="629" 
d="M289 110v150q-81 18 -117 18q-30 0 -48.5 -18t-18.5 -48v-109q0 -27 17.5 -43t42.5 -16q46 0 124 58v8zM464 502h-62q-27 0 -43 -16t-16 -42v-144h181v144q0 26 -16.5 42t-43.5 16zM566 248h-223v-140q0 -27 16 -43.5t43 -16.5h62q27 0 43.5 16.5t16.5 42.5v35
q0 12 12 12h30q12 0 12 -12v-32q0 -51 -31.5 -82.5t-82.5 -31.5h-62q-72 0 -100 57q-90 -60 -147 -60q-44 0 -74 31t-30 80v107q0 52 31.5 83.5t82.5 31.5q38 0 124 -16v130v8q-7 54 -62 54h-55q-30 0 -46 -18t-16 -48v-25q0 -12 -12 -12h-30q-12 0 -12 12v29q0 52 31 83
t82 31h59q56 0 87 -36q31 36 87 36h62q51 0 82.5 -31t31.5 -81v-182q0 -12 -12 -12z" />
    <glyph glyph-name="ccedilla" unicode="&#xe7;" horiz-adv-x="384" 
d="M256 -77v-19q0 -19 -11 -30.5t-30 -11.5h-56q-9 0 -9 10v12q0 9 9 9h49q15 0 15 15v10q0 15 -15 15h-27q-17 0 -13 16l8 47h-6q-51 0 -82 31.5t-31 82.5v330q0 52 31 83t82 31h60q51 0 82 -31t31 -83v-41q0 -11 -12 -11h-30q-12 0 -12 11v44q0 27 -16.5 43t-42.5 16h-60
q-27 0 -43.5 -16t-16.5 -43v-336q0 -26 16.5 -42.5t43.5 -16.5h60q26 0 42.5 16.5t16.5 42.5v44q0 12 12 12h30q12 0 12 -12v-41q0 -51 -31 -82.5t-82 -31.5h-18l-6 -31h9q19 0 30 -11.5t11 -30.5z" />
    <glyph glyph-name="egrave" unicode="&#xe8;" horiz-adv-x="396" 
d="M232 502h-62q-27 0 -43.5 -16t-16.5 -42v-144h182v144q0 26 -16.5 42t-43.5 16zM334 248h-224v-140q0 -27 16.5 -43.5t43.5 -16.5h62q27 0 43.5 16.5t16.5 42.5v35q0 12 11 12h31q11 0 11 -12v-32q0 -51 -31 -82.5t-82 -31.5h-62q-51 0 -82 31.5t-31 82.5v330q0 52 31 83
t82 31h62q51 0 82 -31t31 -81v-182q0 -12 -11 -12zM186 674l44 -73q3 -8 -5 -8h-23q-10 0 -15 7l-65 75q-5 7 3 7h48q8 0 13 -8z" />
    <glyph glyph-name="eacute" unicode="&#xe9;" horiz-adv-x="396" 
d="M232 502h-62q-27 0 -43.5 -16t-16.5 -42v-144h182v144q0 26 -16.5 42t-43.5 16zM334 248h-224v-140q0 -27 16.5 -43.5t43.5 -16.5h62q27 0 43.5 16.5t16.5 42.5v35q0 12 11 12h31q11 0 11 -12v-32q0 -51 -31 -82.5t-82 -31.5h-62q-51 0 -82 31.5t-31 82.5v330q0 52 31 83
t82 31h62q51 0 82 -31t31 -81v-182q0 -12 -11 -12zM173 601l43 73q5 8 14 8h47q10 0 3 -7l-64 -75q-7 -7 -16 -7h-23q-9 0 -4 8z" />
    <glyph glyph-name="ecircumflex" unicode="&#xea;" horiz-adv-x="396" 
d="M232 502h-62q-27 0 -43.5 -16t-16.5 -42v-144h182v144q0 26 -16.5 42t-43.5 16zM334 248h-224v-140q0 -27 16.5 -43.5t43.5 -16.5h62q27 0 43.5 16.5t16.5 42.5v35q0 12 11 12h31q11 0 11 -12v-32q0 -51 -31 -82.5t-82 -31.5h-62q-51 0 -82 31.5t-31 82.5v330q0 52 31 83
t82 31h62q51 0 82 -31t31 -81v-182q0 -12 -11 -12zM231 677l55 -75q5 -6 -4 -6h-29q-10 0 -15 7l-37 50l-38 -50q-5 -7 -15 -7h-28q-8 0 -4 6l56 75q5 7 15 7h29q8 0 15 -7z" />
    <glyph glyph-name="edieresis" unicode="&#xeb;" horiz-adv-x="396" 
d="M232 502h-62q-27 0 -43.5 -16t-16.5 -42v-144h182v144q0 26 -16.5 42t-43.5 16zM334 248h-224v-140q0 -27 16.5 -43.5t43.5 -16.5h62q27 0 43.5 16.5t16.5 42.5v35q0 12 11 12h31q11 0 11 -12v-32q0 -51 -31 -82.5t-82 -31.5h-62q-51 0 -82 31.5t-31 82.5v330q0 52 31 83
t82 31h62q51 0 82 -31t31 -81v-182q0 -12 -11 -12zM118 619v22q0 18 18 18h22q17 0 17 -18v-22q0 -18 -17 -18h-22q-18 0 -18 18zM229 619v22q0 18 18 18h22q18 0 18 -18v-22q0 -18 -18 -18h-22q-18 0 -18 18z" />
    <glyph glyph-name="igrave" unicode="&#xec;" horiz-adv-x="186" 
d="M67 12v526q0 12 11 12h31q11 0 11 -12v-526q0 -12 -11 -12h-31q-11 0 -11 12zM79 674l43 -73q5 -8 -5 -8h-22q-9 0 -16 7l-64 75q-7 7 3 7h47q9 0 14 -8z" />
    <glyph glyph-name="iacute" unicode="&#xed;" horiz-adv-x="186" 
d="M67 12v526q0 12 11 12h31q11 0 11 -12v-526q0 -12 -11 -12h-31q-11 0 -11 12zM65 601l44 73q3 8 13 8h47q10 0 3 -7l-64 -75q-5 -7 -16 -7h-22q-8 0 -5 8z" />
    <glyph glyph-name="icircumflex" unicode="&#xee;" horiz-adv-x="186" 
d="M67 12v526q0 12 11 12h31q11 0 11 -12v-526q0 -12 -11 -12h-31q-11 0 -11 12zM123 677l55 -75q4 -6 -3 -6h-30q-9 0 -14 7l-37 50l-38 -50q-7 -7 -16 -7h-27q-9 0 -4 6l55 75q7 7 15 7h29q10 0 15 -7z" />
    <glyph glyph-name="idieresis" unicode="&#xef;" horiz-adv-x="186" 
d="M67 12v526q0 12 11 12h31q11 0 11 -12v-526q0 -12 -11 -12h-31q-11 0 -11 12zM122 619v22q0 18 18 18h21q18 0 18 -18v-22q0 -18 -18 -18h-21q-18 0 -18 18zM10 619v22q0 18 18 18h22q18 0 18 -18v-22q0 -18 -18 -18h-22q-18 0 -18 18z" />
    <glyph glyph-name="eth" unicode="&#xf0;" horiz-adv-x="417" 
d="M307 114v331q-80 56 -128 56q-26 0 -43.5 -16.5t-17.5 -45.5v-325q0 -30 16 -48t46 -18h65q29 0 45.5 18t16.5 48zM307 502v44q0 67 -65 86l-18 -43q-3 -8 -11 -8q-2 0 -4 1l-18 6q-11 5 -8 15l17 37l-77 16q-18 4 -18 14v25q0 10 13 10h7l90 -18l19 43q2 8 10 8
q3 0 4 -1l18 -6q11 -5 8 -15l-17 -37q103 -28 103 -138v-431q0 -51 -31 -82.5t-82 -31.5h-69q-51 0 -82.5 31.5t-31.5 82.5v330q0 49 30 81t73 32q59 0 140 -51z" />
    <glyph glyph-name="ntilde" unicode="&#xf1;" horiz-adv-x="433" 
d="M78 550h31q11 0 11 -12v-38q84 57 144 57q43 0 72.5 -32t29.5 -82v-431q0 -12 -11 -12h-31q-11 0 -11 12v431q0 29 -18 46t-43 17q-46 0 -132 -62v-432q0 -12 -11 -12h-31q-11 0 -11 12v526q0 12 11 12zM135 611v24q0 13 19 22.5t34 9.5q12 0 22 -6l24 -13q7 -3 14 -3
q9 0 40 18q2 2 4 2q4 0 4 -6v-24q0 -13 -18.5 -22t-33.5 -9q-11 0 -23 6l-24 13q-6 3 -13 3t-13 -2.5t-16.5 -9.5t-11.5 -7q-1 -2 -4 -2q-4 0 -4 6z" />
    <glyph glyph-name="ograve" unicode="&#xf2;" horiz-adv-x="412" 
d="M110 443v-336q0 -26 16.5 -42.5t43.5 -16.5h72q27 0 43.5 16.5t16.5 42.5v336q0 27 -16.5 43t-43.5 16h-72q-27 0 -43.5 -16t-16.5 -43zM57 110v330q0 52 31 83t82 31h72q51 0 82 -31t31 -83v-330q0 -51 -31 -82.5t-82 -31.5h-72q-51 0 -82 31.5t-31 82.5zM191 674
l44 -73q3 -8 -5 -8h-23q-10 0 -15 7l-65 75q-5 7 3 7h48q8 0 13 -8z" />
    <glyph glyph-name="oacute" unicode="&#xf3;" horiz-adv-x="412" 
d="M110 443v-336q0 -26 16.5 -42.5t43.5 -16.5h72q27 0 43.5 16.5t16.5 42.5v336q0 27 -16.5 43t-43.5 16h-72q-27 0 -43.5 -16t-16.5 -43zM57 110v330q0 52 31 83t82 31h72q51 0 82 -31t31 -83v-330q0 -51 -31 -82.5t-82 -31.5h-72q-51 0 -82 31.5t-31 82.5zM178 601l43 73
q5 8 14 8h47q10 0 3 -7l-64 -75q-7 -7 -16 -7h-23q-9 0 -4 8z" />
    <glyph glyph-name="ocircumflex" unicode="&#xf4;" horiz-adv-x="412" 
d="M110 443v-336q0 -26 16.5 -42.5t43.5 -16.5h72q27 0 43.5 16.5t16.5 42.5v336q0 27 -16.5 43t-43.5 16h-72q-27 0 -43.5 -16t-16.5 -43zM57 110v330q0 52 31 83t82 31h72q51 0 82 -31t31 -83v-330q0 -51 -31 -82.5t-82 -31.5h-72q-51 0 -82 31.5t-31 82.5zM236 677
l55 -75q5 -6 -4 -6h-29q-10 0 -15 7l-37 50l-38 -50q-5 -7 -15 -7h-28q-8 0 -4 6l56 75q5 7 15 7h29q8 0 15 -7z" />
    <glyph glyph-name="otilde" unicode="&#xf5;" horiz-adv-x="412" 
d="M110 443v-336q0 -26 16.5 -42.5t43.5 -16.5h72q27 0 43.5 16.5t16.5 42.5v336q0 27 -16.5 43t-43.5 16h-72q-27 0 -43.5 -16t-16.5 -43zM57 110v330q0 52 31 83t82 31h72q51 0 82 -31t31 -83v-330q0 -51 -31 -82.5t-82 -31.5h-72q-51 0 -82 31.5t-31 82.5zM123 611v24
q0 13 19 22.5t33 9.5q11 0 23 -6l24 -13q7 -3 14 -3q9 0 40 18q2 2 4 2q4 0 4 -6v-24q0 -13 -18.5 -22t-33.5 -9q-12 0 -23 6l-24 13q-7 3 -13 3q-11 0 -41 -19q-2 -2 -4 -2q-4 0 -4 6z" />
    <glyph glyph-name="odieresis" unicode="&#xf6;" horiz-adv-x="412" 
d="M110 443v-336q0 -26 16.5 -42.5t43.5 -16.5h72q27 0 43.5 16.5t16.5 42.5v336q0 27 -16.5 43t-43.5 16h-72q-27 0 -43.5 -16t-16.5 -43zM57 110v330q0 52 31 83t82 31h72q51 0 82 -31t31 -83v-330q0 -51 -31 -82.5t-82 -31.5h-72q-51 0 -82 31.5t-31 82.5zM234 619v22
q0 18 18 18h22q18 0 18 -18v-22q0 -18 -18 -18h-22q-18 0 -18 18zM123 619v22q0 18 18 18h22q17 0 17 -18v-22q0 -18 -17 -18h-22q-18 0 -18 18z" />
    <glyph glyph-name="divide" unicode="&#xf7;" 
d="M50 338v28q0 12 12 12h279q12 0 12 -12v-28q0 -11 -12 -11h-279q-12 0 -12 11zM165 490v40q0 18 18 18h38q18 0 18 -18v-40q0 -18 -18 -18h-38q-18 0 -18 18zM164 174v41q0 18 18 18h38q18 0 18 -18v-41q0 -17 -18 -17h-38q-18 0 -18 17z" />
    <glyph glyph-name="oslash" unicode="&#xf8;" horiz-adv-x="412" 
d="M120 72l147 426q-9 4 -25 4h-72q-27 0 -43.5 -16t-16.5 -43v-336q0 -18 10 -35zM292 478l-147 -426q9 -4 25 -4h72q27 0 43.5 16.5t16.5 42.5v336q0 18 -10 35zM83 -35l18 52q-44 30 -44 93v330q0 52 31 83t82 31h72q24 0 42 -7l16 47q4 6 11 6l13 -4q7 -3 5 -11l-18 -51
q44 -31 44 -94v-330q0 -51 -31 -82.5t-82 -31.5h-72q-25 0 -42 7l-17 -47q-1 -6 -10 -6l-13 5q-9 2 -5 10z" />
    <glyph glyph-name="ugrave" unicode="&#xf9;" horiz-adv-x="435" 
d="M356 0h-30q-12 0 -12 12v41q-80 -60 -145 -60q-43 0 -72.5 32t-29.5 82v431q0 12 11 12h31q11 0 11 -12v-431q0 -29 18 -46t43 -17q51 0 133 66v428q0 12 12 12h30q12 0 12 -12v-526q0 -12 -12 -12zM202 674l44 -73q3 -8 -5 -8h-23q-10 0 -15 7l-65 75q-5 7 4 7h47
q10 0 13 -8z" />
    <glyph glyph-name="uacute" unicode="&#xfa;" horiz-adv-x="435" 
d="M356 0h-30q-12 0 -12 12v41q-80 -60 -145 -60q-43 0 -72.5 32t-29.5 82v431q0 12 11 12h31q11 0 11 -12v-431q0 -29 18 -46t43 -17q51 0 133 66v428q0 12 12 12h30q12 0 12 -12v-526q0 -12 -12 -12zM189 601l43 73q5 8 14 8h47q10 0 3 -7l-64 -75q-7 -7 -16 -7h-22
q-10 0 -5 8z" />
    <glyph glyph-name="ucircumflex" unicode="&#xfb;" horiz-adv-x="435" 
d="M356 0h-30q-12 0 -12 12v41q-80 -60 -145 -60q-43 0 -72.5 32t-29.5 82v431q0 12 11 12h31q11 0 11 -12v-431q0 -29 18 -46t43 -17q51 0 133 66v428q0 12 12 12h30q12 0 12 -12v-526q0 -12 -12 -12zM247 677l55 -75q4 -6 -4 -6h-29q-8 0 -15 7l-37 50l-38 -50
q-5 -7 -15 -7h-28q-8 0 -3 6l55 75q5 7 15 7h29q8 0 15 -7z" />
    <glyph glyph-name="udieresis" unicode="&#xfc;" horiz-adv-x="435" 
d="M356 0h-30q-12 0 -12 12v41q-80 -60 -145 -60q-43 0 -72.5 32t-29.5 82v431q0 12 11 12h31q11 0 11 -12v-431q0 -29 18 -46t43 -17q51 0 133 66v428q0 12 12 12h30q12 0 12 -12v-526q0 -12 -12 -12zM134 619v22q0 18 18 18h22q8 0 13 -5.5t5 -12.5v-22q0 -18 -18 -18h-22
q-18 0 -18 18zM245 619v22q0 18 18 18h22q18 0 18 -18v-22q0 -18 -18 -18h-22q-18 0 -18 18z" />
    <glyph glyph-name="yacute" unicode="&#xfd;" horiz-adv-x="347" 
d="M113 -139l35 140l-135 538q-4 11 9 11h32q12 0 15 -12l101 -414q3 -16 3 -35h2q0 24 3 35l101 414q2 12 14 12h32q13 0 9 -11l-169 -678q-2 -11 -14 -11h-29q-11 0 -9 11zM145 601l43 73q5 8 14 8h47q10 0 3 -7l-64 -75q-7 -7 -16 -7h-23q-9 0 -4 8z" />
    <glyph glyph-name="thorn" unicode="&#xfe;" horiz-adv-x="422" 
d="M120 444v-338q86 -62 131 -62q26 0 43.5 16.5t17.5 46.5v336q0 30 -17.5 46.5t-43.5 16.5q-45 0 -131 -62zM109 -150h-31q-11 0 -11 12v826q0 12 11 12h31q11 0 11 -12v-188q84 57 143 57q44 0 73.5 -32t29.5 -82v-336q0 -50 -29.5 -82t-73.5 -32q-59 0 -143 57v-188
q0 -12 -11 -12z" />
    <glyph glyph-name="ydieresis" unicode="&#xff;" horiz-adv-x="347" 
d="M113 -139l35 140l-135 538q-4 11 9 11h32q12 0 15 -12l101 -414q3 -16 3 -35h2q0 24 3 35l101 414q2 12 14 12h32q13 0 9 -11l-169 -678q-2 -11 -14 -11h-29q-11 0 -9 11zM201 619v22q0 18 18 18h22q18 0 18 -18v-22q0 -18 -18 -18h-22q-18 0 -18 18zM90 619v22
q0 18 18 18h22q17 0 17 -18v-22q0 -18 -17 -18h-22q-18 0 -18 18z" />
    <glyph glyph-name="Amacron" unicode="&#x100;" horiz-adv-x="412" 
d="M118 193h177l-85 368q-3 15 -3 33h-2q0 -23 -2 -33zM308 137h-203l-29 -126q-2 -11 -14 -11h-34q-13 0 -9 11l161 678q4 11 14 11h24q12 0 14 -11l162 -678q2 -11 -9 -11h-34q-11 0 -15 11zM125 770v21q0 10 10 10h142q9 0 9 -10v-21q0 -9 -9 -9h-142q-10 0 -10 9z" />
    <glyph glyph-name="amacron" unicode="&#x101;" horiz-adv-x="409" 
d="M289 102v158q-81 18 -117 18q-30 0 -48.5 -18t-18.5 -48v-109q0 -27 17.5 -43t42.5 -16q46 0 124 58zM289 12v34q-78 -53 -135 -53q-44 0 -73.5 31t-29.5 80v107q0 52 31.5 83.5t82.5 31.5q38 0 124 -16v126q0 30 -16 48t-46 18h-55q-30 0 -46 -18t-16 -48v-25
q0 -12 -12 -12h-30q-12 0 -12 12v29q0 52 31 83t83 31h59q51 0 82.5 -31t31.5 -83v-428q0 -12 -12 -12h-30q-12 0 -12 12zM124 620v21q0 10 10 10h142q9 0 9 -10v-21q0 -9 -9 -9h-142q-10 0 -10 9z" />
    <glyph glyph-name="Abreve" unicode="&#x102;" horiz-adv-x="412" 
d="M118 193h177l-85 368q-3 15 -3 33h-2q0 -23 -2 -33zM308 137h-203l-29 -126q-2 -11 -14 -11h-34q-13 0 -9 11l161 678q4 11 14 11h24q12 0 14 -11l162 -678q2 -11 -9 -11h-34q-11 0 -15 11zM289 815v-8q-1 -29 -19 -46.5t-47 -17.5h-31q-28 0 -46 17.5t-19 46.5l-1 8
q0 9 10 9h18q10 0 11 -9l1 -13q2 -22 23 -22h37q10 0 16.5 6t6.5 16l2 13q0 9 10 9h19q9 0 9 -9z" />
    <glyph glyph-name="abreve" unicode="&#x103;" horiz-adv-x="409" 
d="M289 102v158q-81 18 -117 18q-30 0 -48.5 -18t-18.5 -48v-109q0 -27 17.5 -43t42.5 -16q46 0 124 58zM289 12v34q-78 -53 -135 -53q-44 0 -73.5 31t-29.5 80v107q0 52 31.5 83.5t82.5 31.5q38 0 124 -16v126q0 30 -16 48t-46 18h-55q-30 0 -46 -18t-16 -48v-25
q0 -12 -12 -12h-30q-12 0 -12 12v29q0 52 31 83t83 31h59q51 0 82.5 -31t31.5 -83v-428q0 -12 -12 -12h-30q-12 0 -12 12zM288 665v-8q-1 -29 -19 -46.5t-47 -17.5h-31q-28 0 -46 17.5t-19 46.5l-1 8q0 9 10 9h18q9 0 11 -9l1 -13q2 -22 23 -22h37q21 0 23 22l2 13q0 9 10 9
h19q9 0 9 -9z" />
    <glyph glyph-name="Aogonek" unicode="&#x104;" horiz-adv-x="412" 
d="M118 193h177l-85 368q-3 15 -3 33h-2q0 -23 -2 -33zM315 -86q0 47 32 86q-9 2 -10 9l-29 128h-203l-29 -126q-2 -11 -14 -11h-34q-13 0 -9 11l161 678q4 11 14 11h24q12 0 14 -11l162 -680q2 -9 -7 -9h-5q-29 -41 -32 -74q-2 -17 13 -17h43q9 0 9 -10v-14q0 -10 -9 -10
h-52q-17 0 -28 11t-11 28z" />
    <glyph glyph-name="aogonek" unicode="&#x105;" horiz-adv-x="409" 
d="M289 102v158q-81 18 -117 18q-30 0 -48.5 -18t-18.5 -48v-109q0 -27 17.5 -43t42.5 -16q46 0 124 58zM334 0h-1q-29 -41 -32 -74q-2 -17 13 -17h43q9 0 9 -10v-14q0 -10 -9 -10h-52q-18 0 -28.5 11t-10.5 29q0 47 31 85q-8 0 -8 9v37q-78 -53 -135 -53q-44 0 -73.5 31
t-29.5 80v107q0 52 31.5 83.5t82.5 31.5q38 0 124 -16v126q0 30 -16 48t-46 18h-55q-30 0 -46 -18t-16 -48v-25q0 -12 -12 -12h-30q-12 0 -12 12v29q0 52 31 83t83 31h59q51 0 82.5 -31t31.5 -83v-431q0 -9 -9 -9z" />
    <glyph glyph-name="Cacute" unicode="&#x106;" horiz-adv-x="424" 
d="M331 198h33q11 0 11 -12v-70q0 -54 -33 -87t-87 -33h-73q-54 0 -87 33t-33 87v468q0 54 33 87t87 33h73q54 0 87 -33t33 -87v-70q0 -12 -11 -12h-33q-12 0 -12 12v72q0 28 -17 45t-45 17h-77q-28 0 -45 -17t-17 -45v-472q0 -28 17 -45t45 -17h77q28 0 45 17t17 45v72
q0 12 12 12zM190 751l44 73q3 8 13 8h47q10 0 3 -7l-64 -75q-5 -7 -16 -7h-22q-8 0 -5 8z" />
    <glyph glyph-name="cacute" unicode="&#x107;" horiz-adv-x="384" 
d="M170 48h60q26 0 42.5 16.5t16.5 42.5v44q0 12 12 12h30q12 0 12 -12v-41q0 -51 -31 -82.5t-82 -31.5h-60q-51 0 -82 31.5t-31 82.5v330q0 52 31 83t82 31h60q51 0 82 -31t31 -83v-41q0 -11 -12 -11h-30q-12 0 -12 11v44q0 27 -16.5 43t-42.5 16h-60q-27 0 -43.5 -16
t-16.5 -43v-336q0 -26 16.5 -42.5t43.5 -16.5zM172 601l43 73q5 8 14 8h47q10 0 3 -7l-64 -75q-7 -7 -16 -7h-22q-10 0 -5 8z" />
    <glyph glyph-name="Ccircumflex" unicode="&#x108;" horiz-adv-x="424" 
d="M331 198h33q11 0 11 -12v-70q0 -54 -33 -87t-87 -33h-73q-54 0 -87 33t-33 87v468q0 54 33 87t87 33h73q54 0 87 -33t33 -87v-70q0 -12 -11 -12h-33q-12 0 -12 12v72q0 28 -17 45t-45 17h-77q-28 0 -45 -17t-17 -45v-472q0 -28 17 -45t45 -17h77q28 0 45 17t17 45v72
q0 12 12 12zM248 827l55 -75q5 -6 -3 -6h-30q-9 0 -14 7l-37 50l-38 -50q-7 -7 -16 -7h-27q-8 0 -4 6l55 75q7 7 15 7h29q10 0 15 -7z" />
    <glyph glyph-name="ccircumflex" unicode="&#x109;" horiz-adv-x="384" 
d="M170 48h60q26 0 42.5 16.5t16.5 42.5v44q0 12 12 12h30q12 0 12 -12v-41q0 -51 -31 -82.5t-82 -31.5h-60q-51 0 -82 31.5t-31 82.5v330q0 52 31 83t82 31h60q51 0 82 -31t31 -83v-41q0 -11 -12 -11h-30q-12 0 -12 11v44q0 27 -16.5 43t-42.5 16h-60q-27 0 -43.5 -16
t-16.5 -43v-336q0 -26 16.5 -42.5t43.5 -16.5zM230 677l55 -75q5 -6 -4 -6h-29q-8 0 -15 7l-37 50l-38 -50q-5 -7 -15 -7h-28q-7 0 -3 6l55 75q5 7 15 7h29q8 0 15 -7z" />
    <glyph glyph-name="Cdotaccent" unicode="&#x10a;" horiz-adv-x="424" 
d="M331 198h33q11 0 11 -12v-70q0 -54 -33 -87t-87 -33h-73q-54 0 -87 33t-33 87v468q0 54 33 87t87 33h73q54 0 87 -33t33 -87v-70q0 -12 -11 -12h-33q-12 0 -12 12v72q0 28 -17 45t-45 17h-77q-28 0 -45 -17t-17 -45v-472q0 -28 17 -45t45 -17h77q28 0 45 17t17 45v72
q0 12 12 12zM186 769v26q0 18 18 18h29q17 0 17 -18v-26q0 -18 -17 -18h-29q-18 0 -18 18z" />
    <glyph glyph-name="cdotaccent" unicode="&#x10b;" horiz-adv-x="384" 
d="M170 48h60q26 0 42.5 16.5t16.5 42.5v44q0 12 12 12h30q12 0 12 -12v-41q0 -51 -31 -82.5t-82 -31.5h-60q-51 0 -82 31.5t-31 82.5v330q0 52 31 83t82 31h60q51 0 82 -31t31 -83v-41q0 -11 -12 -11h-30q-12 0 -12 11v44q0 27 -16.5 43t-42.5 16h-60q-27 0 -43.5 -16
t-16.5 -43v-336q0 -26 16.5 -42.5t43.5 -16.5zM168 619v26q0 18 18 18h28q18 0 18 -18v-26q0 -18 -18 -18h-28q-18 0 -18 18z" />
    <glyph glyph-name="Ccaron" unicode="&#x10c;" horiz-adv-x="424" 
d="M331 198h33q11 0 11 -12v-70q0 -54 -33 -87t-87 -33h-73q-54 0 -87 33t-33 87v468q0 54 33 87t87 33h73q54 0 87 -33t33 -87v-70q0 -12 -11 -12h-33q-12 0 -12 12v72q0 28 -17 45t-45 17h-77q-28 0 -45 -17t-17 -45v-472q0 -28 17 -45t45 -17h77q28 0 45 17t17 45v72
q0 12 12 12zM303 827l-55 -74q-5 -7 -15 -7h-29q-8 0 -15 7l-55 74q-4 7 4 7h27q9 0 16 -7l38 -50l37 49q5 8 14 8h30q7 0 3 -7z" />
    <glyph glyph-name="ccaron" unicode="&#x10d;" horiz-adv-x="384" 
d="M170 48h60q26 0 42.5 16.5t16.5 42.5v44q0 12 12 12h30q12 0 12 -12v-41q0 -51 -31 -82.5t-82 -31.5h-60q-51 0 -82 31.5t-31 82.5v330q0 52 31 83t82 31h60q51 0 82 -31t31 -83v-41q0 -11 -12 -11h-30q-12 0 -12 11v44q0 27 -16.5 43t-42.5 16h-60q-27 0 -43.5 -16
t-16.5 -43v-336q0 -26 16.5 -42.5t43.5 -16.5zM285 677l-55 -74q-7 -7 -15 -7h-29q-10 0 -15 7l-55 74q-4 7 3 7h28q10 0 15 -7l38 -50l37 49q6 8 15 8h29q8 0 4 -7z" />
    <glyph glyph-name="Dcaron" unicode="&#x10e;" horiz-adv-x="447" 
d="M268 644h-140v-588h140q28 0 45 17t17 45v464q0 28 -17 45t-45 17zM72 12v676q0 12 11 12h183q54 0 87 -33t33 -87v-460q0 -54 -33 -87t-87 -33h-183q-11 0 -11 12zM170 827l38 -50l37 49q5 8 15 8h29q8 0 4 -7l-55 -74q-7 -7 -16 -7h-28q-9 0 -16 7l-55 74q-4 7 4 7h28
q8 0 15 -7z" />
    <glyph glyph-name="dcaron" unicode="&#x10f;" horiz-adv-x="454" 
d="M302 106v338q-86 62 -131 62q-25 0 -43 -17t-18 -46v-336q0 -29 18 -46t43 -17q45 0 131 62zM314 700h30q12 0 12 -12v-676q0 -12 -12 -12h-30q-12 0 -12 12v38q-84 -57 -143 -57q-43 0 -72.5 32t-29.5 82v336q0 50 29.5 82t72.5 32q59 0 143 -57v188q0 12 12 12z
M399 596l13 91q3 13 15 13h28q13 0 11 -13l-27 -91q-4 -11 -15 -11h-16q-11 0 -9 11z" />
    <glyph glyph-name="Dcroat" unicode="&#x110;" horiz-adv-x="447" 
d="M223 338h-95v-282h140q28 0 45 17t17 45v464q0 28 -17 45t-45 17h-140v-259h95q11 0 11 -12v-24q0 -11 -11 -11zM16 349v24q0 12 12 12h44v303q0 12 11 12h183q54 0 87 -33t33 -87v-460q0 -54 -33 -87t-87 -33h-183q-11 0 -11 12v326h-44q-12 0 -12 11z" />
    <glyph glyph-name="dcroat" unicode="&#x111;" horiz-adv-x="422" 
d="M302 106v338q-86 62 -131 62q-25 0 -43 -17t-18 -46v-336q0 -29 18 -46t43 -17q45 0 131 62zM186 608v23q0 10 9 10h107v47q0 12 12 12h30q12 0 12 -12v-47h51q10 0 10 -10v-23q0 -9 -10 -9h-51v-587q0 -12 -12 -12h-30q-12 0 -12 12v38q-84 -57 -143 -57q-43 0 -72.5 32
t-29.5 82v336q0 50 29.5 82t72.5 32q59 0 143 -57v99h-107q-9 0 -9 9z" />
    <glyph glyph-name="Emacron" unicode="&#x112;" horiz-adv-x="373" 
d="M328 644h-200v-292h158q11 0 11 -11v-33q0 -12 -11 -12h-158v-240h200q12 0 12 -12v-32q0 -12 -12 -12h-245q-11 0 -11 12v676q0 12 11 12h245q12 0 12 -12v-32q0 -12 -12 -12zM125 770v21q0 10 9 10h142q10 0 10 -10v-21q0 -9 -10 -9h-142q-9 0 -9 9z" />
    <glyph glyph-name="emacron" unicode="&#x113;" horiz-adv-x="396" 
d="M232 502h-62q-27 0 -43.5 -16t-16.5 -42v-144h182v144q0 26 -16.5 42t-43.5 16zM334 248h-224v-140q0 -27 16.5 -43.5t43.5 -16.5h62q27 0 43.5 16.5t16.5 42.5v35q0 12 11 12h31q11 0 11 -12v-32q0 -51 -31 -82.5t-82 -31.5h-62q-51 0 -82 31.5t-31 82.5v330q0 52 31 83
t82 31h62q51 0 82 -31t31 -81v-182q0 -12 -11 -12zM120 620v21q0 10 10 10h142q9 0 9 -10v-21q0 -9 -9 -9h-142q-10 0 -10 9z" />
    <glyph glyph-name="Ebreve" unicode="&#x114;" horiz-adv-x="373" 
d="M328 644h-200v-292h158q11 0 11 -11v-33q0 -12 -11 -12h-158v-240h200q12 0 12 -12v-32q0 -12 -12 -12h-245q-11 0 -11 12v676q0 12 11 12h245q12 0 12 -12v-32q0 -12 -12 -12zM289 815l-1 -8q-1 -29 -19 -46.5t-46 -17.5h-32q-28 0 -46 17.5t-19 46.5v8q0 9 9 9h19
q10 0 10 -9l2 -13q0 -10 6.5 -16t16.5 -6h37q21 0 23 22l1 13q2 9 11 9h18q10 0 10 -9z" />
    <glyph glyph-name="ebreve" unicode="&#x115;" horiz-adv-x="396" 
d="M232 502h-62q-27 0 -43.5 -16t-16.5 -42v-144h182v144q0 26 -16.5 42t-43.5 16zM334 248h-224v-140q0 -27 16.5 -43.5t43.5 -16.5h62q27 0 43.5 16.5t16.5 42.5v35q0 12 11 12h31q11 0 11 -12v-32q0 -51 -31 -82.5t-82 -31.5h-62q-51 0 -82 31.5t-31 82.5v330q0 52 31 83
t82 31h62q51 0 82 -31t31 -81v-182q0 -12 -11 -12zM284 665v-8q-1 -29 -19 -46.5t-46 -17.5h-32q-28 0 -46 17.5t-19 46.5v8q-2 9 9 9h18q9 0 11 -9l1 -13q2 -22 24 -22h36q10 0 16.5 6t6.5 16l2 13q2 9 10 9h19q9 0 9 -9z" />
    <glyph glyph-name="Edotaccent" unicode="&#x116;" horiz-adv-x="373" 
d="M328 644h-200v-292h158q11 0 11 -11v-33q0 -12 -11 -12h-158v-240h200q12 0 12 -12v-32q0 -12 -12 -12h-245q-11 0 -11 12v676q0 12 11 12h245q12 0 12 -12v-32q0 -12 -12 -12zM173 769v26q0 18 18 18h28q18 0 18 -18v-26q0 -18 -18 -18h-28q-18 0 -18 18z" />
    <glyph glyph-name="edotaccent" unicode="&#x117;" horiz-adv-x="396" 
d="M232 502h-62q-27 0 -43.5 -16t-16.5 -42v-144h182v144q0 26 -16.5 42t-43.5 16zM334 248h-224v-140q0 -27 16.5 -43.5t43.5 -16.5h62q27 0 43.5 16.5t16.5 42.5v35q0 12 11 12h31q11 0 11 -12v-32q0 -51 -31 -82.5t-82 -31.5h-62q-51 0 -82 31.5t-31 82.5v330q0 52 31 83
t82 31h62q51 0 82 -31t31 -81v-182q0 -12 -11 -12zM169 619v26q0 18 18 18h28q18 0 18 -18v-26q0 -18 -18 -18h-28q-18 0 -18 18z" />
    <glyph glyph-name="Eogonek" unicode="&#x118;" horiz-adv-x="373" 
d="M279 0h-196q-11 0 -11 12v676q0 12 11 12h245q12 0 12 -12v-32q0 -12 -12 -12h-200v-292h158q11 0 11 -11v-33q0 -12 -11 -12h-158v-240h200q12 0 12 -12v-32q0 -12 -12 -12h-14q-28 -40 -31 -73q-2 -17 14 -17h42q9 0 9 -9v-15q0 -9 -9 -9h-52q-17 0 -28 10.5t-11 28.5
q0 44 31 84z" />
    <glyph glyph-name="eogonek" unicode="&#x119;" horiz-adv-x="396" 
d="M232 502h-62q-27 0 -43.5 -16t-16.5 -42v-144h182v144q0 26 -16.5 42t-43.5 16zM226 -4h-56q-51 0 -82 31.5t-31 82.5v330q0 52 31 83t82 31h62q51 0 82 -31t31 -81v-182q0 -12 -11 -12h-224v-140q0 -27 16.5 -43.5t43.5 -16.5h62q27 0 43.5 16.5t16.5 42.5v35
q0 12 11 12h31q11 0 11 -12v-32q0 -43 -22 -72t-60 -38q-28 -43 -30 -73q-2 -17 13 -17h43q9 0 9 -9v-15q0 -9 -9 -9h-52q-18 0 -28.5 10.5t-10.5 28.5q0 42 28 80z" />
    <glyph glyph-name="Ecaron" unicode="&#x11a;" horiz-adv-x="373" 
d="M328 644h-200v-292h158q11 0 11 -11v-33q0 -12 -11 -12h-158v-240h200q12 0 12 -12v-32q0 -12 -12 -12h-245q-11 0 -11 12v676q0 12 11 12h245q12 0 12 -12v-32q0 -12 -12 -12zM290 827l-55 -74q-5 -7 -15 -7h-29q-10 0 -15 7l-55 74q-4 7 4 7h27q10 0 15 -7l39 -50
l36 49q6 8 15 8h29q8 0 4 -7z" />
    <glyph glyph-name="ecaron" unicode="&#x11b;" horiz-adv-x="396" 
d="M232 502h-62q-27 0 -43.5 -16t-16.5 -42v-144h182v144q0 26 -16.5 42t-43.5 16zM334 248h-224v-140q0 -27 16.5 -43.5t43.5 -16.5h62q27 0 43.5 16.5t16.5 42.5v35q0 12 11 12h31q11 0 11 -12v-32q0 -51 -31 -82.5t-82 -31.5h-62q-51 0 -82 31.5t-31 82.5v330q0 52 31 83
t82 31h62q51 0 82 -31t31 -81v-182q0 -12 -11 -12zM286 677l-55 -74q-7 -7 -15 -7h-29q-10 0 -15 7l-56 74q-4 7 4 7h28q10 0 15 -7l38 -50l37 49q5 8 15 8h29q8 0 4 -7z" />
    <glyph glyph-name="Gcircumflex" unicode="&#x11c;" horiz-adv-x="435" 
d="M215 310v33q0 12 12 12h144q12 0 12 -12v-227q0 -54 -33 -87t-87 -33h-81q-54 0 -87 33t-33 87v468q0 54 33 87t87 33h81q54 0 87 -33t33 -87v-70q0 -12 -12 -12h-32q-12 0 -12 12v72q0 28 -17 45t-45 17h-85q-28 0 -45 -17t-17 -45v-472q0 -28 17 -45t45 -17h85
q28 0 45 17t17 45v185h-100q-12 0 -12 11zM252 827l55 -75q5 -6 -4 -6h-29q-8 0 -15 7l-37 50l-38 -50q-5 -7 -15 -7h-28q-7 0 -3 6l55 75q5 7 15 7h29q8 0 15 -7z" />
    <glyph glyph-name="gcircumflex" unicode="&#x11d;" horiz-adv-x="422" 
d="M302 106v338q-86 62 -131 62q-25 0 -43 -17t-18 -46v-336q0 -29 18 -46t43 -17q49 0 131 62zM302 500v38q0 12 12 12h30q12 0 12 -12l-1 -554q0 -69 -48.5 -105t-120.5 -36q-30 0 -91 14q-20 4 -20 16v28q0 9 10 9h8q49 -15 88 -15q50 0 85.5 23.5t35.5 69.5v61
q-86 -56 -143 -56q-43 0 -72.5 32t-29.5 82v336q0 50 29.5 82t72.5 32q59 0 143 -57zM243 677l56 -75q5 -6 -4 -6h-29q-10 0 -15 7l-37 50l-38 -50q-7 -7 -15 -7h-28q-9 0 -4 6l55 75q7 7 16 7h28q10 0 15 -7z" />
    <glyph glyph-name="Gbreve" unicode="&#x11e;" horiz-adv-x="435" 
d="M215 310v33q0 12 12 12h144q12 0 12 -12v-227q0 -54 -33 -87t-87 -33h-81q-54 0 -87 33t-33 87v468q0 54 33 87t87 33h81q54 0 87 -33t33 -87v-70q0 -12 -12 -12h-32q-12 0 -12 12v72q0 28 -17 45t-45 17h-85q-28 0 -45 -17t-17 -45v-472q0 -28 17 -45t45 -17h85
q28 0 45 17t17 45v185h-100q-12 0 -12 11zM305 815v-8q-1 -29 -19 -46.5t-46 -17.5h-32q-28 0 -46 17.5t-19 46.5v8q0 9 9 9h18q10 0 11 -9l1 -13q2 -22 24 -22h36q22 0 24 22l1 13q1 9 11 9h18q9 0 9 -9z" />
    <glyph glyph-name="gbreve" unicode="&#x11f;" horiz-adv-x="422" 
d="M302 106v338q-86 62 -131 62q-25 0 -43 -17t-18 -46v-336q0 -29 18 -46t43 -17q49 0 131 62zM302 500v38q0 12 12 12h30q12 0 12 -12l-1 -554q0 -69 -48.5 -105t-120.5 -36q-30 0 -91 14q-20 4 -20 16v28q0 9 10 9h8q49 -15 88 -15q50 0 85.5 23.5t35.5 69.5v61
q-86 -56 -143 -56q-43 0 -72.5 32t-29.5 82v336q0 50 29.5 82t72.5 32q59 0 143 -57zM297 665v-8q-1 -29 -19 -46.5t-46 -17.5h-32q-28 0 -46 17.5t-19 46.5l-1 8q0 9 10 9h18q10 0 11 -9l1 -13q2 -22 23 -22h37q10 0 16.5 6t6.5 16l2 13q0 9 10 9h19q9 0 9 -9z" />
    <glyph glyph-name="Gdotaccent" unicode="&#x120;" horiz-adv-x="435" 
d="M215 310v33q0 12 12 12h144q12 0 12 -12v-227q0 -54 -33 -87t-87 -33h-81q-54 0 -87 33t-33 87v468q0 54 33 87t87 33h81q54 0 87 -33t33 -87v-70q0 -12 -12 -12h-32q-12 0 -12 12v72q0 28 -17 45t-45 17h-85q-28 0 -45 -17t-17 -45v-472q0 -28 17 -45t45 -17h85
q28 0 45 17t17 45v185h-100q-12 0 -12 11zM190 769v26q0 18 18 18h28q18 0 18 -18v-26q0 -18 -18 -18h-28q-18 0 -18 18z" />
    <glyph glyph-name="gdotaccent" unicode="&#x121;" horiz-adv-x="422" 
d="M302 106v338q-86 62 -131 62q-25 0 -43 -17t-18 -46v-336q0 -29 18 -46t43 -17q49 0 131 62zM302 500v38q0 12 12 12h30q12 0 12 -12l-1 -554q0 -69 -48.5 -105t-120.5 -36q-30 0 -91 14q-20 4 -20 16v28q0 9 10 9h8q49 -15 88 -15q50 0 85.5 23.5t35.5 69.5v61
q-86 -56 -143 -56q-43 0 -72.5 32t-29.5 82v336q0 50 29.5 82t72.5 32q59 0 143 -57zM182 619v26q0 18 17 18h29q18 0 18 -18v-26q0 -18 -18 -18h-29q-17 0 -17 18z" />
    <glyph glyph-name="Gcommaaccent" unicode="&#x122;" horiz-adv-x="435" 
d="M215 310v33q0 12 12 12h144q12 0 12 -12v-227q0 -54 -33 -87t-87 -33h-81q-54 0 -87 33t-33 87v468q0 54 33 87t87 33h81q54 0 87 -33t33 -87v-70q0 -12 -12 -12h-32q-12 0 -12 12v72q0 28 -17 45t-45 17h-85q-28 0 -45 -17t-17 -45v-472q0 -28 17 -45t45 -17h85
q28 0 45 17t17 45v185h-100q-12 0 -12 11zM189 -135l12 81q2 13 15 13h24q13 0 10 -12l-25 -83q-3 -10 -14 -10h-12q-12 0 -10 11z" />
    <glyph glyph-name="gcommaaccent" unicode="&#x123;" horiz-adv-x="422" 
d="M302 106v338q-86 62 -131 62q-25 0 -43 -17t-18 -46v-336q0 -29 18 -46t43 -17q49 0 131 62zM302 500v38q0 12 12 12h30q12 0 12 -12l-1 -554q0 -69 -48.5 -105t-120.5 -36q-30 0 -91 14q-20 4 -20 16v28q0 9 10 9h8q49 -15 88 -15q50 0 85.5 23.5t35.5 69.5v61
q-86 -56 -143 -56q-43 0 -72.5 32t-29.5 82v336q0 50 29.5 82t72.5 32q59 0 143 -57zM252 690l-12 -81q-2 -13 -15 -13h-23q-13 0 -10 12l24 82q3 11 14 11h13q11 0 9 -11z" />
    <glyph glyph-name="Hcircumflex" unicode="&#x124;" horiz-adv-x="457" 
d="M72 12v676q0 12 11 12h33q12 0 12 -12v-336h202v336q0 12 12 12h32q12 0 12 -12v-676q0 -12 -12 -12h-32q-12 0 -12 12v284h-202v-284q0 -12 -12 -12h-33q-11 0 -11 12zM258 827l56 -75q5 -6 -4 -6h-29q-10 0 -15 7l-37 50l-38 -50q-7 -7 -15 -7h-28q-8 0 -4 6l55 75
q7 7 16 7h28q10 0 15 -7z" />
    <glyph glyph-name="hcircumflex" unicode="&#x125;" horiz-adv-x="433" 
d="M78 700h31q11 0 11 -12v-188q84 57 144 57q43 0 72.5 -32t29.5 -82v-431q0 -12 -11 -12h-31q-11 0 -11 12v431q0 29 -18 46t-43 17q-46 0 -132 -62v-430q0 -14 -11 -14h-31q-11 0 -11 14v674q0 12 11 12zM124 827l55 -75q5 -6 -4 -6h-29q-8 0 -15 7l-37 50l-38 -50
q-5 -7 -15 -7h-28q-7 0 -3 6l55 75q5 7 15 7h29q8 0 15 -7z" />
    <glyph glyph-name="Hbar" unicode="&#x126;" horiz-adv-x="457" 
d="M330 538h-202v-186h202v186zM16 550v24q0 12 12 12h44v102q0 12 11 12h33q12 0 12 -12v-102h202v102q0 12 12 12h32q12 0 12 -12v-102h44q11 0 11 -12v-24q0 -12 -11 -12h-44v-526q0 -12 -12 -12h-32q-12 0 -12 12v284h-202v-284q0 -12 -12 -12h-33q-11 0 -11 12v526h-44
q-12 0 -12 12z" />
    <glyph glyph-name="hbar" unicode="&#x127;" horiz-adv-x="433" 
d="M6 608v23q0 10 9 10h52v47q0 12 11 12h31q11 0 11 -12v-47h107q10 0 10 -10v-23q0 -10 -10 -10h-107v-98q84 57 144 57q43 0 72.5 -32t29.5 -82v-431q0 -12 -11 -12h-31q-11 0 -11 12v431q0 29 -18 46t-43 17q-46 0 -132 -62v-430q0 -14 -11 -14h-31q-11 0 -11 14v584
h-52q-9 0 -9 10z" />
    <glyph glyph-name="Itilde" unicode="&#x128;" horiz-adv-x="284" 
d="M33 12v30q0 12 12 12h69v592h-69q-12 0 -12 12v30q0 12 12 12h194q12 0 12 -12v-30q0 -12 -12 -12h-69v-592h69q12 0 12 -12v-30q0 -12 -12 -12h-194q-12 0 -12 12zM59 761v24q0 13 19 22.5t33 9.5q11 0 22 -6l24 -13q7 -3 14 -3q12 0 40 18l4 2q4 0 4 -6v-24
q0 -13 -18 -22t-33 -9q-12 0 -23 6l-24 13q-7 3 -14 3q-10 0 -40 -19q-2 -2 -5 -2t-3 6z" />
    <glyph glyph-name="itilde" unicode="&#x129;" horiz-adv-x="186" 
d="M67 12v526q0 12 11 12h31q11 0 11 -12v-526q0 -12 -11 -12h-31q-11 0 -11 12zM11 611v24q0 13 18.5 22.5t33.5 9.5q11 0 22 -6l24 -13q7 -3 14 -3q12 0 40 18l4 2q4 0 4 -6v-24q0 -13 -18.5 -22t-33.5 -9q-11 0 -23 6l-23 13q-7 3 -14 3t-13 -2.5t-16.5 -9.5t-11.5 -7
q-1 -2 -4 -2t-3 6z" />
    <glyph glyph-name="Imacron" unicode="&#x12a;" horiz-adv-x="284" 
d="M170 646v-592h69q12 0 12 -12v-30q0 -12 -12 -12h-194q-12 0 -12 12v30q0 12 12 12h69v592h-69q-12 0 -12 12v30q0 12 12 12h194q12 0 12 -12v-30q0 -12 -12 -12h-69zM212 761h-141q-10 0 -10 9v21q0 10 10 10h141q10 0 10 -10v-21q0 -9 -10 -9z" />
    <glyph glyph-name="imacron" unicode="&#x12b;" horiz-adv-x="186" 
d="M67 12v526q0 12 11 12h31q11 0 11 -12v-526q0 -12 -11 -12h-31q-11 0 -11 12zM13 620v21q0 10 9 10h142q10 0 10 -10v-21q0 -9 -10 -9h-142q-9 0 -9 9z" />
    <glyph glyph-name="Ibreve" unicode="&#x12c;" horiz-adv-x="284" 
d="M33 12v30q0 12 12 12h69v592h-69q-12 0 -12 12v30q0 12 12 12h194q12 0 12 -12v-30q0 -12 -12 -12h-69v-592h69q12 0 12 -12v-30q0 -12 -12 -12h-194q-12 0 -12 12zM225 815v-8q-1 -28 -19 -46t-47 -18h-31q-29 0 -47 18t-19 46v8q0 9 9 9h19q10 0 11 -9l1 -13
q2 -22 23 -22h37q21 0 23 22l1 13q2 9 11 9h19q9 0 9 -9z" />
    <glyph glyph-name="ibreve" unicode="&#x12d;" horiz-adv-x="186" 
d="M67 12v526q0 12 11 12h31q11 0 11 -12v-526q0 -12 -11 -12h-31q-11 0 -11 12zM177 665l-1 -8q-1 -29 -19 -46.5t-46 -17.5h-31q-29 0 -47 17.5t-19 46.5v8q0 9 9 9h19q10 0 10 -9l2 -13q0 -10 6.5 -16t16.5 -6h37q21 0 23 22l1 13q2 9 11 9h18q10 0 10 -9z" />
    <glyph glyph-name="Iogonek" unicode="&#x12e;" horiz-adv-x="284" 
d="M129 0h-84q-12 0 -12 12v30q0 12 12 12h69v592h-69q-12 0 -12 12v30q0 12 12 12h194q12 0 12 -12v-30q0 -12 -12 -12h-69v-592h69q12 0 12 -12v-30q0 -12 -12 -12h-75q-28 -42 -31 -74q-2 -17 13 -17h42q10 0 10 -10v-14q0 -10 -10 -10h-51q-18 0 -29 11t-11 29
q0 46 32 85z" />
    <glyph glyph-name="iogonek" unicode="&#x12f;" horiz-adv-x="187" 
d="M46 -85q0 46 32 85h-2q-9 0 -9 9v529q0 12 12 12h30q12 0 12 -12v-529q0 -7 -8 -9q-27 -39 -32 -74q-2 -17 14 -17h42q9 0 9 -10v-14q0 -10 -9 -10h-52q-18 0 -28.5 11t-10.5 29zM59 656v30q0 18 18 18h33q18 0 18 -18v-30q0 -18 -18 -18h-33q-18 0 -18 18z" />
    <glyph glyph-name="Idotaccent" unicode="&#x130;" horiz-adv-x="284" 
d="M239 646h-69v-592h69q12 0 12 -12v-30q0 -12 -12 -12h-194q-12 0 -12 12v30q0 12 12 12h69v592h-69q-12 0 -12 12v30q0 12 12 12h194q12 0 12 -12v-30q0 -12 -12 -12zM174 795v-26q0 -18 -18 -18h-29q-18 0 -18 18v26q0 18 18 18h29q18 0 18 -18z" />
    <glyph glyph-name="dotlessi" unicode="&#x131;" horiz-adv-x="186" 
d="M67 12v526q0 12 11 12h31q11 0 11 -12v-526q0 -12 -11 -12h-31q-11 0 -11 12z" />
    <glyph glyph-name="IJ" unicode="&#x132;" horiz-adv-x="673" 
d="M33 12v30q0 12 12 12h69v592h-69q-12 0 -12 12v30q0 12 12 12h194q12 0 12 -12v-30q0 -12 -12 -12h-69v-592h69q12 0 12 -12v-30q0 -12 -12 -12h-194q-12 0 -12 12zM486 -4h-62q-54 0 -87 33t-33 87v44q0 12 12 12h32q12 0 12 -12v-46q0 -28 17 -45t45 -17h66q28 0 45 17
t17 45v532h-95q-11 0 -11 12v30q0 12 11 12h139q12 0 12 -12v-572q0 -54 -33 -87t-87 -33z" />
    <glyph glyph-name="ij" unicode="&#x133;" horiz-adv-x="396" 
d="M67 12v526q0 12 12 12h30q12 0 12 -12v-526q0 -12 -12 -12h-30q-12 0 -12 12zM59 656v30q0 18 18 18h33q18 0 18 -18v-30q0 -18 -18 -18h-33q-18 0 -18 18zM185 -99h27q27 0 43.5 16.5t16.5 43.5v577q0 12 12 12h30q12 0 12 -12v-575q0 -51 -31.5 -82t-82.5 -31h-27
q-12 0 -12 12v28q0 11 12 11zM264 656v30q0 18 18 18h33q18 0 18 -18v-30q0 -18 -18 -18h-33q-18 0 -18 18z" />
    <glyph glyph-name="Jcircumflex" unicode="&#x134;" horiz-adv-x="387" 
d="M202 -4h-61q-54 0 -87 33t-33 87v44q0 12 11 12h33q12 0 12 -12v-46q0 -28 17 -45t45 -17h66q28 0 45 17t17 45v532h-100q-11 0 -11 12v30q0 12 11 12h144q12 0 12 -12v-572q0 -54 -33.5 -87t-87.5 -33zM279 827l55 -74q3 -7 -4 -7h-29q-10 0 -15 7l-37 50l-38 -50
q-7 -7 -15 -7h-28q-8 0 -4 7l55 74q7 7 16 7h28q9 0 16 -7z" />
    <glyph glyph-name="jcircumflex" unicode="&#x135;" horiz-adv-x="209" 
d="M-2 -99h27q27 0 43.5 16.5t16.5 43.5v577q0 12 12 12h30q12 0 12 -12v-575q0 -51 -31 -82t-83 -31h-27q-12 0 -12 12v28q0 11 12 11zM141 677l55 -75q4 -6 -3 -6h-29q-10 0 -15 7l-37 50l-38 -50q-7 -7 -15 -7h-28q-9 0 -4 6l55 75q7 7 15 7h29q10 0 15 -7z" />
    <glyph glyph-name="Kcommaaccent" unicode="&#x136;" horiz-adv-x="404" 
d="M72 12v676q0 12 11 12h33q12 0 12 -12v-676q0 -12 -12 -12h-33q-11 0 -11 12zM326 700h39q11 0 6 -11l-166 -329l182 -349q5 -11 -6 -11h-40q-11 0 -17 11l-181 349l166 329q5 11 17 11zM171 -135l12 81q3 13 16 13h23q13 0 10 -12l-24 -83q-3 -10 -15 -10h-12
q-12 0 -10 11z" />
    <glyph glyph-name="kcommaaccent" unicode="&#x137;" horiz-adv-x="363" 
d="M67 12v676q0 12 11 12h31q11 0 11 -12v-676q0 -12 -11 -12h-31q-11 0 -11 12zM339 540l-150 -260l160 -270q5 -10 -6 -10h-34q-12 0 -17 10l-161 270l150 260q5 10 17 10h34q12 0 7 -10zM160 -135l12 81q2 13 15 13h24q14 0 9 -12l-24 -83q-3 -10 -14 -10h-13
q-11 0 -9 11z" />
    <glyph glyph-name="Lacute" unicode="&#x139;" horiz-adv-x="347" 
d="M83 700h33q12 0 12 -12v-632h193q11 0 11 -11v-33q0 -12 -11 -12h-238q-11 0 -11 12v676q0 12 11 12zM81 751l43 73q5 8 13 8h48q10 0 3 -7l-64 -75q-7 -7 -16 -7h-23q-9 0 -4 8z" />
    <glyph glyph-name="lacute" unicode="&#x13a;" horiz-adv-x="187" 
d="M67 12v676q0 12 11 12h31q11 0 11 -12v-676q0 -12 -11 -12h-31q-11 0 -11 12zM65 751l44 73q3 8 13 8h47q10 0 3 -7l-64 -75q-5 -7 -16 -7h-22q-8 0 -5 8z" />
    <glyph glyph-name="Lcommaaccent" unicode="&#x13b;" horiz-adv-x="347" 
d="M128 688v-632h193q11 0 11 -11v-33q0 -12 -11 -12h-238q-11 0 -11 12v676q0 12 11 12h33q12 0 12 -12zM165 -146h-12q-12 0 -10 11l12 81q2 13 15 13h24q13 0 10 -12l-25 -83q-2 -10 -14 -10z" />
    <glyph glyph-name="lcommaaccent" unicode="&#x13c;" horiz-adv-x="187" 
d="M67 12v676q0 12 11 12h31q11 0 11 -12v-676q0 -12 -11 -12h-31q-11 0 -11 12zM60 -135l12 81q2 13 15 13h23q13 0 11 -12l-25 -82q-3 -11 -14 -11h-13q-11 0 -9 11z" />
    <glyph glyph-name="Lcaron" unicode="&#x13d;" horiz-adv-x="347" 
d="M128 688v-632h193q11 0 11 -11v-33q0 -12 -11 -12h-238q-11 0 -11 12v676q0 12 11 12h33q12 0 12 -12zM256 585h-16q-12 0 -10 11l14 91q2 13 15 13h28q13 0 10 -13l-27 -91q-4 -11 -14 -11z" />
    <glyph glyph-name="lcaron" unicode="&#x13e;" horiz-adv-x="219" 
d="M67 12v676q0 12 11 12h31q11 0 11 -12v-676q0 -12 -11 -12h-31q-11 0 -11 12zM177 687l-13 -91q-2 -11 9 -11h16q11 0 15 11l26 91q3 13 -10 13h-28q-13 0 -15 -13z" />
    <glyph glyph-name="Ldot" unicode="&#x13f;" horiz-adv-x="347" 
d="M128 688v-632h193q11 0 11 -11v-33q0 -12 -11 -12h-238q-11 0 -11 12v676q0 12 11 12h33q12 0 12 -12zM293 312h-39q-18 0 -18 18v40q0 18 18 18h39q18 0 18 -18v-40q0 -18 -18 -18z" />
    <glyph glyph-name="ldot" unicode="&#x140;" horiz-adv-x="325" 
d="M67 12v676q0 12 11 12h31q11 0 11 -12v-676q0 -12 -11 -12h-31q-11 0 -11 12zM219 330v40q0 18 18 18h38q18 0 18 -18v-40q0 -18 -18 -18h-38q-18 0 -18 18z" />
    <glyph glyph-name="Lslash" unicode="&#x141;" horiz-adv-x="354" 
d="M16 242l-11 20q-6 9 4 16l70 41v369q0 12 11 12h33q12 0 12 -12v-337l87 52q2 1 7 1q6 0 9 -6l12 -20q7 -10 -4 -16l-111 -65v-241h193q11 0 11 -11v-33q0 -12 -11 -12h-238q-11 0 -11 12v252l-46 -27q-3 -1 -7 -1q-6 0 -10 6z" />
    <glyph glyph-name="lslash" unicode="&#x142;" horiz-adv-x="211" 
d="M14 243l-12 20q-5 9 5 16l70 42v367q0 12 12 12h30q12 0 12 -12v-335l50 30q2 2 7 2q6 0 10 -6l11 -20q6 -9 -4 -16l-74 -44v-287q0 -12 -12 -12h-30q-12 0 -12 12v255l-47 -28q-2 -2 -6 -2q-7 0 -10 6z" />
    <glyph glyph-name="Nacute" unicode="&#x143;" horiz-adv-x="466" 
d="M128 527v-515q0 -12 -12 -12h-33q-11 0 -11 12v676q0 12 11 12h24q11 0 16 -11l209 -519q4 -10 9 -31h2q-4 20 -4 32v517q0 12 11 12h33q12 0 12 -12v-676q0 -12 -12 -12h-24q-11 0 -16 11l-209 517q-4 10 -9 31h-2q5 -25 5 -32zM205 751l44 73q3 8 13 8h47q10 0 3 -7
l-64 -75q-7 -7 -16 -7h-22q-8 0 -5 8z" />
    <glyph glyph-name="nacute" unicode="&#x144;" horiz-adv-x="433" 
d="M78 550h31q11 0 11 -12v-38q84 57 144 57q43 0 72.5 -32t29.5 -82v-431q0 -12 -11 -12h-31q-11 0 -11 12v431q0 29 -18 46t-43 17q-46 0 -132 -62v-432q0 -12 -11 -12h-31q-11 0 -11 12v526q0 12 11 12zM190 601l43 73q5 8 14 8h47q10 0 3 -7l-64 -75q-7 -7 -16 -7h-22
q-10 0 -5 8z" />
    <glyph glyph-name="Ncommaaccent" unicode="&#x145;" horiz-adv-x="466" 
d="M128 527v-515q0 -12 -12 -12h-33q-11 0 -11 12v676q0 12 11 12h24q11 0 16 -11l209 -519q4 -10 9 -31h2q-4 20 -4 32v517q0 12 11 12h33q12 0 12 -12v-676q0 -12 -12 -12h-24q-11 0 -16 11l-209 517q-4 10 -9 31h-2q5 -25 5 -32zM203 -135l12 81q2 13 15 13h23
q13 0 10 -12l-24 -83q-3 -10 -14 -10h-13q-11 0 -9 11z" />
    <glyph glyph-name="ncommaaccent" unicode="&#x146;" horiz-adv-x="433" 
d="M78 550h31q11 0 11 -12v-38q84 57 144 57q43 0 72.5 -32t29.5 -82v-431q0 -12 -11 -12h-31q-11 0 -11 12v431q0 29 -18 46t-43 17q-46 0 -132 -62v-432q0 -12 -11 -12h-31q-11 0 -11 12v526q0 12 11 12zM186 -135l12 81q2 13 16 13h23q13 0 10 -12l-24 -83
q-3 -10 -15 -10h-12q-12 0 -10 11z" />
    <glyph glyph-name="Ncaron" unicode="&#x147;" horiz-adv-x="466" 
d="M128 527v-515q0 -12 -12 -12h-33q-11 0 -11 12v676q0 12 11 12h24q11 0 16 -11l209 -519q4 -10 9 -31h2q-4 20 -4 32v517q0 12 11 12h33q12 0 12 -12v-676q0 -12 -12 -12h-24q-11 0 -16 11l-209 517q-4 10 -9 31h-2q5 -25 5 -32zM318 827l-55 -74q-5 -7 -15 -7h-29
q-10 0 -15 7l-55 74q-4 7 4 7h27q10 0 15 -7l39 -50l37 49q5 8 14 8h29q8 0 4 -7z" />
    <glyph glyph-name="ncaron" unicode="&#x148;" horiz-adv-x="433" 
d="M78 550h31q11 0 11 -12v-38q84 57 144 57q43 0 72.5 -32t29.5 -82v-431q0 -12 -11 -12h-31q-11 0 -11 12v431q0 29 -18 46t-43 17q-46 0 -132 -62v-432q0 -12 -11 -12h-31q-11 0 -11 12v526q0 12 11 12zM303 677l-55 -74q-7 -7 -15 -7h-29q-10 0 -15 7l-55 74q-4 7 3 7
h28q10 0 15 -7l38 -50l37 49q6 8 15 8h29q8 0 4 -7z" />
    <glyph glyph-name="Eng" unicode="&#x14a;" horiz-adv-x="466" 
d="M274 -150h-63q-12 0 -12 12v32q0 12 12 12h66q28 0 45 17t17 45v55l-205 505q-4 10 -9 31h-2q5 -25 5 -32v-515q0 -12 -12 -12h-33q-11 0 -11 12v676q0 12 11 12h24q11 0 16 -11l209 -519q4 -10 9 -31h2q-4 20 -4 32v517q0 12 11 12h33q12 0 12 -12v-718q0 -54 -33 -87
t-88 -33z" />
    <glyph glyph-name="eng" unicode="&#x14b;" horiz-adv-x="422" 
d="M78 550h31q11 0 11 -12v-38q84 57 144 57q43 0 72.5 -32t29.5 -82v-480q0 -51 -31 -82t-82 -31h-27q-12 0 -12 12v28q0 11 12 11h27q27 0 43.5 16.5t16.5 43.5v482q0 29 -18 46t-43 17q-46 0 -132 -62v-432q0 -12 -11 -12h-31q-11 0 -11 12v526q0 12 11 12z" />
    <glyph glyph-name="Omacron" unicode="&#x14c;" horiz-adv-x="452" 
d="M118 586v-472q0 -28 17 -45t45 -17h92q28 0 45 17t17 45v472q0 28 -17 45t-45 17h-92q-28 0 -45 -17t-17 -45zM62 116v468q0 54 33 87t87 33h88q54 0 87 -33t33 -87v-468q0 -54 -33 -87t-87 -33h-88q-54 0 -87 33t-33 87zM145 770v21q0 10 10 10h142q9 0 9 -10v-21
q0 -9 -9 -9h-142q-10 0 -10 9z" />
    <glyph glyph-name="omacron" unicode="&#x14d;" horiz-adv-x="412" 
d="M110 443v-336q0 -26 16.5 -42.5t43.5 -16.5h72q27 0 43.5 16.5t16.5 42.5v336q0 27 -16.5 43t-43.5 16h-72q-27 0 -43.5 -16t-16.5 -43zM57 110v330q0 52 31 83t82 31h72q51 0 82 -31t31 -83v-330q0 -51 -31 -82.5t-82 -31.5h-72q-51 0 -82 31.5t-31 82.5zM125 620v21
q0 10 10 10h142q9 0 9 -10v-21q0 -9 -9 -9h-142q-10 0 -10 9z" />
    <glyph glyph-name="Obreve" unicode="&#x14e;" horiz-adv-x="452" 
d="M118 586v-472q0 -28 17 -45t45 -17h92q28 0 45 17t17 45v472q0 28 -17 45t-45 17h-92q-28 0 -45 -17t-17 -45zM62 116v468q0 54 33 87t87 33h88q54 0 87 -33t33 -87v-468q0 -54 -33 -87t-87 -33h-88q-54 0 -87 33t-33 87zM309 815v-8q-1 -29 -19 -46.5t-46 -17.5h-32
q-28 0 -46 17.5t-19 46.5v8q-1 9 9 9h18q10 0 11 -9l1 -13q2 -22 24 -22h36q10 0 16.5 6t6.5 16l2 13q1 9 10 9h19q9 0 9 -9z" />
    <glyph glyph-name="obreve" unicode="&#x14f;" horiz-adv-x="412" 
d="M110 443v-336q0 -26 16.5 -42.5t43.5 -16.5h72q27 0 43.5 16.5t16.5 42.5v336q0 27 -16.5 43t-43.5 16h-72q-27 0 -43.5 -16t-16.5 -43zM57 110v330q0 52 31 83t82 31h72q51 0 82 -31t31 -83v-330q0 -51 -31 -82.5t-82 -31.5h-72q-51 0 -82 31.5t-31 82.5zM289 665v-8
q-1 -29 -19 -46.5t-46 -17.5h-32q-28 0 -46 17.5t-19 46.5v8q-1 9 9 9h18q10 0 11 -9l1 -13q2 -22 24 -22h36q10 0 16.5 6t6.5 16l2 13q1 9 10 9h19q9 0 9 -9z" />
    <glyph glyph-name="Ohungarumlaut" unicode="&#x150;" horiz-adv-x="452" 
d="M118 586v-472q0 -28 17 -45t45 -17h92q28 0 45 17t17 45v472q0 28 -17 45t-45 17h-92q-28 0 -45 -17t-17 -45zM62 116v468q0 54 33 87t87 33h88q54 0 87 -33t33 -87v-468q0 -54 -33 -87t-87 -33h-88q-54 0 -87 33t-33 87zM257 751l45 73q5 8 13 8h41q10 0 3 -7l-60 -74
q-6 -8 -16 -8h-22q-9 0 -4 8zM158 751l44 73q5 8 13 8h41q10 0 3 -7l-58 -74q-5 -8 -15 -8h-23q-8 0 -5 8z" />
    <glyph glyph-name="ohungarumlaut" unicode="&#x151;" horiz-adv-x="412" 
d="M110 443v-336q0 -26 16.5 -42.5t43.5 -16.5h72q27 0 43.5 16.5t16.5 42.5v336q0 27 -16.5 43t-43.5 16h-72q-27 0 -43.5 -16t-16.5 -43zM57 110v330q0 52 31 83t82 31h72q51 0 82 -31t31 -83v-330q0 -51 -31 -82.5t-82 -31.5h-72q-51 0 -82 31.5t-31 82.5zM237 601l45 73
q5 8 13 8h41q10 0 3 -7l-60 -74q-6 -8 -16 -8h-22q-9 0 -4 8zM138 601l44 73q5 8 13 8h41q10 0 3 -7l-58 -74q-5 -8 -15 -8h-23q-8 0 -5 8z" />
    <glyph glyph-name="OE" unicode="&#x152;" horiz-adv-x="636" 
d="M118 586v-472q0 -28 17 -45t45 -17h92q28 0 45 17t17 45v472q0 28 -17 45t-45 17h-92q-28 0 -45 -17t-17 -45zM346 700h245q11 0 11 -12v-32q0 -12 -11 -12h-201v-292h158q12 0 12 -11v-33q0 -12 -12 -12h-158v-240h201q11 0 11 -12v-32q0 -12 -11 -12h-245q-12 0 -12 12
q-29 -16 -64 -16h-88q-54 0 -87 33t-33 87v468q0 54 33 87t87 33h88q35 0 64 -16q0 12 12 12z" />
    <glyph glyph-name="oe" unicode="&#x153;" horiz-adv-x="641" 
d="M302 107v336q0 27 -16.5 43t-43.5 16h-72q-27 0 -43.5 -16t-16.5 -43v-336q0 -26 16.5 -42.5t43.5 -16.5h72q27 0 43.5 16.5t16.5 42.5zM477 502h-62q-27 0 -43.5 -16t-16.5 -42v-144h182v144q0 26 -16.5 42t-43.5 16zM579 248h-224v-140q0 -27 16.5 -43.5t43.5 -16.5h62
q27 0 43.5 16.5t16.5 42.5v35q0 12 11 12h31q11 0 11 -12v-32q0 -51 -31 -82.5t-82 -31.5h-62q-56 0 -87 36q-31 -36 -86 -36h-72q-51 0 -82 31.5t-31 82.5v330q0 52 31 83t82 31h72q55 0 86 -36q31 36 87 36h62q51 0 82 -31t31 -81v-182q0 -12 -11 -12z" />
    <glyph glyph-name="Racute" unicode="&#x154;" horiz-adv-x="422" 
d="M246 644h-118v-298h118q28 0 45 17t17 45v174q0 28 -17 45t-45 17zM322 11l-82 279h-112v-278q0 -12 -12 -12h-33q-11 0 -11 12v676q0 12 11 12h161q54 0 87 -33t33 -87v-169q0 -84 -69 -111l85 -289q4 -11 -8 -11h-35q-11 0 -15 11zM165 751l44 73q3 8 13 8h47
q10 0 3 -7l-64 -75q-5 -7 -16 -7h-22q-8 0 -5 8z" />
    <glyph glyph-name="racute" unicode="&#x155;" horiz-adv-x="273" 
d="M78 550h31q11 0 11 -12v-37q71 52 125 55q12 2 12 -10v-36q1 -5 -2.5 -7t-11.5 -2q-48 0 -123 -62v-427q0 -12 -11 -12h-31q-11 0 -11 12v526q0 12 11 12zM128 601l43 73q5 8 14 8h47q10 0 3 -7l-64 -75q-7 -7 -16 -7h-23q-9 0 -4 8z" />
    <glyph glyph-name="Rcommaaccent" unicode="&#x156;" horiz-adv-x="422" 
d="M246 644h-118v-298h118q28 0 45 17t17 45v174q0 28 -17 45t-45 17zM322 11l-82 279h-112v-278q0 -12 -12 -12h-33q-11 0 -11 12v676q0 12 11 12h161q54 0 87 -33t33 -87v-169q0 -84 -69 -111l85 -289q4 -11 -8 -11h-35q-11 0 -15 11zM180 -135l12 81q3 13 16 13h23
q13 0 10 -12l-24 -83q-3 -10 -15 -10h-12q-12 0 -10 11z" />
    <glyph glyph-name="rcommaaccent" unicode="&#x157;" horiz-adv-x="273" 
d="M78 550h31q11 0 11 -12v-37q71 52 125 55q12 2 12 -10v-36q1 -5 -2.5 -7t-11.5 -2q-48 0 -123 -62v-427q0 -12 -11 -12h-31q-11 0 -11 12v526q0 12 11 12zM56 -135l12 81q2 13 15 13h24q13 0 10 -12l-25 -82q-2 -11 -14 -11h-13q-11 0 -9 11z" />
    <glyph glyph-name="Rcaron" unicode="&#x158;" horiz-adv-x="422" 
d="M246 644h-118v-298h118q28 0 45 17t17 45v174q0 28 -17 45t-45 17zM322 11l-82 279h-112v-278q0 -12 -12 -12h-33q-11 0 -11 12v676q0 12 11 12h161q54 0 87 -33t33 -87v-169q0 -84 -69 -111l85 -289q4 -11 -8 -11h-35q-11 0 -15 11zM278 827l-55 -74q-5 -7 -15 -7h-29
q-8 0 -15 7l-55 74q-4 7 4 7h27q9 0 16 -7l38 -50l37 49q5 8 14 8h30q7 0 3 -7z" />
    <glyph glyph-name="rcaron" unicode="&#x159;" horiz-adv-x="273" 
d="M78 550h31q11 0 11 -12v-37q71 52 125 55q12 2 12 -10v-36q1 -5 -2.5 -7t-11.5 -2q-48 0 -123 -62v-427q0 -12 -11 -12h-31q-11 0 -11 12v526q0 12 11 12zM241 677l-55 -74q-7 -7 -16 -7h-28q-10 0 -15 7l-56 74q-4 7 4 7h28q10 0 15 -7l38 -50l37 49q5 8 15 8h29
q8 0 4 -7z" />
    <glyph glyph-name="Sacute" unicode="&#x15a;" horiz-adv-x="393" 
d="M47 513v71q0 54 33 87t87 33h61q54 0 87.5 -33t33.5 -87v-70q0 -12 -12 -12h-33q-11 0 -11 12v72q0 28 -17 45t-45 17h-66q-28 0 -45 -17t-17 -45v-73q0 -34 25 -56l180 -162q44 -39 44 -97v-82q0 -54 -33 -87t-87 -33h-72q-54 0 -87 33t-33 87v70q0 12 11 12h33
q12 0 12 -12v-72q0 -28 17 -45t45 -17h76q28 0 45 17t17 45v83q0 34 -25 57l-181 161q-43 40 -43 98zM168 751l43 73q5 8 14 8h47q10 0 3 -7l-64 -75q-7 -7 -16 -7h-23q-9 0 -4 8z" />
    <glyph glyph-name="sacute" unicode="&#x15b;" horiz-adv-x="375" 
d="M332 154v-44q0 -51 -31 -82.5t-82 -31.5h-62q-51 0 -82.5 31.5t-31.5 82.5v41q0 12 12 12h30q12 0 12 -12v-37q0 -30 16 -48t46 -18h57q30 0 46 18t16 48v42q0 36 -31 56l-144 96q-25 17 -40 44.5t-15 57.5v30q0 51 31 82.5t83 31.5h52q51 0 82 -31t31 -83v-41
q0 -11 -12 -11h-30q-12 0 -12 11v37q0 30 -16 48t-46 18h-47q-30 0 -46 -18t-16 -48v-28q0 -36 31 -56l144 -97q25 -16 40 -44t15 -57zM160 601l43 73q5 8 13 8h48q10 0 3 -7l-64 -75q-7 -7 -16 -7h-23q-9 0 -4 8z" />
    <glyph glyph-name="Scircumflex" unicode="&#x15c;" horiz-adv-x="393" 
d="M47 513v71q0 54 33 87t87 33h61q54 0 87.5 -33t33.5 -87v-70q0 -12 -12 -12h-33q-11 0 -11 12v72q0 28 -17 45t-45 17h-66q-28 0 -45 -17t-17 -45v-73q0 -34 25 -56l180 -162q44 -39 44 -97v-82q0 -54 -33 -87t-87 -33h-72q-54 0 -87 33t-33 87v70q0 12 11 12h33
q12 0 12 -12v-72q0 -28 17 -45t45 -17h76q28 0 45 17t17 45v83q0 34 -25 57l-181 161q-43 40 -43 98zM226 827l55 -75q5 -6 -4 -6h-29q-10 0 -15 7l-37 50l-38 -50q-5 -7 -15 -7h-28q-9 0 -3 6l55 75q5 7 15 7h29q8 0 15 -7z" />
    <glyph glyph-name="scircumflex" unicode="&#x15d;" horiz-adv-x="375" 
d="M332 154v-44q0 -51 -31 -82.5t-82 -31.5h-62q-51 0 -82.5 31.5t-31.5 82.5v41q0 12 12 12h30q12 0 12 -12v-37q0 -30 16 -48t46 -18h57q30 0 46 18t16 48v42q0 36 -31 56l-144 96q-25 17 -40 44.5t-15 57.5v30q0 51 31 82.5t83 31.5h52q51 0 82 -31t31 -83v-41
q0 -11 -12 -11h-30q-12 0 -12 11v37q0 30 -16 48t-46 18h-47q-30 0 -46 -18t-16 -48v-28q0 -36 31 -56l144 -97q25 -16 40 -44t15 -57zM217 677l56 -75q5 -6 -4 -6h-29q-10 0 -15 7l-37 50l-38 -50q-7 -7 -15 -7h-28q-8 0 -4 6l55 75q7 7 16 7h28q10 0 15 -7z" />
    <glyph glyph-name="Scedilla" unicode="&#x15e;" horiz-adv-x="393" 
d="M255 -77v-19q0 -19 -11.5 -30.5t-30.5 -11.5h-55q-10 0 -10 10v12q0 9 10 9h48q15 0 15 15v10q0 15 -15 15h-26q-7 0 -11.5 4.5t-2.5 11.5l8 47h-14q-54 0 -87 33t-33 87v70q0 12 11 12h33q12 0 12 -12v-72q0 -28 17 -45t45 -17h76q28 0 45 17t17 45v83q0 34 -25 57
l-181 161q-43 40 -43 98v71q0 54 33 87t87 33h61q54 0 87.5 -33t33.5 -87v-70q0 -12 -12 -12h-33q-11 0 -11 12v72q0 28 -17 45t-45 17h-66q-28 0 -45 -17t-17 -45v-73q0 -34 25 -56l180 -162q44 -39 44 -97v-82q0 -54 -33 -87t-87 -33h-21l-6 -31h8q19 0 30.5 -11.5
t11.5 -30.5z" />
    <glyph glyph-name="scedilla" unicode="&#x15f;" horiz-adv-x="375" 
d="M244 -77v-19q0 -19 -11.5 -30.5t-30.5 -11.5h-56q-9 0 -9 10v12q0 9 9 9h49q15 0 15 15v10q0 15 -15 15h-27q-17 0 -13 16l8 47h-6q-51 0 -82.5 31.5t-31.5 82.5v41q0 12 12 12h30q12 0 12 -12v-37q0 -30 16 -48t46 -18h57q30 0 46 18t16 48v42q0 36 -31 56l-144 96
q-25 17 -40 44.5t-15 57.5v30q0 51 31 82.5t83 31.5h52q51 0 82 -31t31 -83v-41q0 -11 -12 -11h-30q-12 0 -12 11v37q0 30 -16 48t-46 18h-47q-30 0 -46 -18t-16 -48v-28q0 -36 31 -56l144 -97q25 -16 40 -44t15 -57v-44q0 -51 -31 -82.5t-82 -31.5h-20l-6 -31h9
q19 0 30.5 -11.5t11.5 -30.5z" />
    <glyph glyph-name="Scaron" unicode="&#x160;" horiz-adv-x="393" 
d="M47 513v71q0 54 33 87t87 33h61q54 0 87.5 -33t33.5 -87v-70q0 -12 -12 -12h-33q-11 0 -11 12v72q0 28 -17 45t-45 17h-66q-28 0 -45 -17t-17 -45v-73q0 -34 25 -56l180 -162q44 -39 44 -97v-82q0 -54 -33 -87t-87 -33h-72q-54 0 -87 33t-33 87v70q0 12 11 12h33
q12 0 12 -12v-72q0 -28 17 -45t45 -17h76q28 0 45 17t17 45v83q0 34 -25 57l-181 161q-43 40 -43 98zM281 827l-55 -74q-7 -7 -15 -7h-29q-10 0 -15 7l-55 74q-6 7 3 7h28q10 0 15 -7l38 -50l37 49q5 8 15 8h29q8 0 4 -7z" />
    <glyph glyph-name="scaron" unicode="&#x161;" horiz-adv-x="375" 
d="M332 154v-44q0 -51 -31 -82.5t-82 -31.5h-62q-51 0 -82.5 31.5t-31.5 82.5v41q0 12 12 12h30q12 0 12 -12v-37q0 -30 16 -48t46 -18h57q30 0 46 18t16 48v42q0 36 -31 56l-144 96q-25 17 -40 44.5t-15 57.5v30q0 51 31 82.5t83 31.5h52q51 0 82 -31t31 -83v-41
q0 -11 -12 -11h-30q-12 0 -12 11v37q0 30 -16 48t-46 18h-47q-30 0 -46 -18t-16 -48v-28q0 -36 31 -56l144 -97q25 -16 40 -44t15 -57zM273 677l-56 -74q-5 -7 -15 -7h-28q-9 0 -16 7l-55 74q-4 7 4 7h28q8 0 15 -7l38 -50l37 49q5 8 15 8h29q8 0 4 -7z" />
    <glyph glyph-name="Tcommaaccent" unicode="&#x162;" horiz-adv-x="369" 
d="M359 688v-32q0 -12 -12 -12h-134v-632q0 -12 -12 -12h-33q-11 0 -11 12v632h-135q-12 0 -12 12v32q0 12 12 12h325q12 0 12 -12zM175 -41h23q13 0 10 -12l-24 -82q-3 -11 -15 -11h-12q-12 0 -10 11l12 81q2 13 16 13z" />
    <glyph glyph-name="tcommaaccent" unicode="&#x163;" horiz-adv-x="269" 
d="M16 510v28q0 12 11 12h64v88q0 12 12 12h30q12 0 12 -12v-88h87q11 0 11 -12v-28q0 -11 -11 -11h-87v-392q0 -26 16.5 -42.5t43.5 -16.5h27q11 0 11 -12v-28q0 -12 -11 -12h-27q-52 0 -83 31.5t-31 82.5v389h-64q-11 0 -11 11zM132 -135l12 81q2 13 15 13h24q13 0 10 -12
l-25 -83q-3 -10 -14 -10h-12q-12 0 -10 11z" />
    <glyph glyph-name="Tcaron" unicode="&#x164;" horiz-adv-x="369" 
d="M213 644v-632q0 -12 -12 -12h-33q-11 0 -11 12v632h-135q-12 0 -12 12v32q0 12 12 12h325q12 0 12 -12v-32q0 -12 -12 -12h-134zM269 827l-55 -74q-5 -7 -15 -7h-29q-10 0 -15 7l-55 74q-4 7 4 7h27q10 0 15 -7l39 -50l36 49q6 8 15 8h29q8 0 4 -7z" />
    <glyph glyph-name="tcaron" unicode="&#x165;" horiz-adv-x="269" 
d="M16 510v28q0 12 11 12h64v88q0 12 12 12h30q12 0 12 -12v-88h87q11 0 11 -12v-28q0 -11 -11 -11h-87v-392q0 -26 16.5 -42.5t43.5 -16.5h27q11 0 11 -12v-28q0 -12 -11 -12h-27q-52 0 -83 31.5t-31 82.5v389h-64q-11 0 -11 11zM209 610l13 91q2 13 15 13h28q13 0 10 -13
l-26 -91q-4 -11 -15 -11h-16q-11 0 -9 11z" />
    <glyph glyph-name="Tbar" unicode="&#x166;" horiz-adv-x="369" 
d="M347 644h-134v-260h79q12 0 12 -12v-24q0 -11 -12 -11h-79v-325q0 -12 -12 -12h-33q-11 0 -11 12v325h-80q-11 0 -11 11v24q0 12 11 12h80v260h-135q-12 0 -12 12v32q0 12 12 12h325q12 0 12 -12v-32q0 -12 -12 -12z" />
    <glyph glyph-name="tbar" unicode="&#x167;" horiz-adv-x="269" 
d="M23 336v24q0 9 9 9h59v130h-64q-11 0 -11 11v28q0 12 11 12h64v88q0 12 12 12h30q12 0 12 -12v-88h87q11 0 11 -12v-28q0 -11 -11 -11h-87v-130h81q10 0 10 -9v-24q0 -9 -10 -9h-81v-220q0 -26 16.5 -42.5t43.5 -16.5h27q11 0 11 -12v-28q0 -12 -11 -12h-27
q-52 0 -83 31.5t-31 82.5v217h-59q-9 0 -9 9z" />
    <glyph glyph-name="Utilde" unicode="&#x168;" horiz-adv-x="445" 
d="M339 700h32q12 0 12 -12v-572q0 -54 -33 -87t-87 -33h-81q-54 0 -87 33t-33 87v572q0 12 11 12h33q12 0 12 -12v-574q0 -28 17 -45t45 -17h85q28 0 45 17t17 45v574q0 12 12 12zM139 761v24q0 13 19 22.5t33 9.5q13 0 23 -6l24 -13q8 -3 14 -3q9 0 40 18q2 2 4 2
q4 0 4 -6v-24q0 -13 -18.5 -22t-33.5 -9q-11 0 -23 6l-24 13q-6 3 -13 3q-11 0 -41 -19q-1 -2 -4 -2q-4 0 -4 6z" />
    <glyph glyph-name="utilde" unicode="&#x169;" horiz-adv-x="435" 
d="M356 0h-30q-12 0 -12 12v41q-80 -60 -145 -60q-43 0 -72.5 32t-29.5 82v431q0 12 11 12h31q11 0 11 -12v-431q0 -29 18 -46t43 -17q51 0 133 66v428q0 12 12 12h30q12 0 12 -12v-526q0 -12 -12 -12zM134 611v24q0 13 19 22.5t33 9.5q12 0 23 -6l24 -13q8 -3 14 -3
q9 0 40 18q2 2 4 2q4 0 4 -6v-24q0 -13 -18.5 -22t-33.5 -9q-11 0 -23 6l-24 13q-6 3 -13 3q-11 0 -41 -19q-1 -2 -4 -2q-4 0 -4 6z" />
    <glyph glyph-name="Umacron" unicode="&#x16a;" horiz-adv-x="445" 
d="M339 700h32q12 0 12 -12v-572q0 -54 -33 -87t-87 -33h-81q-54 0 -87 33t-33 87v572q0 12 11 12h33q12 0 12 -12v-574q0 -28 17 -45t45 -17h85q28 0 45 17t17 45v574q0 12 12 12zM142 770v21q0 10 9 10h142q9 0 9 -10v-21q0 -9 -9 -9h-142q-9 0 -9 9z" />
    <glyph glyph-name="umacron" unicode="&#x16b;" horiz-adv-x="435" 
d="M356 0h-30q-12 0 -12 12v41q-80 -60 -145 -60q-43 0 -72.5 32t-29.5 82v431q0 12 11 12h31q11 0 11 -12v-431q0 -29 18 -46t43 -17q51 0 133 66v428q0 12 12 12h30q12 0 12 -12v-526q0 -12 -12 -12zM137 620v21q0 10 9 10h142q9 0 9 -10v-21q0 -9 -9 -9h-142q-9 0 -9 9z
" />
    <glyph glyph-name="Ubreve" unicode="&#x16c;" horiz-adv-x="445" 
d="M339 700h32q12 0 12 -12v-572q0 -54 -33 -87t-87 -33h-81q-54 0 -87 33t-33 87v572q0 12 11 12h33q12 0 12 -12v-574q0 -28 17 -45t45 -17h85q28 0 45 17t17 45v574q0 12 12 12zM305 815v-8q-1 -29 -19 -46.5t-46 -17.5h-32q-28 0 -46 17.5t-19 46.5v8q0 9 9 9h18
q10 0 11 -9l1 -13q2 -22 24 -22h36q22 0 24 22l1 13q1 9 11 9h18q9 0 9 -9z" />
    <glyph glyph-name="ubreve" unicode="&#x16d;" horiz-adv-x="435" 
d="M356 0h-30q-12 0 -12 12v41q-80 -60 -145 -60q-43 0 -72.5 32t-29.5 82v431q0 12 11 12h31q11 0 11 -12v-431q0 -29 18 -46t43 -17q51 0 133 66v428q0 12 12 12h30q12 0 12 -12v-526q0 -12 -12 -12zM300 665v-8q-1 -29 -19 -46.5t-46 -17.5h-32q-28 0 -46 17.5t-19 46.5
v8q0 9 9 9h18q9 0 11 -9l1 -13q2 -22 24 -22h36q22 0 24 22l1 13q2 9 11 9h18q9 0 9 -9z" />
    <glyph glyph-name="Uring" unicode="&#x16e;" horiz-adv-x="445" 
d="M339 700h32q12 0 12 -12v-572q0 -54 -33 -87t-87 -33h-81q-54 0 -87 33t-33 87v572q0 12 11 12h33q12 0 12 -12v-574q0 -28 17 -45t45 -17h85q28 0 45 17t17 45v574q0 12 12 12zM159 802q0 26 18.5 44.5t44.5 18.5t45 -18.5t19 -44.5t-19 -45t-45 -19t-44.5 19t-18.5 45z
M190 802q0 -13 9.5 -22.5t22.5 -9.5q14 0 23 9t9 23q0 13 -9.5 22.5t-22.5 9.5t-22.5 -9.5t-9.5 -22.5z" />
    <glyph glyph-name="uring" unicode="&#x16f;" horiz-adv-x="435" 
d="M185 652q0 -13 9.5 -22.5t22.5 -9.5t22.5 9t9.5 23q0 13 -9.5 22.5t-22.5 9.5t-22.5 -9.5t-9.5 -22.5zM356 0h-30q-12 0 -12 12v41q-80 -60 -145 -60q-43 0 -72.5 32t-29.5 82v431q0 12 11 12h31q11 0 11 -12v-431q0 -29 18 -46t43 -17q51 0 133 66v428q0 12 12 12h30
q12 0 12 -12v-526q0 -12 -12 -12zM154 652q0 26 18.5 44.5t44.5 18.5t45 -18.5t19 -44.5t-19 -45t-45 -19t-44.5 19t-18.5 45z" />
    <glyph glyph-name="Uhungarumlaut" unicode="&#x170;" horiz-adv-x="445" 
d="M339 700h32q12 0 12 -12v-572q0 -54 -33 -87t-87 -33h-81q-54 0 -87 33t-33 87v572q0 12 11 12h33q12 0 12 -12v-574q0 -28 17 -45t45 -17h85q28 0 45 17t17 45v574q0 12 12 12zM253 751l45 73q5 8 13 8h41q10 0 3 -7l-60 -74q-5 -8 -15 -8h-23q-9 0 -4 8zM155 751l43 73
q5 8 13 8h41q10 0 3 -7l-58 -74q-5 -8 -15 -8h-23q-9 0 -4 8z" />
    <glyph glyph-name="uhungarumlaut" unicode="&#x171;" horiz-adv-x="435" 
d="M356 0h-30q-12 0 -12 12v41q-80 -60 -145 -60q-43 0 -72.5 32t-29.5 82v431q0 12 11 12h31q11 0 11 -12v-431q0 -29 18 -46t43 -17q51 0 133 66v428q0 12 12 12h30q12 0 12 -12v-526q0 -12 -12 -12zM150 601l43 73q5 8 13 8h41q10 0 3 -7l-58 -74q-5 -8 -15 -8h-23
q-9 0 -4 8zM248 601l45 73q5 8 13 8h41q10 0 3 -7l-60 -74q-5 -8 -15 -8h-23q-9 0 -4 8z" />
    <glyph glyph-name="Uogonek" unicode="&#x172;" horiz-adv-x="445" 
d="M295 0q-25 -37 -29 -71q-2 -17 13 -17h43q9 0 9 -9v-15q0 -9 -9 -9h-52q-17 0 -28 10.5t-11 28.5q0 40 26 78h-75q-54 0 -87 33t-33 87v572q0 12 11 12h33q12 0 12 -12v-574q0 -28 17 -45t45 -17h85q28 0 45 17t17 45v574q0 12 12 12h32q12 0 12 -12v-572
q0 -45 -23.5 -76t-64.5 -40z" />
    <glyph glyph-name="uogonek" unicode="&#x173;" horiz-adv-x="435" 
d="M324 0h-1q-9 0 -9 9v44q-80 -60 -145 -60q-43 0 -72.5 32t-29.5 82v431q0 12 11 12h31q11 0 11 -12v-431q0 -29 18 -46t43 -17q51 0 133 66v428q0 12 12 12h30q12 0 12 -12v-529q0 -9 -9 -9q-29 -43 -32 -74q-2 -17 14 -17h42q10 0 10 -10v-14q0 -10 -10 -10h-52
q-17 0 -27.5 11t-10.5 29q0 47 31 85z" />
    <glyph glyph-name="Wcircumflex" unicode="&#x174;" horiz-adv-x="586" 
d="M321 688l87 -535q1 -10 1 -33h2q0 13 2 33l98 535q2 12 14 12h33q12 0 10 -12l-131 -676q-2 -12 -14 -12h-24q-12 0 -14 12l-89 524q-2 10 -2 33h-2q0 -23 -2 -33l-89 -524q-2 -12 -14 -12h-24q-12 0 -14 12l-131 676q-2 12 10 12h33q12 0 14 -12l97 -535q2 -10 2 -33h2
q0 23 2 33l88 535q2 12 13 12h28q11 0 14 -12zM323 827l55 -75q4 -6 -4 -6h-29q-8 0 -15 7l-37 50l-38 -50q-5 -7 -15 -7h-28q-8 0 -3 6l55 75q5 7 15 7h29q10 0 15 -7z" />
    <glyph glyph-name="wcircumflex" unicode="&#x175;" horiz-adv-x="532" 
d="M262 417l-80 -405q-2 -12 -14 -12h-29q-12 0 -15 12l-111 527q-2 11 9 11h32q12 0 14 -12l82 -421q3 -15 3 -35h2q0 25 2 35l81 421q2 12 14 12h28q11 0 13 -12l82 -421q2 -10 2 -35h2q0 20 3 35l81 421q3 12 15 12h31q12 0 10 -12l-112 -526q-2 -12 -14 -12h-29
q-12 0 -14 12l-81 405q-2 10 -2 35h-2q0 -20 -3 -35zM296 677l55 -75q5 -6 -4 -6h-29q-10 0 -15 7l-37 50l-38 -50q-7 -7 -15 -7h-28q-9 0 -4 6l55 75q7 7 16 7h28q9 0 16 -7z" />
    <glyph glyph-name="Ycircumflex" unicode="&#x176;" horiz-adv-x="391" 
d="M372 689l-149 -408v-269q0 -12 -11 -12h-33q-12 0 -12 12v269l-148 408q-3 11 8 11h35q12 0 15 -11l113 -309q4 -12 4 -32h2q0 21 5 32l112 309q5 11 16 11h35q11 0 8 -11zM225 827l55 -75q4 -6 -3 -6h-30q-9 0 -14 7l-37 50l-38 -50q-7 -7 -16 -7h-27q-9 0 -4 6l55 75
q7 7 15 7h29q10 0 15 -7z" />
    <glyph glyph-name="ycircumflex" unicode="&#x177;" horiz-adv-x="347" 
d="M113 -139l35 140l-135 538q-4 11 9 11h32q12 0 15 -12l101 -414q3 -16 3 -35h2q0 24 3 35l101 414q2 12 14 12h32q13 0 9 -11l-169 -678q-2 -11 -14 -11h-29q-11 0 -9 11zM203 677l55 -75q4 -6 -4 -6h-29q-10 0 -15 7l-37 50l-38 -50q-5 -7 -15 -7h-28q-8 0 -4 6l56 75
q5 7 15 7h29q8 0 15 -7z" />
    <glyph glyph-name="Ydieresis" unicode="&#x178;" horiz-adv-x="391" 
d="M372 689l-149 -408v-269q0 -12 -11 -12h-33q-12 0 -12 12v269l-148 408q-3 11 8 11h35q12 0 15 -11l113 -309q4 -12 4 -32h2q0 21 5 32l112 309q5 11 16 11h35q11 0 8 -11zM224 769v22q0 18 18 18h21q18 0 18 -18v-22q0 -18 -18 -18h-21q-18 0 -18 18zM112 769v22
q0 18 18 18h22q18 0 18 -18v-22q0 -18 -18 -18h-22q-18 0 -18 18z" />
    <glyph glyph-name="Zacute" unicode="&#x179;" horiz-adv-x="371" 
d="M333 44v-32q0 -12 -12 -12h-273q-12 0 -12 12v32q0 11 5 23l232 577h-222q-12 0 -12 12v32q0 12 12 12h271q12 0 12 -12v-32q0 -11 -5 -23l-232 -577h224q12 0 12 -12zM157 751l44 73q3 8 13 8h47q10 0 3 -7l-64 -75q-7 -7 -16 -7h-22q-8 0 -5 8z" />
    <glyph glyph-name="zacute" unicode="&#x17a;" horiz-adv-x="343" 
d="M42 62l204 437h-195q-12 0 -12 11v28q0 12 12 12h243q12 0 12 -12v-28q0 -13 -6 -22l-203 -436h200q12 0 12 -12v-28q0 -12 -12 -12h-249q-11 0 -11 12v28q0 12 5 22zM145 601l43 73q5 8 14 8h47q10 0 3 -7l-64 -75q-7 -7 -16 -7h-23q-9 0 -4 8z" />
    <glyph glyph-name="Zdotaccent" unicode="&#x17b;" horiz-adv-x="371" 
d="M333 44v-32q0 -12 -12 -12h-273q-12 0 -12 12v32q0 11 5 23l232 577h-222q-12 0 -12 12v32q0 12 12 12h271q12 0 12 -12v-32q0 -11 -5 -23l-232 -577h224q12 0 12 -12zM153 769v26q0 18 18 18h28q18 0 18 -18v-26q0 -18 -18 -18h-28q-18 0 -18 18z" />
    <glyph glyph-name="zdotaccent" unicode="&#x17c;" horiz-adv-x="343" 
d="M42 62l204 437h-195q-12 0 -12 11v28q0 12 12 12h243q12 0 12 -12v-28q0 -13 -6 -22l-203 -436h200q12 0 12 -12v-28q0 -12 -12 -12h-249q-11 0 -11 12v28q0 12 5 22zM141 619v26q0 18 18 18h28q18 0 18 -18v-26q0 -18 -18 -18h-28q-18 0 -18 18z" />
    <glyph glyph-name="Zcaron" unicode="&#x17d;" horiz-adv-x="371" 
d="M333 44v-32q0 -12 -12 -12h-273q-12 0 -12 12v32q0 11 5 23l232 577h-222q-12 0 -12 12v32q0 12 12 12h271q12 0 12 -12v-32q0 -11 -5 -23l-232 -577h224q12 0 12 -12zM270 827l-55 -74q-5 -7 -15 -7h-29q-10 0 -15 7l-55 74q-4 7 3 7h28q10 0 15 -7l38 -50l37 49
q6 8 15 8h29q8 0 4 -7z" />
    <glyph glyph-name="zcaron" unicode="&#x17e;" horiz-adv-x="343" 
d="M42 62l204 437h-195q-12 0 -12 11v28q0 12 12 12h243q12 0 12 -12v-28q0 -13 -6 -22l-203 -436h200q12 0 12 -12v-28q0 -12 -12 -12h-249q-11 0 -11 12v28q0 12 5 22zM258 677l-55 -74q-7 -7 -16 -7h-28q-9 0 -16 7l-55 74q-4 7 4 7h28q8 0 15 -7l38 -50l37 49q5 8 15 8
h29q8 0 4 -7z" />
    <glyph glyph-name="uni018F" unicode="&#x18f;" horiz-adv-x="434" 
d="M171 52h84q28 0 45 16.5t17 44.5v196h-208v-196q0 -28 17 -44.5t45 -16.5zM65 365h252v220q0 28 -17 45.5t-45 17.5h-84q-28 0 -45 -17t-17 -45v-50q0 -12 -11 -12h-33q-12 0 -12 12v48q0 54 33 87t88 33h78q54 0 87.5 -33t33.5 -87v-468q0 -54 -33.5 -87t-87.5 -33h-78
q-55 0 -88 33t-33 86v238q0 12 12 12z" />
    <glyph glyph-name="florin" unicode="&#x192;" horiz-adv-x="262" 
d="M18 410l5 28q2 12 13 12h68l24 137q9 51 46 82t88 31h27q12 0 9 -12l-4 -28q-3 -11 -15 -11h-27q-27 0 -46 -16.5t-24 -43.5l-24 -139h82q13 0 11 -12l-5 -28q-3 -11 -14 -11h-83l-95 -537q-2 -12 -14 -12h-30q-12 0 -10 12l95 537h-68q-12 0 -9 11z" />
    <glyph glyph-name="uni01DD" unicode="&#x1dd;" horiz-adv-x="396" 
d="M165 48h61q27 0 43.5 16t16.5 42v144h-181v-144q0 -26 16.5 -42t43.5 -16zM63 302h223v140q0 27 -16.5 43.5t-43.5 16.5h-61q-27 0 -43.5 -16t-16.5 -43v-35q0 -11 -12 -11h-30q-12 0 -12 11v32q0 52 31 83t83 31h61q51 0 82.5 -31t31.5 -83v-330q0 -51 -31.5 -82.5
t-82.5 -31.5h-61q-52 0 -83 31t-31 82v181q0 12 12 12z" />
    <glyph glyph-name="Aringacute" unicode="&#x1fa;" horiz-adv-x="412" 
d="M118 193h177l-85 368q-2 10 -2 33h-3q0 -23 -2 -33zM174 754q0 -14 9 -23t23 -9q13 0 22.5 9.5t9.5 22.5t-9.5 22.5t-22.5 9.5t-22.5 -9.5t-9.5 -22.5zM262 784q7 -13 7 -30q0 -39 -37 -65l162 -678q2 -11 -9 -11h-34q-11 0 -15 11l-28 126h-203l-29 -126q-2 -11 -14 -11
h-34q-13 0 -9 11l164 684q-18 7 -29.5 23t-11.5 36q0 26 19 44.5t45 18.5q17 0 30 -7l30 51q5 8 14 8h47q10 0 3 -7z" />
    <glyph glyph-name="aringacute" unicode="&#x1fb;" horiz-adv-x="409" 
d="M289 102v158q-81 18 -117 18q-30 0 -48.5 -18t-18.5 -48v-109q0 -27 17.5 -43t42.5 -16q46 0 124 58zM173 636q0 -13 9.5 -22.5t22.5 -9.5t22.5 9.5t9.5 22.5t-9.5 22.5t-22.5 9.5t-22.5 -9t-9.5 -23zM289 12v34q-78 -53 -135 -53q-44 0 -73.5 31t-29.5 80v107
q0 52 31.5 83.5t82.5 31.5q38 0 124 -16v126q0 30 -16 48t-46 18h-55q-30 0 -46 -18t-16 -48v-25q0 -12 -12 -12h-30q-12 0 -12 12v29q0 52 31 83t83 31h59q51 0 82.5 -31t31.5 -83v-428q0 -12 -12 -12h-30q-12 0 -12 12zM227 696l34 57q5 8 14 8h47q8 0 3 -7l-64 -74
q-4 -4 -6 -5q13 -18 13 -39q0 -26 -18.5 -44.5t-44.5 -18.5t-45 18.5t-19 44.5t19 45t45 19q8 0 22 -4z" />
    <glyph glyph-name="AEacute" unicode="&#x1fc;" horiz-adv-x="610" 
d="M151 193h158v388q0 12 4 32h-2q-6 -26 -8 -31zM309 137h-180l-49 -126q-6 -11 -15 -11h-37q-5 0 -7.5 3.5t-0.5 7.5l268 678q4 11 15 11h262q12 0 12 -12v-32q0 -12 -12 -12h-200v-292h158q12 0 12 -11v-33q0 -12 -12 -12h-158v-240h200q12 0 12 -12v-32q0 -12 -12 -12
h-244q-12 0 -12 12v125zM319 751l44 73q3 8 13 8h47q10 0 3 -7l-64 -75q-7 -7 -16 -7h-22q-8 0 -5 8z" />
    <glyph glyph-name="aeacute" unicode="&#x1fd;" horiz-adv-x="629" 
d="M289 110v150q-81 18 -117 18q-30 0 -48.5 -18t-18.5 -48v-109q0 -27 17.5 -43t42.5 -16q46 0 124 58v8zM464 502h-62q-27 0 -43 -16t-16 -42v-144h181v144q0 26 -16.5 42t-43.5 16zM566 248h-223v-140q0 -27 16 -43.5t43 -16.5h62q27 0 43.5 16.5t16.5 42.5v35
q0 12 12 12h30q12 0 12 -12v-32q0 -51 -31.5 -82.5t-82.5 -31.5h-62q-72 0 -100 57q-90 -60 -147 -60q-44 0 -74 31t-30 80v107q0 52 31.5 83.5t82.5 31.5q38 0 124 -16v126q0 30 -16 48t-46 18h-55q-30 0 -46 -18t-16 -48v-25q0 -12 -12 -12h-30q-12 0 -12 12v29
q0 52 31 83t83 31h59q56 0 87 -36q31 36 86 36h62q51 0 82.5 -31t31.5 -81v-182q0 -12 -12 -12zM286 601l44 73q5 8 13 8h48q8 0 3 -7l-65 -75q-5 -7 -15 -7h-23q-8 0 -5 8z" />
    <glyph glyph-name="Oslashacute" unicode="&#x1fe;" horiz-adv-x="452" 
d="M128 76l166 569q-10 3 -22 3h-92q-28 0 -45 -17t-17 -45v-472q0 -22 10 -38zM323 624l-165 -569q9 -3 22 -3h92q28 0 45 17t17 45v472q0 22 -11 38zM96 -34l15 50q-49 32 -49 100v468q0 54 33 87t87 33h88q20 0 40 -6l13 46q1 6 11 6l16 -5q9 -2 5 -11l-14 -50
q49 -32 49 -100v-468q0 -54 -33 -87t-87 -33h-88q-20 0 -40 5l-13 -45q-2 -6 -10 -6l-17 5q-8 3 -6 11zM198 751l43 73q5 8 14 8h47q10 0 3 -7l-64 -75q-7 -7 -16 -7h-23q-9 0 -4 8z" />
    <glyph glyph-name="oslashacute" unicode="&#x1ff;" horiz-adv-x="412" 
d="M120 72l147 426q-9 4 -25 4h-72q-27 0 -43.5 -16t-16.5 -43v-336q0 -18 10 -35zM292 478l-147 -426q9 -4 25 -4h72q27 0 43.5 16.5t16.5 42.5v336q0 18 -10 35zM83 -35l18 52q-44 30 -44 93v330q0 52 31 83t82 31h72q24 0 42 -7l16 47q4 6 11 6l13 -4q7 -3 5 -11l-18 -51
q44 -31 44 -94v-330q0 -51 -31 -82.5t-82 -31.5h-72q-25 0 -42 7l-17 -47q-1 -6 -10 -6l-13 5q-9 2 -5 10zM178 601l43 73q5 8 14 8h47q10 0 3 -7l-64 -75q-7 -7 -16 -7h-23q-9 0 -4 8z" />
    <glyph glyph-name="Scommaaccent" unicode="&#x218;" horiz-adv-x="393" 
d="M47 513v71q0 54 33 87t87 33h61q54 0 87.5 -33t33.5 -87v-70q0 -12 -12 -12h-33q-11 0 -11 12v72q0 28 -17 45t-45 17h-66q-28 0 -45 -17t-17 -45v-73q0 -34 25 -56l180 -162q44 -39 44 -97v-82q0 -54 -33 -87t-87 -33h-72q-54 0 -87 33t-33 87v70q0 12 11 12h33
q12 0 12 -12v-72q0 -28 17 -45t45 -17h76q28 0 45 17t17 45v83q0 34 -25 57l-181 161q-43 40 -43 98zM168 -135l12 81q2 13 15 13h24q13 0 10 -12l-25 -82q-2 -11 -14 -11h-13q-11 0 -9 11z" />
    <glyph glyph-name="scommaaccent" unicode="&#x219;" horiz-adv-x="375" 
d="M332 154v-44q0 -51 -31 -82.5t-82 -31.5h-62q-51 0 -82.5 31.5t-31.5 82.5v41q0 12 12 12h30q12 0 12 -12v-37q0 -30 16 -48t46 -18h57q30 0 46 18t16 48v42q0 36 -31 56l-144 96q-25 17 -40 44.5t-15 57.5v30q0 51 31 82.5t83 31.5h52q51 0 82 -31t31 -83v-41
q0 -11 -12 -11h-30q-12 0 -12 11v37q0 30 -16 48t-46 18h-47q-30 0 -46 -18t-16 -48v-28q0 -36 31 -56l144 -97q25 -16 40 -44t15 -57zM159 -135l12 81q2 13 15 13h24q13 0 10 -12l-24 -82q-3 -11 -15 -11h-12q-12 0 -10 11z" />
    <glyph glyph-name="uni021A" unicode="&#x21a;" horiz-adv-x="369" 
d="M359 688v-32q0 -12 -12 -12h-134v-632q0 -12 -12 -12h-33q-11 0 -11 12v632h-135q-12 0 -12 12v32q0 12 12 12h325q12 0 12 -12zM175 -41h23q13 0 10 -12l-24 -82q-3 -11 -15 -11h-12q-12 0 -10 11l12 81q2 13 16 13z" />
    <glyph glyph-name="uni021B" unicode="&#x21b;" horiz-adv-x="269" 
d="M16 510v28q0 12 11 12h64v88q0 12 12 12h30q12 0 12 -12v-88h87q11 0 11 -12v-28q0 -11 -11 -11h-87v-392q0 -26 16.5 -42.5t43.5 -16.5h27q11 0 11 -12v-28q0 -12 -11 -12h-27q-52 0 -83 31.5t-31 82.5v389h-64q-11 0 -11 11zM132 -135l12 81q2 13 15 13h24q13 0 10 -12
l-25 -83q-3 -10 -14 -10h-12q-12 0 -10 11z" />
    <glyph glyph-name="dotlessj" unicode="&#x237;" horiz-adv-x="209" 
d="M-2 -99h27q27 0 43.5 16.5t16.5 43.5v577q0 12 12 12h30q12 0 12 -12v-575q0 -51 -31 -82t-83 -31h-27q-12 0 -12 12v28q0 11 12 11z" />
    <glyph glyph-name="uni0259" unicode="&#x259;" horiz-adv-x="396" 
d="M165 48h61q27 0 43.5 16t16.5 42v144h-181v-144q0 -26 16.5 -42t43.5 -16zM63 302h223v140q0 27 -16.5 43.5t-43.5 16.5h-61q-27 0 -43.5 -16t-16.5 -43v-35q0 -11 -12 -11h-30q-12 0 -12 11v32q0 52 31 83t83 31h61q51 0 82.5 -31t31.5 -83v-330q0 -51 -31.5 -82.5
t-82.5 -31.5h-61q-52 0 -83 31t-31 82v181q0 12 12 12z" />
    <glyph glyph-name="circumflex" unicode="&#x2c6;" horiz-adv-x="245" 
d="M152 781l55 -74q5 -7 -3 -7h-29q-10 0 -15 8l-37 49l-38 -49q-6 -8 -15 -8h-28q-9 0 -4 7l55 74q6 8 15 8h29q10 0 15 -8z" />
    <glyph glyph-name="caron" unicode="&#x2c7;" horiz-adv-x="245" 
d="M207 782l-55 -74q-5 -8 -15 -8h-29q-9 0 -15 8l-55 74q-5 7 4 7h28q9 0 15 -8l38 -49l37 49q6 8 15 8h29q8 0 3 -7z" />
    <glyph glyph-name="breve" unicode="&#x2d8;" horiz-adv-x="236" 
d="M199 769v-8q-1 -28 -18.5 -45.5t-46.5 -17.5h-32q-29 0 -46.5 17.5t-18.5 45.5v8q-2 10 9 10h18q9 0 11 -10l1 -12q2 -22 24 -22h36q10 0 16.5 6t6.5 16l2 12q0 10 10 10h19q9 0 9 -10z" />
    <glyph glyph-name="dotaccent" unicode="&#x2d9;" horiz-adv-x="137" 
d="M37 723v27q0 18 17 18h29q18 0 18 -18v-27q0 -17 -18 -17h-29q-17 0 -17 17z" />
    <glyph glyph-name="ring" unicode="&#x2da;" horiz-adv-x="218" 
d="M46 756q0 26 18.5 45t44.5 19t45 -19t19 -45t-19 -44.5t-45 -18.5t-44.5 18.5t-18.5 44.5zM77 756q0 -13 9.5 -22.5t22.5 -9.5t22.5 9.5t9.5 22.5t-9.5 22.5t-22.5 9.5t-22.5 -9.5t-9.5 -22.5z" />
    <glyph glyph-name="ogonek" unicode="&#x2db;" horiz-adv-x="189" 
d="M70 4h35q-30 -44 -33 -77q-2 -17 13 -17h42q10 0 10 -9v-15q0 -9 -10 -9h-51q-18 0 -28.5 10.5t-10.5 28.5q0 46 33 88z" />
    <glyph glyph-name="tilde" unicode="&#x2dc;" horiz-adv-x="238" 
d="M37 715v24q0 14 18.5 23.5t33.5 9.5q11 0 22 -6l24 -13q7 -4 14 -4q11 0 40 19q2 1 4 1q4 0 4 -6v-23q0 -14 -18.5 -23t-33.5 -9q-11 0 -23 6l-24 13q-5 4 -13 4q-11 0 -41 -20q-2 -2 -4 -2q-3 0 -3 6z" />
    <glyph glyph-name="hungarumlaut" unicode="&#x2dd;" horiz-adv-x="277" 
d="M136 705l45 74q6 8 14 8h40q9 0 4 -8l-61 -74q-5 -7 -15 -7h-23q-9 0 -4 7zM38 706l43 73q6 8 14 8h40q9 0 4 -8l-59 -74q-5 -7 -15 -7h-23q-9 0 -4 8z" />
    <glyph glyph-name="uni0400" unicode="&#x400;" horiz-adv-x="373" 
d="M328 644h-200v-292h158q11 0 11 -11v-33q0 -12 -11 -12h-158v-240h200q12 0 12 -12v-32q0 -12 -12 -12h-245q-11 0 -11 12v676q0 12 11 12h245q12 0 12 -12v-32q0 -12 -12 -12zM190 824l44 -73q5 -8 -5 -8h-22q-9 0 -16 7l-64 75q-7 7 3 7h47q10 0 13 -8z" />
    <glyph glyph-name="afii10023" unicode="&#x401;" horiz-adv-x="373" 
d="M328 644h-200v-292h158q11 0 11 -11v-33q0 -12 -11 -12h-158v-240h200q12 0 12 -12v-32q0 -12 -12 -12h-245q-11 0 -11 12v676q0 12 11 12h245q12 0 12 -12v-32q0 -12 -12 -12zM122 769v22q0 18 18 18h22q18 0 18 -18v-22q0 -18 -18 -18h-22q-18 0 -18 18zM234 769v22
q0 18 17 18h22q18 0 18 -18v-22q0 -18 -18 -18h-22q-17 0 -17 18z" />
    <glyph glyph-name="afii10051" unicode="&#x402;" horiz-adv-x="520" 
d="M343 -2h-33q-12 0 -12 12v32q0 12 12 12h36q28 0 45 17t17 45v171q0 28 -17 45t-45 17h-133v-337q0 -12 -12 -12h-33q-11 0 -11 12v632h-135q-12 0 -12 12v32q0 12 12 12h325q12 0 12 -12v-32q0 -12 -12 -12h-134v-239h130q54 0 87.5 -33t33.5 -88v-166q0 -54 -33.5 -87
t-87.5 -33z" />
    <glyph glyph-name="afii10052" unicode="&#x403;" horiz-adv-x="344" 
d="M72 12v676q0 12 11 12h239q12 0 12 -12v-32q0 -12 -12 -12h-194v-632q0 -12 -12 -12h-33q-11 0 -11 12zM170 751l44 73q3 8 13 8h47q10 0 3 -7l-64 -75q-7 -7 -16 -7h-22q-8 0 -5 8z" />
    <glyph glyph-name="afii10053" unicode="&#x404;" horiz-adv-x="424" 
d="M271 325h-153v-211q0 -28 17 -45t45 -17h77q28 0 45 17t17 45v72q0 12 12 12h33q11 0 11 -12v-70q0 -54 -33 -87t-87 -33h-73q-54 0 -87 33t-33 87v468q0 54 33 87t87 33h73q54 0 87 -33t33 -87v-70q0 -12 -11 -12h-33q-12 0 -12 12v72q0 28 -17 45t-45 17h-77
q-28 0 -45 -17t-17 -45v-207h153q12 0 12 -12v-30q0 -12 -12 -12z" />
    <glyph glyph-name="afii10054" unicode="&#x405;" horiz-adv-x="393" 
d="M47 513v71q0 54 33 87t87 33h61q54 0 87.5 -33t33.5 -87v-70q0 -12 -12 -12h-33q-11 0 -11 12v72q0 28 -17 45t-45 17h-66q-28 0 -45 -17t-17 -45v-73q0 -34 25 -56l180 -162q44 -39 44 -97v-82q0 -54 -33 -87t-87 -33h-72q-54 0 -87 33t-33 87v70q0 12 11 12h33
q12 0 12 -12v-72q0 -28 17 -45t45 -17h76q28 0 45 17t17 45v83q0 34 -25 57l-181 161q-43 40 -43 98z" />
    <glyph glyph-name="afii10055" unicode="&#x406;" horiz-adv-x="284" 
d="M33 12v30q0 12 12 12h69v592h-69q-12 0 -12 12v30q0 12 12 12h194q12 0 12 -12v-30q0 -12 -12 -12h-69v-592h69q12 0 12 -12v-30q0 -12 -12 -12h-194q-12 0 -12 12z" />
    <glyph glyph-name="afii10056" unicode="&#x407;" horiz-adv-x="284" 
d="M33 12v30q0 12 12 12h69v592h-69q-12 0 -12 12v30q0 12 12 12h194q12 0 12 -12v-30q0 -12 -12 -12h-69v-592h69q12 0 12 -12v-30q0 -12 -12 -12h-194q-12 0 -12 12zM59 769v22q0 18 17 18h22q18 0 18 -18v-22q0 -18 -18 -18h-22q-17 0 -17 18zM170 769v22q0 18 18 18h21
q18 0 18 -18v-22q0 -18 -18 -18h-21q-18 0 -18 18z" />
    <glyph glyph-name="afii10057" unicode="&#x408;" horiz-adv-x="390" 
d="M267 114v532h-95q-12 0 -12 12v30q0 12 12 12h139q12 0 12 -12v-572q0 -54 -33.5 -87t-87.5 -33h-61q-54 0 -87 33t-33 87v44q0 12 11 12h33q12 0 12 -12v-46q0 -28 17 -45t45 -17h66q28 0 45 17t17 45z" />
    <glyph glyph-name="afii10058" unicode="&#x409;" horiz-adv-x="678" 
d="M516 348h-124v-292h124q28 0 45 17t17 45v168q0 28 -17 45t-45 17zM392 688v-284h122q54 0 87 -33t33 -87v-164q0 -54 -33 -87t-87 -33h-167q-11 0 -11 12v632h-154l-35 -534q-7 -114 -102 -114h-20q-12 0 -12 12v30q0 12 12 12h10q51 0 56 66l38 572q2 12 12 12h239
q12 0 12 -12z" />
    <glyph glyph-name="afii10059" unicode="&#x40a;" horiz-adv-x="672" 
d="M510 334h-124v-278h124q28 0 45 17t17 45v154q0 28 -17 45t-45 17zM386 688v-298h122q54 0 87 -33t33 -88v-149q0 -54 -33 -87t-87 -33h-166q-12 0 -12 12v322h-202v-322q0 -12 -12 -12h-33q-11 0 -11 12v676q0 12 11 12h33q12 0 12 -12v-298h202v298q0 12 12 12h32
q12 0 12 -12z" />
    <glyph glyph-name="afii10060" unicode="&#x40b;" horiz-adv-x="518" 
d="M472 12v275q0 28 -17 45t-45 17h-157v-337q0 -12 -12 -12h-33q-11 0 -11 12v632h-135q-12 0 -12 12v32q0 12 12 12h325q12 0 12 -12v-32q0 -12 -12 -12h-134v-239h155q54 0 87 -33t33 -88v-272q0 -12 -11 -12h-33q-12 0 -12 12z" />
    <glyph glyph-name="afii10061" unicode="&#x40c;" horiz-adv-x="404" 
d="M72 12v676q0 12 11 12h33q12 0 12 -12v-676q0 -12 -12 -12h-33q-11 0 -11 12zM326 700h39q11 0 6 -11l-166 -329l182 -349q5 -11 -6 -11h-40q-11 0 -17 11l-181 349l166 329q5 11 17 11zM197 751l43 73q5 8 14 8h47q10 0 3 -7l-64 -75q-7 -7 -16 -7h-22q-10 0 -5 8z" />
    <glyph glyph-name="uni040D" unicode="&#x40d;" horiz-adv-x="466" 
d="M339 12v515q0 12 4 32h-2q-5 -21 -9 -31l-209 -517q-5 -11 -16 -11h-24q-11 0 -11 12v676q0 12 11 12h33q12 0 12 -12v-517q0 -7 -5 -32h2q5 22 9 31l209 519q5 11 16 11h24q12 0 12 -12v-676q0 -12 -12 -12h-33q-11 0 -11 12zM218 824l44 -73q5 -8 -5 -8h-22q-9 0 -16 7
l-64 75q-7 7 3 7h47q10 0 13 -8z" />
    <glyph glyph-name="afii10062" unicode="&#x40e;" horiz-adv-x="393" 
d="M208 249l115 439q2 12 12 12h35q12 0 10 -12l-153 -578q-16 -59 -36.5 -86.5t-65.5 -27.5h-38q-12 0 -12 12v30q0 12 12 12h27q25 0 35.5 14t18.5 46l7 27l-162 552q-4 11 9 11h34q11 0 15 -11l129 -440q1 -6 2 -18t1 -14h2q0 17 3 32zM142 823l2 -20q2 -23 23 -23h62
q23 0 23 23l2 20q2 9 11 9h23q9 0 9 -9l-1 -18q-1 -29 -18.5 -46.5t-46.5 -17.5h-66q-29 0 -46.5 17.5t-18.5 46.5v18q-2 9 9 9h23q10 0 10 -9z" />
    <glyph glyph-name="afii10145" unicode="&#x40f;" horiz-adv-x="455" 
d="M372 0h-117v-118q0 -12 -11 -12h-33q-12 0 -12 12v118h-116q-11 0 -11 12v676q0 12 11 12h33q12 0 12 -12v-632h200v632q0 12 11 12h33q12 0 12 -12v-676q0 -12 -12 -12z" />
    <glyph glyph-name="afii10017" unicode="&#x410;" horiz-adv-x="412" 
d="M118 193h177l-85 368q-3 15 -3 33h-2q0 -23 -2 -33zM308 137h-203l-29 -126q-2 -11 -14 -11h-34q-13 0 -9 11l161 678q4 11 14 11h24q12 0 14 -11l162 -678q2 -11 -9 -11h-34q-11 0 -15 11z" />
    <glyph glyph-name="afii10018" unicode="&#x411;" horiz-adv-x="406" 
d="M128 348v-292h124q28 0 45 17t17 45v168q0 28 -17 45t-45 17h-124zM83 700h239q12 0 12 -12v-32q0 -12 -12 -12h-194v-240h121q55 0 88 -33t33 -87v-164q0 -54 -33 -87t-88 -33h-166q-11 0 -11 12v676q0 12 11 12z" />
    <glyph glyph-name="afii10019" unicode="&#x412;" horiz-adv-x="425" 
d="M128 334v-278h133q28 0 45 17t17 45v154q0 28 -17 45t-45 17h-133zM128 644v-255h112q28 0 45 17t17 45v131q0 28 -17 45t-45 17h-112zM72 12v676q0 12 11 12h155q54 0 87 -33t33 -87v-115q0 -65 -47 -98q68 -28 68 -109v-138q0 -54 -33 -87t-87 -33h-176q-11 0 -11 12z
" />
    <glyph glyph-name="afii10020" unicode="&#x413;" horiz-adv-x="344" 
d="M116 0h-33q-11 0 -11 12v676q0 12 11 12h239q12 0 12 -12v-32q0 -12 -12 -12h-194v-632q0 -12 -12 -12z" />
    <glyph glyph-name="afii10021" unicode="&#x414;" horiz-adv-x="483" 
d="M138 56h208v588h-153l-35 -517q-3 -46 -20 -71zM13 -118v162q0 12 9 12h39q38 8 41 64l38 568q2 12 12 12h239q11 0 11 -12v-632h57q12 0 12 -12v-162q0 -12 -12 -12h-33q-11 0 -11 12v118h-346v-118q0 -12 -12 -12h-32q-12 0 -12 12z" />
    <glyph glyph-name="afii10022" unicode="&#x415;" horiz-adv-x="373" 
d="M328 644h-200v-292h158q11 0 11 -11v-33q0 -12 -11 -12h-158v-240h200q12 0 12 -12v-32q0 -12 -12 -12h-245q-11 0 -11 12v676q0 12 11 12h245q12 0 12 -12v-32q0 -12 -12 -12z" />
    <glyph glyph-name="afii10024" unicode="&#x416;" horiz-adv-x="576" 
d="M260 12v676q0 12 12 12h32q12 0 12 -12v-676q0 -12 -12 -12h-32q-12 0 -12 12zM501 700h38q12 0 7 -11l-162 -329l176 -349q5 -11 -7 -11h-38q-12 0 -17 11l-175 349l161 329q5 11 17 11zM37 700h38q12 0 17 -11l162 -329l-176 -349q-5 -11 -16 -11h-39q-11 0 -6 11
l175 349l-162 329q-5 11 7 11z" />
    <glyph glyph-name="afii10025" unicode="&#x417;" horiz-adv-x="396" 
d="M153 390h75q28 0 45 17t17 45v132q0 28 -17 45t-45 17h-72q-28 0 -45 -17t-17 -45v-72q0 -12 -11 -12h-33q-12 0 -12 12v70q0 54 33 87t88 33h66q55 0 88 -33t33 -86v-117q0 -71 -55 -103q58 -31 58 -104v-141q1 -54 -32.5 -87t-87.5 -33h-75q-55 0 -88 33t-33 87v70
q0 12 12 12h33q11 0 11 -12v-72q0 -28 17 -45t45 -17h80q28 0 45.5 17t16.5 45v157q0 28 -17 45t-44 17h-79q-11 0 -11 12v31q0 12 11 12z" />
    <glyph glyph-name="afii10026" unicode="&#x418;" horiz-adv-x="466" 
d="M339 12v515q0 12 4 32h-2q-5 -21 -9 -31l-209 -517q-5 -11 -16 -11h-24q-11 0 -11 12v676q0 12 11 12h33q12 0 12 -12v-517q0 -7 -5 -32h2q5 22 9 31l209 519q5 11 16 11h24q12 0 12 -12v-676q0 -12 -12 -12h-33q-11 0 -11 12z" />
    <glyph glyph-name="afii10027" unicode="&#x419;" horiz-adv-x="466" 
d="M339 12v515q0 12 4 32h-3q-6 -26 -8 -31l-209 -517q-5 -11 -16 -11h-24q-11 0 -11 12v676q0 12 11 12h33q12 0 12 -12v-517q0 -7 -5 -32h3q6 26 8 31l209 519q5 11 16 11h24q12 0 12 -12v-676q0 -12 -12 -12h-33q-11 0 -11 12zM334 823l-1 -18q-1 -29 -18.5 -46.5
t-46.5 -17.5h-66q-29 0 -46.5 17.5t-18.5 46.5v18q-2 9 9 9h23q10 0 10 -9l2 -20q2 -23 23 -23h62q23 0 23 23l2 20q2 9 11 9h23q9 0 9 -9z" />
    <glyph glyph-name="afii10028" unicode="&#x41a;" horiz-adv-x="404" 
d="M72 12v676q0 12 11 12h33q12 0 12 -12v-676q0 -12 -12 -12h-33q-11 0 -11 12zM326 700h39q11 0 6 -11l-166 -329l182 -349q5 -11 -6 -11h-40q-11 0 -17 11l-181 349l166 329q5 11 17 11z" />
    <glyph glyph-name="afii10029" unicode="&#x41b;" horiz-adv-x="463" 
d="M380 0h-33q-11 0 -11 12v632h-154l-35 -534q-7 -114 -102 -114h-20q-12 0 -12 12v30q0 12 12 12h10q51 0 56 66l38 572q2 12 12 12h239q12 0 12 -12v-676q0 -12 -12 -12z" />
    <glyph glyph-name="afii10030" unicode="&#x41c;" horiz-adv-x="550" 
d="M125 545v-533q0 -12 -11 -12h-31q-11 0 -11 12v676q0 12 11 12h37q11 0 16 -11l133 -402q5 -15 5 -31h2q0 19 4 31l134 402q3 11 15 11h37q12 0 12 -12v-676q0 -12 -12 -12h-30q-12 0 -12 12v533q0 12 4 32h-2q-7 -30 -7 -31l-121 -366q-3 -11 -16 -11h-15q-12 0 -15 11
l-122 366q-4 11 -6 31h-2q3 -30 3 -32z" />
    <glyph glyph-name="afii10031" unicode="&#x41d;" horiz-adv-x="457" 
d="M72 12v676q0 12 11 12h33q12 0 12 -12v-336h202v336q0 12 12 12h32q12 0 12 -12v-676q0 -12 -12 -12h-32q-12 0 -12 12v284h-202v-284q0 -12 -12 -12h-33q-11 0 -11 12z" />
    <glyph glyph-name="afii10032" unicode="&#x41e;" horiz-adv-x="452" 
d="M118 586v-472q0 -28 17 -45t45 -17h92q28 0 45 17t17 45v472q0 28 -17 45t-45 17h-92q-28 0 -45 -17t-17 -45zM62 116v468q0 54 33 87t87 33h88q54 0 87 -33t33 -87v-468q0 -54 -33 -87t-87 -33h-88q-54 0 -87 33t-33 87z" />
    <glyph glyph-name="afii10033" unicode="&#x41f;" horiz-adv-x="460" 
d="M389 688v-676q0 -12 -12 -12h-33q-11 0 -11 12v632h-205v-632q0 -12 -12 -12h-33q-11 0 -11 12v676q0 12 11 12h294q12 0 12 -12z" />
    <glyph glyph-name="afii10034" unicode="&#x420;" 
d="M246 644h-118v-309h118q28 0 45 17t17 45v185q0 28 -17 45t-45 17zM244 279h-116v-267q0 -12 -12 -12h-33q-11 0 -11 12v676q0 12 11 12h161q54 0 87 -33t33 -87v-180q0 -55 -33 -88t-87 -33z" />
    <glyph glyph-name="afii10035" unicode="&#x421;" horiz-adv-x="424" 
d="M331 198h33q11 0 11 -12v-70q0 -54 -33 -87t-87 -33h-73q-54 0 -87 33t-33 87v468q0 54 33 87t87 33h73q54 0 87 -33t33 -87v-70q0 -12 -11 -12h-33q-12 0 -12 12v72q0 28 -17 45t-45 17h-77q-28 0 -45 -17t-17 -45v-472q0 -28 17 -45t45 -17h77q28 0 45 17t17 45v72
q0 12 12 12z" />
    <glyph glyph-name="afii10036" unicode="&#x422;" horiz-adv-x="369" 
d="M201 0h-33q-11 0 -11 12v632h-135q-12 0 -12 12v32q0 12 12 12h325q12 0 12 -12v-32q0 -12 -12 -12h-134v-632q0 -12 -12 -12z" />
    <glyph glyph-name="afii10037" unicode="&#x423;" horiz-adv-x="393" 
d="M208 249l115 439q2 12 12 12h35q12 0 10 -12l-153 -578q-16 -59 -36.5 -86.5t-65.5 -27.5h-38q-12 0 -12 12v30q0 12 12 12h27q25 0 35.5 14t18.5 46l7 27l-162 552q-4 11 9 11h34q11 0 15 -11l129 -440q1 -6 2 -18t1 -14h2q0 17 3 32z" />
    <glyph glyph-name="afii10038" unicode="&#x424;" horiz-adv-x="528" 
d="M236 122v456h-74q-28 0 -45 -17t-17 -45v-332q0 -28 17 -45t45 -17h74zM292 578v-456h74q28 0 45 17t17 45v332q0 28 -17 45t-45 17h-74zM236 8v58h-72q-54 0 -87 33t-33 87v328q0 54 33 87t87 33h72v58q0 12 11 12h33q12 0 12 -12v-58h72q54 0 87 -33t33 -87v-328
q0 -54 -33 -87t-87 -33h-72v-58q0 -12 -12 -12h-33q-11 0 -11 12z" />
    <glyph glyph-name="afii10039" unicode="&#x425;" horiz-adv-x="379" 
d="M308 700h37q11 0 8 -11l-133 -324l146 -354q3 -11 -8 -11h-37q-11 0 -16 11l-109 268q-5 11 -5 32h-2q0 -17 -5 -32l-110 -268q-3 -11 -16 -11h-37q-12 0 -7 11l145 354l-132 324q-5 11 7 11h37q13 0 16 -11l97 -237q5 -17 5 -32h2q0 20 5 32l96 237q5 11 16 11z" />
    <glyph glyph-name="afii10040" unicode="&#x426;" horiz-adv-x="469" 
d="M384 56h61q11 0 11 -12v-162q0 -12 -11 -12h-33q-12 0 -12 12v118h-317q-11 0 -11 12v676q0 12 11 12h33q12 0 12 -12v-632h200v632q0 12 11 12h33q12 0 12 -12v-632z" />
    <glyph glyph-name="afii10041" unicode="&#x427;" horiz-adv-x="425" 
d="M341 0h-32q-12 0 -12 12v283h-131q-54 0 -87 33.5t-33 87.5v272q0 12 12 12h32q12 0 12 -12v-275q0 -28 17 -45t45 -17h133v337q0 12 12 12h32q12 0 12 -12v-676q0 -12 -12 -12z" />
    <glyph glyph-name="afii10042" unicode="&#x428;" horiz-adv-x="660" 
d="M589 688v-676q0 -12 -12 -12h-494q-11 0 -11 12v676q0 12 11 12h33q12 0 12 -12v-632h174v632q0 12 12 12h32q12 0 12 -12v-632h175v632q0 12 11 12h33q12 0 12 -12z" />
    <glyph glyph-name="afii10043" unicode="&#x429;" horiz-adv-x="676" 
d="M589 56h63q12 0 12 -12v-162q0 -12 -12 -12h-33q-11 0 -11 12v118h-525q-11 0 -11 12v676q0 12 11 12h33q12 0 12 -12v-632h174v632q0 12 12 12h32q12 0 12 -12v-632h175v632q0 12 11 12h33q12 0 12 -12v-632z" />
    <glyph glyph-name="afii10044" unicode="&#x42a;" horiz-adv-x="481" 
d="M196 348v-292h124q28 0 45 17t17 45v168q0 28 -17 45t-45 17h-124zM10 656v32q0 12 12 12h162q12 0 12 -12v-284h121q55 0 88 -33t33 -87v-164q0 -54 -33 -87t-88 -33h-166q-11 0 -11 12v632h-118q-12 0 -12 12z" />
    <glyph glyph-name="afii10045" unicode="&#x42b;" horiz-adv-x="590" 
d="M128 348v-292h124q28 0 45 17t17 45v168q0 28 -17 45t-45 17h-124zM128 688v-284h121q55 0 88 -33t33 -87v-164q0 -54 -33 -87t-88 -33h-166q-11 0 -11 12v676q0 12 11 12h33q12 0 12 -12zM518 688v-676q0 -12 -12 -12h-32q-12 0 -12 12v676q0 12 12 12h32q12 0 12 -12z
" />
    <glyph glyph-name="afii10046" unicode="&#x42c;" horiz-adv-x="413" 
d="M128 348v-292h124q28 0 45 17t17 45v168q0 28 -17 45t-45 17h-124zM128 688v-284h121q55 0 88 -33t33 -87v-164q0 -54 -33 -87t-88 -33h-166q-11 0 -11 12v676q0 12 11 12h33q12 0 12 -12z" />
    <glyph glyph-name="afii10047" unicode="&#x42d;" horiz-adv-x="424" 
d="M306 325h-147q-11 0 -11 12v30q0 12 11 12h147v207q0 28 -17 45t-45 17h-78q-28 0 -45 -17t-17 -45v-72q0 -12 -11 -12h-33q-12 0 -12 12v70q0 54 33 87t88 33h73q54 0 87 -33t33 -87v-468q0 -54 -33 -87t-87 -33h-73q-55 0 -88 33t-33 87v70q0 12 12 12h33q11 0 11 -12
v-72q0 -28 17 -45t45 -17h78q28 0 45 17t17 45v211z" />
    <glyph glyph-name="afii10048" unicode="&#x42e;" horiz-adv-x="604" 
d="M293 586v-472q0 -28 17 -45t45 -17h69q28 0 45 17t17 45v472q0 28 -17 45t-45 17h-69q-28 0 -45 -17t-17 -45zM237 116v180h-109v-284q0 -12 -12 -12h-33q-11 0 -11 12v676q0 12 11 12h33q12 0 12 -12v-336h109v232q0 54 33 87t87 33h65q54 0 87 -33t33 -87v-468
q0 -54 -33 -87t-87 -33h-65q-54 0 -87 33t-33 87z" />
    <glyph glyph-name="afii10049" unicode="&#x42f;" horiz-adv-x="422" 
d="M295 349v295h-122q-28 0 -45 -17t-17 -45l1 -171q0 -29 17 -45.5t45 -16.5h121zM205 293l-102 -282q-4 -11 -15 -11h-35q-11 0 -9 11l102 285q-41 8 -65.5 39.5t-24.5 77.5l-1 167q0 54 33 87t88 33h163q12 0 12 -12v-676q0 -12 -12 -12h-33q-11 0 -11 12v281h-90z" />
    <glyph glyph-name="afii10065" unicode="&#x430;" horiz-adv-x="409" 
d="M289 102v158q-81 18 -117 18q-30 0 -48.5 -18t-18.5 -48v-109q0 -27 17.5 -43t42.5 -16q46 0 124 58zM289 12v34q-78 -53 -135 -53q-44 0 -73.5 31t-29.5 80v107q0 52 31.5 83.5t82.5 31.5q38 0 124 -16v126q0 30 -16 48t-46 18h-55q-30 0 -46 -18t-16 -48v-25
q0 -12 -12 -12h-30q-12 0 -12 12v29q0 52 31 83t83 31h59q51 0 82.5 -31t31.5 -83v-428q0 -12 -12 -12h-30q-12 0 -12 12z" />
    <glyph glyph-name="afii10066" unicode="&#x431;" horiz-adv-x="420" 
d="M118 445v-331q0 -30 17 -48t47 -18h65q30 0 46 18t16 48v325q0 29 -17.5 45.5t-43.5 16.5q-50 0 -130 -56zM64 110v442q0 53 27 83.5t88 43.5q121 22 145 26q2 0 4 0.5t3 0.5q13 0 13 -11v-29q0 -11 -18 -14q-70 -10 -138 -25q-70 -13 -70 -74v-51q86 51 141 51
q44 0 74 -31.5t30 -81.5v-330q0 -51 -31 -82.5t-82 -31.5h-71q-52 0 -83.5 31.5t-31.5 82.5z" />
    <glyph glyph-name="afii10067" unicode="&#x432;" horiz-adv-x="404" 
d="M243 257h-123v-205h123q30 0 47 17t17 46v75q0 30 -17 48.5t-47 18.5zM223 499h-103v-191h103q30 0 47 18.5t17 48.5v64q0 27 -17 43.5t-47 16.5zM294 287q31 -12 49 -39.5t18 -64.5v-74q0 -49 -31.5 -79t-82.5 -30h-169q-11 0 -11 12v526q0 12 11 12h149
q51 0 82.5 -29.5t31.5 -76.5v-62q0 -63 -47 -95z" />
    <glyph glyph-name="afii10068" unicode="&#x433;" horiz-adv-x="313" 
d="M288 499h-168v-487q0 -12 -11 -12h-31q-11 0 -11 12v526q0 12 11 12h210q12 0 12 -12v-28q0 -11 -12 -11z" />
    <glyph glyph-name="afii10069" unicode="&#x434;" horiz-adv-x="464" 
d="M134 52h194v447h-150l-26 -387q-3 -36 -18 -60zM13 -114v154q0 12 12 12h46q24 16 27 64l29 422q0 12 11 12h232q11 0 11 -12v-486h59q11 0 11 -12v-154q0 -12 -11 -12h-31q-11 0 -11 12v114h-331v-114q0 -12 -12 -12h-30q-12 0 -12 12z" />
    <glyph glyph-name="afii10070" unicode="&#x435;" horiz-adv-x="396" 
d="M232 502h-62q-27 0 -43.5 -16t-16.5 -42v-144h182v144q0 26 -16.5 42t-43.5 16zM334 248h-224v-140q0 -27 16.5 -43.5t43.5 -16.5h62q27 0 43.5 16.5t16.5 42.5v35q0 12 11 12h31q11 0 11 -12v-32q0 -51 -31 -82.5t-82 -31.5h-62q-51 0 -82 31.5t-31 82.5v330q0 52 31 83
t82 31h62q51 0 82 -31t31 -81v-182q0 -12 -11 -12z" />
    <glyph glyph-name="afii10072" unicode="&#x436;" horiz-adv-x="528" 
d="M82 540l142 -260l-152 -270q-5 -10 -18 -10h-33q-12 0 -7 10l152 270l-142 260q-5 10 8 10h33q12 0 17 -10zM238 12v526q0 12 11 12h31q11 0 11 -12v-526q0 -12 -11 -12h-31q-11 0 -11 12zM504 540l-142 -260l152 -270q7 -10 -6 -10h-34q-12 0 -17 10l-153 270l142 260
q7 10 17 10h34q12 0 7 -10z" />
    <glyph glyph-name="afii10073" unicode="&#x437;" horiz-adv-x="384" 
d="M156 311h56q30 0 48.5 18t18.5 48v64q0 26 -18.5 43t-48.5 17h-46q-30 0 -48 -18.5t-18 -48.5v-36q0 -12 -12 -12h-30q-12 0 -12 12v41q0 51 31 82t83 31h59q51 0 82.5 -29t31.5 -77v-61q0 -69 -53 -98q60 -28 60 -102v-78q0 -49 -31.5 -79t-82.5 -30h-71q-52 0 -83 31
t-31 82v41q0 12 12 12h30q12 0 12 -12v-36q0 -30 18 -48.5t48 -18.5h59q29 0 47.5 17.5t18.5 45.5v81q0 30 -18.5 48t-47.5 18h-64q-12 0 -12 12v28q0 12 12 12z" />
    <glyph glyph-name="afii10074" unicode="&#x438;" horiz-adv-x="439" 
d="M101 0h-23q-11 0 -11 12v526q0 12 11 12h31q11 0 11 -12v-397q0 -14 -4 -32l2 -1q4 20 9 31l194 400q5 11 16 11h23q12 0 12 -12v-526q0 -12 -12 -12h-30q-12 0 -12 12v397q0 7 5 32h-2q-5 -22 -10 -30l-193 -400q-5 -11 -17 -11z" />
    <glyph glyph-name="afii10075" unicode="&#x439;" horiz-adv-x="439" 
d="M101 0h-23q-11 0 -11 12v526q0 12 11 12h31q11 0 11 -12v-397q0 -9 -5 -32l3 -1q4 20 9 31l194 400q5 11 16 11h23q12 0 12 -12v-526q0 -12 -12 -12h-30q-12 0 -12 12v397q0 7 5 32h-2l-10 -30l-193 -400q-5 -11 -17 -11zM318 679v-18q-1 -28 -18.5 -45.5t-46.5 -17.5
h-66q-29 0 -46.5 17.5t-18.5 45.5l-1 18q0 10 9 10h24q8 0 10 -10l2 -20q0 -22 23 -22h62q10 0 16.5 6t6.5 16l2 20q0 10 10 10h23q11 0 9 -10z" />
    <glyph glyph-name="afii10076" unicode="&#x43a;" horiz-adv-x="372" 
d="M66 12v526q0 12 12 12h30q12 0 12 -12v-526q0 -12 -12 -12h-30q-12 0 -12 12zM347 540l-154 -260l165 -270q5 -10 -7 -10h-36q-12 0 -17 10l-165 270l155 260q5 10 17 10h35q12 0 7 -10z" />
    <glyph glyph-name="afii10077" unicode="&#x43b;" horiz-adv-x="436" 
d="M40 -4h-15q-12 0 -12 12v28q0 12 12 12h8q51 0 56 66l28 424q0 12 12 12h229q11 0 11 -12v-526q0 -12 -11 -12h-31q-11 0 -11 12v487h-148l-26 -389q-7 -114 -102 -114z" />
    <glyph glyph-name="afii10078" unicode="&#x43c;" horiz-adv-x="533" 
d="M416 550h39q12 0 12 -12v-526q0 -12 -12 -12h-30q-12 0 -12 12v412q0 14 4 32h-2q-6 -26 -8 -31l-120 -309q-5 -11 -16 -11h-9q-11 0 -16 11l-120 309q-3 10 -8 31h-2q4 -18 4 -32v-412q0 -12 -11 -12h-31q-11 0 -11 12v526q0 12 11 12h40q12 0 15 -11l128 -328
q5 -15 5 -31h2q0 19 4 31l128 328q3 11 16 11z" />
    <glyph glyph-name="afii10079" unicode="&#x43d;" horiz-adv-x="436" 
d="M316 254h-196v-242q0 -12 -11 -12h-31q-11 0 -11 12v526q0 12 11 12h31q11 0 11 -12v-232h196v232q0 12 12 12h30q12 0 12 -12v-526q0 -12 -12 -12h-30q-12 0 -12 12v242z" />
    <glyph glyph-name="afii10080" unicode="&#x43e;" horiz-adv-x="412" 
d="M110 443v-336q0 -26 16.5 -42.5t43.5 -16.5h72q27 0 43.5 16.5t16.5 42.5v336q0 27 -16.5 43t-43.5 16h-72q-27 0 -43.5 -16t-16.5 -43zM57 110v330q0 52 31 83t82 31h72q51 0 82 -31t31 -83v-330q0 -51 -31 -82.5t-82 -31.5h-72q-51 0 -82 31.5t-31 82.5z" />
    <glyph glyph-name="afii10081" unicode="&#x43f;" horiz-adv-x="431" 
d="M353 0h-30q-12 0 -12 12v487h-191v-487q0 -12 -11 -12h-31q-11 0 -11 12v526q0 12 11 12h275q12 0 12 -12v-526q0 -12 -12 -12z" />
    <glyph glyph-name="afii10082" unicode="&#x440;" horiz-adv-x="422" 
d="M120 444v-338q86 -62 131 -62q26 0 43.5 16.5t17.5 46.5v336q0 30 -17.5 46.5t-43.5 16.5q-45 0 -131 -62zM109 -150h-31q-11 0 -11 12v676q0 12 11 12h31q11 0 11 -12v-38q84 57 143 57q44 0 73.5 -32t29.5 -82v-336q0 -50 -29.5 -82t-73.5 -32q-59 0 -143 57v-188
q0 -12 -11 -12z" />
    <glyph glyph-name="afii10083" unicode="&#x441;" horiz-adv-x="384" 
d="M170 48h60q26 0 42.5 16.5t16.5 42.5v44q0 12 12 12h30q12 0 12 -12v-41q0 -51 -31 -82.5t-82 -31.5h-60q-51 0 -82 31.5t-31 82.5v330q0 52 31 83t82 31h60q51 0 82 -31t31 -83v-41q0 -11 -12 -11h-30q-12 0 -12 11v44q0 27 -16.5 43t-42.5 16h-60q-27 0 -43.5 -16
t-16.5 -43v-336q0 -26 16.5 -42.5t43.5 -16.5z" />
    <glyph glyph-name="afii10084" unicode="&#x442;" horiz-adv-x="337" 
d="M324 538v-28q0 -11 -12 -11h-117v-487q0 -12 -11 -12h-31q-11 0 -11 12v487h-117q-12 0 -12 11v28q0 12 12 12h287q12 0 12 -12z" />
    <glyph glyph-name="afii10085" unicode="&#x443;" horiz-adv-x="347" 
d="M113 -139l35 140l-135 538q-4 11 9 11h32q12 0 15 -12l101 -414q3 -16 3 -35h2q0 24 3 35l101 414q2 12 14 12h32q13 0 9 -11l-169 -678q-2 -11 -14 -11h-29q-11 0 -9 11z" />
    <glyph glyph-name="afii10086" unicode="&#x444;" horiz-adv-x="597" 
d="M272 92v366q-64 48 -101 48q-25 0 -43 -17t-18 -46v-336q0 -29 18 -46t43 -17q37 0 101 48zM326 459v-368q62 -47 100 -47q25 0 43 17t18 46v336q0 29 -18 46t-43 17q-38 0 -100 -47zM272 -138v175q-68 -44 -113 -44q-43 0 -72.5 32t-29.5 82v336q0 50 29.5 82t72.5 32
q45 0 113 -44v175q0 12 12 12h30q12 0 12 -12v-175q65 44 112 44q43 0 72.5 -32t29.5 -82v-336q0 -50 -29.5 -82t-72.5 -32q-47 0 -112 44v-175q0 -12 -12 -12h-30q-12 0 -12 12z" />
    <glyph glyph-name="afii10087" unicode="&#x445;" horiz-adv-x="359" 
d="M185 349l94 190q6 11 17 11h34q12 0 7 -11l-128 -259l127 -269q5 -11 -6 -11h-34q-11 0 -17 11l-94 200q-5 8 -3 18h-2q-3 -17 -4 -18l-99 -200q-5 -11 -17 -11h-34q-12 0 -7 11l133 269l-123 259q-5 11 7 11h34q11 0 17 -11l90 -190q3 -7 3 -18h2q0 13 3 18z" />
    <glyph glyph-name="afii10088" unicode="&#x446;" horiz-adv-x="448" 
d="M67 12v526q0 12 11 12h31q11 0 11 -12v-486h194v486q0 12 12 12h30q12 0 12 -12v-486h55q12 0 12 -12v-154q0 -12 -12 -12h-30q-12 0 -12 12v114h-303q-11 0 -11 12z" />
    <glyph glyph-name="afii10089" unicode="&#x447;" horiz-adv-x="413" 
d="M335 0h-31q-11 0 -11 12v234q-82 -46 -138 -46q-46 0 -76 32t-30 83v223q0 12 12 12h30q12 0 12 -12v-219q0 -30 18 -46.5t45 -16.5q41 0 127 48v234q0 12 11 12h31q11 0 11 -12v-526q0 -12 -11 -12z" />
    <glyph glyph-name="afii10090" unicode="&#x448;" horiz-adv-x="602" 
d="M67 12v526q0 12 11 12h31q11 0 11 -12v-486h154v486q0 12 12 12h30q12 0 12 -12v-486h154v486q0 12 12 12h30q12 0 12 -12v-526q0 -12 -12 -12h-447q-10 0 -10 12z" />
    <glyph glyph-name="afii10091" unicode="&#x449;" horiz-adv-x="616" 
d="M591 52q12 0 12 -12v-154q0 -12 -12 -12h-30q-12 0 -12 12v114h-472q-10 0 -10 12v526q0 12 11 12h31q11 0 11 -12v-486h154v486q0 12 12 12h30q12 0 12 -12v-486h154v486q0 12 12 12h30q12 0 12 -12v-486h55z" />
    <glyph glyph-name="afii10092" unicode="&#x44a;" horiz-adv-x="460" 
d="M299 272h-111v-220h111q30 0 48 18t18 48v87q0 30 -18 48.5t-48 18.5zM188 538v-215h117q52 0 83 -31t31 -82v-96q0 -52 -31 -83t-83 -31h-159q-12 0 -12 12v487h-109q-12 0 -12 11v28q0 12 12 12h151q12 0 12 -12z" />
    <glyph glyph-name="afii10093" unicode="&#x44b;" horiz-adv-x="559" 
d="M231 272h-111v-220h111q30 0 48.5 18t18.5 48v87q0 30 -18.5 48.5t-48.5 18.5zM67 12v526q0 12 11 12h31q11 0 11 -12v-215h118q51 0 82.5 -31t31.5 -82v-96q0 -52 -31.5 -83t-82.5 -31h-160q-11 0 -11 12zM481 0h-30q-12 0 -12 12v526q0 12 12 12h30q12 0 12 -12v-526
q0 -12 -12 -12z" />
    <glyph glyph-name="afii10094" unicode="&#x44c;" horiz-adv-x="393" 
d="M231 272h-111v-220h111q30 0 48.5 18t18.5 48v87q0 30 -18.5 48.5t-48.5 18.5zM238 0h-160q-11 0 -11 12v526q0 12 11 12h31q11 0 11 -12v-215h118q51 0 82.5 -31t31.5 -82v-96q0 -52 -31.5 -83t-82.5 -31z" />
    <glyph glyph-name="afii10095" unicode="&#x44d;" horiz-adv-x="384" 
d="M274 254h-124q-12 0 -12 12v28q0 12 12 12h124v137q0 27 -16.5 43t-43.5 16h-59q-27 0 -43.5 -16t-16.5 -43v-44q0 -11 -12 -11h-30q-12 0 -12 11v41q0 52 31 83t83 31h59q51 0 82.5 -31t31.5 -83v-330q0 -51 -31.5 -82.5t-82.5 -31.5h-59q-52 0 -83 31.5t-31 82.5v41
q0 12 12 12h30q12 0 12 -12v-44q0 -26 16.5 -42.5t43.5 -16.5h59q27 0 43.5 16.5t16.5 42.5v147z" />
    <glyph glyph-name="afii10096" unicode="&#x44e;" horiz-adv-x="577" 
d="M281 436v-322q0 -30 18.5 -48t48.5 -18h52q30 0 48.5 18t18.5 48v322q0 30 -18.5 48t-48.5 18h-52q-30 0 -48.5 -18t-18.5 -48zM227 110v144h-107v-242q0 -12 -11 -12h-31q-11 0 -11 12v526q0 12 11 12h31q11 0 11 -12v-232h107v134q0 52 31.5 83t82.5 31h66
q51 0 82.5 -31t31.5 -83v-330q0 -51 -31.5 -82.5t-82.5 -31.5h-66q-51 0 -82.5 31.5t-31.5 82.5z" />
    <glyph glyph-name="afii10097" unicode="&#x44f;" horiz-adv-x="405" 
d="M169 279h115v220h-115q-30 0 -48.5 -18.5t-18.5 -49.5v-86q0 -30 18.5 -48t48.5 -18zM47 11l87 219q-39 8 -62 37.5t-23 73.5v96q0 50 31 81.5t82 31.5h164q12 0 12 -12v-526q0 -12 -12 -12h-30q-12 0 -12 12v215h-97l-85 -216q-3 -11 -14 -11h-34q-12 0 -7 11z" />
    <glyph glyph-name="uni0450" unicode="&#x450;" horiz-adv-x="396" 
d="M232 502h-62q-27 0 -43.5 -16t-16.5 -42v-144h182v144q0 26 -16.5 42t-43.5 16zM334 248h-224v-140q0 -27 16.5 -43.5t43.5 -16.5h62q27 0 43.5 16.5t16.5 42.5v35q0 12 11 12h31q11 0 11 -12v-32q0 -51 -31 -82.5t-82 -31.5h-62q-51 0 -82 31.5t-31 82.5v330q0 52 31 83
t82 31h62q51 0 82 -31t31 -81v-182q0 -12 -11 -12zM186 674l44 -73q3 -8 -5 -8h-23q-10 0 -15 7l-65 75q-5 7 3 7h48q8 0 13 -8z" />
    <glyph glyph-name="afii10071" unicode="&#x451;" horiz-adv-x="396" 
d="M232 502h-62q-27 0 -43.5 -16t-16.5 -42v-144h182v144q0 26 -16.5 42t-43.5 16zM334 248h-224v-140q0 -27 16.5 -43.5t43.5 -16.5h62q27 0 43.5 16.5t16.5 42.5v35q0 12 11 12h31q11 0 11 -12v-32q0 -51 -31 -82.5t-82 -31.5h-62q-51 0 -82 31.5t-31 82.5v330q0 52 31 83
t82 31h62q51 0 82 -31t31 -81v-182q0 -12 -11 -12zM118 619v22q0 18 18 18h22q17 0 17 -18v-22q0 -18 -17 -18h-22q-18 0 -18 18zM229 619v22q0 18 18 18h22q18 0 18 -18v-22q0 -18 -18 -18h-22q-18 0 -18 18z" />
    <glyph glyph-name="afii10099" unicode="&#x452;" horiz-adv-x="423" 
d="M109 0h-31q-11 0 -11 14v584h-52q-9 0 -9 10v23q0 10 9 10h52v47q0 12 11 12h31q11 0 11 -12v-47h107q10 0 10 -10v-23q0 -10 -10 -10h-107v-98q86 57 144 57q41 0 71.5 -32.5t30.5 -81.5v-480q0 -51 -31 -82t-82 -31h-27q-12 0 -12 12v28q0 11 12 11h27q27 0 43.5 16.5
t16.5 43.5v482q0 29 -18 46t-43 17q-53 0 -132 -62v-430q0 -14 -11 -14z" />
    <glyph glyph-name="afii10100" unicode="&#x453;" horiz-adv-x="313" 
d="M288 499h-168v-487q0 -12 -11 -12h-31q-11 0 -11 12v526q0 12 11 12h210q12 0 12 -12v-28q0 -11 -12 -11zM150 601l44 73q5 8 13 8h48q8 0 3 -7l-65 -75q-5 -7 -15 -7h-23q-8 0 -5 8z" />
    <glyph glyph-name="afii10101" unicode="&#x454;" horiz-adv-x="384" 
d="M244 254h-134v-147q0 -26 16.5 -42.5t43.5 -16.5h60q26 0 42.5 16.5t16.5 42.5v44q0 12 12 12h30q12 0 12 -12v-41q0 -51 -31 -82.5t-82 -31.5h-60q-51 0 -82 31.5t-31 82.5v330q0 52 31 83t82 31h60q51 0 82 -31t31 -83v-41q0 -11 -12 -11h-30q-12 0 -12 11v44
q0 27 -16.5 43t-42.5 16h-60q-27 0 -43.5 -16t-16.5 -43v-137h134q12 0 12 -12v-28q0 -12 -12 -12z" />
    <glyph glyph-name="afii10102" unicode="&#x455;" horiz-adv-x="375" 
d="M332 154v-44q0 -51 -31 -82.5t-82 -31.5h-62q-51 0 -82.5 31.5t-31.5 82.5v41q0 12 12 12h30q12 0 12 -12v-37q0 -30 16 -48t46 -18h57q30 0 46 18t16 48v42q0 36 -31 56l-144 96q-25 17 -40 44.5t-15 57.5v30q0 51 31 82.5t83 31.5h52q51 0 82 -31t31 -83v-41
q0 -11 -12 -11h-30q-12 0 -12 11v37q0 30 -16 48t-46 18h-47q-30 0 -46 -18t-16 -48v-28q0 -36 31 -56l144 -97q25 -16 40 -44t15 -57z" />
    <glyph glyph-name="afii10103" unicode="&#x456;" horiz-adv-x="187" 
d="M67 12v526q0 12 12 12h30q12 0 12 -12v-526q0 -12 -12 -12h-30q-12 0 -12 12zM59 656v30q0 18 18 18h33q18 0 18 -18v-30q0 -18 -18 -18h-33q-18 0 -18 18z" />
    <glyph glyph-name="afii10104" unicode="&#x457;" horiz-adv-x="186" 
d="M67 12v526q0 12 11 12h31q11 0 11 -12v-526q0 -12 -11 -12h-31q-11 0 -11 12zM122 619v22q0 18 18 18h21q18 0 18 -18v-22q0 -18 -18 -18h-21q-18 0 -18 18zM10 619v22q0 18 18 18h22q18 0 18 -18v-22q0 -18 -18 -18h-22q-18 0 -18 18z" />
    <glyph glyph-name="afii10105" unicode="&#x458;" horiz-adv-x="209" 
d="M-2 -99h27q27 0 43.5 16.5t16.5 43.5v577q0 12 12 12h30q12 0 12 -12v-575q0 -51 -31 -82t-83 -31h-27q-12 0 -12 12v28q0 11 12 11zM78 656v30q0 18 18 18h33q17 0 17 -18v-30q0 -18 -17 -18h-33q-18 0 -18 18z" />
    <glyph glyph-name="afii10106" unicode="&#x459;" horiz-adv-x="642" 
d="M547 118v87q0 30 -18.5 48.5t-47.5 18.5h-112v-220h112q29 0 47.5 18t18.5 48zM601 210v-96q0 -52 -31.5 -83t-82.5 -31h-160q-11 0 -11 12v487h-148l-26 -389q-7 -114 -102 -114h-15q-12 0 -12 12v28q0 12 12 12h8q53 0 56 66l28 424q0 12 12 12h229q11 0 11 -12v-215
h118q51 0 82.5 -31t31.5 -82z" />
    <glyph glyph-name="afii10107" unicode="&#x45a;" horiz-adv-x="643" 
d="M548 118v78q0 30 -18.5 48.5t-47.5 18.5h-112v-211h112q29 0 47.5 18t18.5 48zM370 538v-224h118q51 0 82.5 -31t31.5 -82v-87q0 -52 -31.5 -83t-82.5 -31h-160q-12 0 -12 12v251h-196v-251q0 -12 -11 -12h-31q-11 0 -11 12v526q0 12 11 12h31q11 0 11 -12v-224h196v224
q0 12 12 12h30q12 0 12 -12z" />
    <glyph glyph-name="afii10108" unicode="&#x45b;" horiz-adv-x="433" 
d="M6 608v23q0 10 9 10h52v47q0 12 11 12h31q11 0 11 -12v-47h107q10 0 10 -10v-23q0 -10 -10 -10h-107v-98q84 57 144 57q43 0 72.5 -32t29.5 -82v-431q0 -12 -11 -12h-31q-11 0 -11 12v431q0 29 -18 46t-43 17q-46 0 -132 -62v-430q0 -14 -11 -14h-31q-11 0 -11 14v584
h-52q-9 0 -9 10z" />
    <glyph glyph-name="afii10109" unicode="&#x45c;" horiz-adv-x="372" 
d="M66 12v526q0 12 12 12h30q12 0 12 -12v-526q0 -12 -12 -12h-30q-12 0 -12 12zM347 540l-154 -260l165 -270q5 -10 -7 -10h-36q-12 0 -17 10l-165 270l155 260q5 10 17 10h35q12 0 7 -10zM184 601l44 73q3 8 13 8h47q10 0 3 -7l-64 -75q-7 -7 -16 -7h-22q-10 0 -5 8z" />
    <glyph glyph-name="uni045D" unicode="&#x45d;" horiz-adv-x="439" 
d="M101 0h-23q-11 0 -11 12v526q0 12 11 12h31q11 0 11 -12v-397q0 -14 -4 -32l2 -1q4 20 9 31l194 400q5 11 16 11h23q12 0 12 -12v-526q0 -12 -12 -12h-30q-12 0 -12 12v397q0 7 5 32h-2q-5 -22 -10 -30l-193 -400q-5 -11 -17 -11zM204 674l44 -73q5 -8 -5 -8h-22
q-9 0 -16 7l-64 75q-7 7 3 7h47q10 0 13 -8z" />
    <glyph glyph-name="afii10110" unicode="&#x45e;" horiz-adv-x="347" 
d="M113 -139l35 140l-135 538q-4 11 9 11h32q12 0 15 -12l101 -414q2 -11 2 -35h3q0 24 3 35l101 414q2 12 14 12h32q13 0 9 -11l-169 -678q-2 -11 -14 -11h-29q-11 0 -9 11zM274 679l-1 -18q-1 -29 -18.5 -46t-45.5 -17h-67q-29 0 -46.5 17.5t-18.5 45.5v18q-2 10 9 10h23
q10 0 10 -10l2 -20q2 -22 23 -22h62q22 0 24 22l1 20q2 10 11 10h23q9 0 9 -10z" />
    <glyph glyph-name="afii10193" unicode="&#x45f;" horiz-adv-x="437" 
d="M67 12v526q0 12 11 12h31q11 0 11 -12v-486h194v486q0 12 12 12h30q12 0 12 -12v-526q0 -12 -12 -12h-111v-114q0 -12 -12 -12h-30q-12 0 -12 12v114h-113q-11 0 -11 12z" />
    <glyph glyph-name="afii10050" unicode="&#x490;" horiz-adv-x="336" 
d="M326 802v-146q0 -12 -11 -12h-187v-632q0 -12 -12 -12h-33q-11 0 -11 12v676q0 12 11 12h187v102q0 11 12 11h33q11 0 11 -11z" />
    <glyph glyph-name="afii10098" unicode="&#x491;" horiz-adv-x="302" 
d="M286 644v-134q0 -11 -11 -11h-155v-487q0 -12 -11 -12h-31q-11 0 -11 12v526q0 12 11 12h155v94q0 12 11 12h31q11 0 11 -12z" />
    <glyph glyph-name="uni04D8" unicode="&#x4d8;" horiz-adv-x="434" 
d="M171 52h84q28 0 45 16.5t17 44.5v196h-208v-196q0 -28 17 -44.5t45 -16.5zM65 365h252v220q0 28 -17 45.5t-45 17.5h-84q-28 0 -45 -17t-17 -45v-50q0 -12 -11 -12h-33q-12 0 -12 12v48q0 54 33 87t88 33h78q54 0 87.5 -33t33.5 -87v-468q0 -54 -33.5 -87t-87.5 -33h-78
q-55 0 -88 33t-33 86v238q0 12 12 12z" />
    <glyph glyph-name="afii10846" unicode="&#x4d9;" horiz-adv-x="396" 
d="M165 48h61q27 0 43.5 16t16.5 42v144h-181v-144q0 -26 16.5 -42t43.5 -16zM63 302h223v140q0 27 -16.5 43.5t-43.5 16.5h-61q-27 0 -43.5 -16t-16.5 -43v-35q0 -11 -12 -11h-30q-12 0 -12 11v32q0 52 31 83t83 31h61q51 0 82.5 -31t31.5 -83v-330q0 -51 -31.5 -82.5
t-82.5 -31.5h-61q-52 0 -83 31t-31 82v181q0 12 12 12z" />
    <glyph glyph-name="Wgrave" unicode="&#x1e80;" horiz-adv-x="586" 
d="M321 688l87 -535q1 -10 1 -33h2q0 13 2 33l98 535q2 12 14 12h33q12 0 10 -12l-131 -676q-2 -12 -14 -12h-24q-12 0 -14 12l-89 524q-2 10 -2 33h-2q0 -23 -2 -33l-89 -524q-2 -12 -14 -12h-24q-12 0 -14 12l-131 676q-2 12 10 12h33q12 0 14 -12l97 -535q2 -10 2 -33h2
q0 23 2 33l88 535q2 12 13 12h28q11 0 14 -12zM278 824l44 -73q3 -8 -5 -8h-22q-9 0 -16 7l-64 75q-7 7 3 7h47q10 0 13 -8z" />
    <glyph glyph-name="wgrave" unicode="&#x1e81;" horiz-adv-x="532" 
d="M262 417l-80 -405q-2 -12 -14 -12h-29q-12 0 -15 12l-111 527q-2 11 9 11h32q12 0 14 -12l82 -421q3 -15 3 -35h2q0 25 2 35l81 421q2 12 14 12h28q11 0 13 -12l82 -421q2 -10 2 -35h2q0 20 3 35l81 421q3 12 15 12h31q12 0 10 -12l-112 -526q-2 -12 -14 -12h-29
q-12 0 -14 12l-81 405q-2 10 -2 35h-2q0 -20 -3 -35zM251 674l43 -73q5 -8 -4 -8h-23q-9 0 -16 7l-64 75q-7 7 3 7h48q8 0 13 -8z" />
    <glyph glyph-name="Wacute" unicode="&#x1e82;" horiz-adv-x="586" 
d="M321 688l87 -535q1 -10 1 -33h2q0 13 2 33l98 535q2 12 14 12h33q12 0 10 -12l-131 -676q-2 -12 -14 -12h-24q-12 0 -14 12l-89 524q-2 10 -2 33h-2q0 -23 -2 -33l-89 -524q-2 -12 -14 -12h-24q-12 0 -14 12l-131 676q-2 12 10 12h33q12 0 14 -12l97 -535q2 -10 2 -33h2
q0 23 2 33l88 535q2 12 13 12h28q11 0 14 -12zM265 751l44 73q3 8 13 8h47q10 0 3 -7l-64 -75q-7 -7 -16 -7h-22q-8 0 -5 8z" />
    <glyph glyph-name="wacute" unicode="&#x1e83;" horiz-adv-x="532" 
d="M262 417l-80 -405q-2 -12 -14 -12h-29q-12 0 -15 12l-111 527q-2 11 9 11h32q12 0 14 -12l82 -421q3 -15 3 -35h2q0 25 2 35l81 421q2 12 14 12h28q11 0 13 -12l82 -421q2 -10 2 -35h2q0 20 3 35l81 421q3 12 15 12h31q12 0 10 -12l-112 -526q-2 -12 -14 -12h-29
q-12 0 -14 12l-81 405q-2 10 -2 35h-2q0 -20 -3 -35zM238 601l43 73q5 8 14 8h47q10 0 3 -7l-64 -75q-7 -7 -16 -7h-23q-9 0 -4 8z" />
    <glyph glyph-name="Wdieresis" unicode="&#x1e84;" horiz-adv-x="586" 
d="M321 688l87 -535q1 -10 1 -33h2q0 13 2 33l98 535q2 12 14 12h33q12 0 10 -12l-131 -676q-2 -12 -14 -12h-24q-12 0 -14 12l-89 524q-2 10 -2 33h-2q0 -23 -2 -33l-89 -524q-2 -12 -14 -12h-24q-12 0 -14 12l-131 676q-2 12 10 12h33q12 0 14 -12l97 -535q2 -10 2 -33h2
q0 23 2 33l88 535q2 12 13 12h28q11 0 14 -12zM322 769v22q0 18 17 18h22q18 0 18 -18v-22q0 -18 -18 -18h-22q-17 0 -17 18zM210 769v22q0 18 18 18h22q18 0 18 -18v-22q0 -18 -18 -18h-22q-18 0 -18 18z" />
    <glyph glyph-name="wdieresis" unicode="&#x1e85;" horiz-adv-x="532" 
d="M262 417l-80 -405q-2 -12 -14 -12h-29q-12 0 -15 12l-111 527q-2 11 9 11h32q12 0 14 -12l82 -421q3 -15 3 -35h2q0 25 2 35l81 421q2 12 14 12h28q11 0 13 -12l82 -421q2 -10 2 -35h2q0 20 3 35l81 421q3 12 15 12h31q12 0 10 -12l-112 -526q-2 -12 -14 -12h-29
q-12 0 -14 12l-81 405q-2 10 -2 35h-2q0 -20 -3 -35zM294 619v22q0 18 18 18h22q18 0 18 -18v-22q0 -18 -18 -18h-22q-18 0 -18 18zM183 619v22q0 18 18 18h21q18 0 18 -18v-22q0 -18 -18 -18h-21q-18 0 -18 18z" />
    <glyph glyph-name="uni1E9E" unicode="&#x1e9e;" horiz-adv-x="426" 
d="M205 432l83 214h-101q-27 0 -43 -16.5t-16 -42.5v-575q0 -12 -12 -12h-33q-11 0 -11 12v575q0 51 31 82t82 31h172q12 0 7 -11l-105 -273h23q43 0 69 -31t26 -81v-191q0 -51 -31 -82t-82 -31h-57q-11 0 -11 12v30q0 12 11 12h52q30 0 46 18t16 48v184q0 31 -16.5 49
t-45.5 18h-46q-12 0 -12 12v27q0 10 4 22z" />
    <glyph glyph-name="Ygrave" unicode="&#x1ef2;" horiz-adv-x="391" 
d="M372 689l-149 -408v-269q0 -12 -11 -12h-33q-12 0 -12 12v269l-148 408q-3 11 8 11h35q12 0 15 -11l113 -309q4 -12 4 -32h2q0 21 5 32l112 309q5 11 16 11h35q11 0 8 -11zM181 824l43 -73q5 -8 -5 -8h-22q-9 0 -16 7l-64 75q-7 7 3 7h47q9 0 14 -8z" />
    <glyph glyph-name="ygrave" unicode="&#x1ef3;" horiz-adv-x="347" 
d="M113 -139l35 140l-135 538q-4 11 9 11h32q12 0 15 -12l101 -414q3 -16 3 -35h2q0 24 3 35l101 414q2 12 14 12h32q13 0 9 -11l-169 -678q-2 -11 -14 -11h-29q-11 0 -9 11zM158 674l44 -73q3 -8 -5 -8h-23q-10 0 -15 7l-65 75q-5 7 3 7h48q8 0 13 -8z" />
    <glyph glyph-name="figuredash" unicode="&#x2012;" 
d="M50 338v28q0 12 12 12h279q12 0 12 -12v-28q0 -11 -12 -11h-279q-12 0 -12 11z" />
    <glyph glyph-name="endash" unicode="&#x2013;" horiz-adv-x="460" 
d="M46 291v28q0 10 9 10h350q10 0 10 -10v-28q0 -9 -10 -9h-350q-9 0 -9 9z" />
    <glyph glyph-name="emdash" unicode="&#x2014;" horiz-adv-x="840" 
d="M46 291v28q0 10 9 10h730q10 0 10 -10v-28q0 -9 -10 -9h-730q-9 0 -9 9z" />
    <glyph glyph-name="quoteleft" unicode="&#x2018;" horiz-adv-x="167" 
d="M127 684l-17 -145q-2 -18 -19 -18h-31q-17 0 -14 18l35 146q3 15 19 15h13q16 0 14 -16z" />
    <glyph glyph-name="quoteright" unicode="&#x2019;" horiz-adv-x="167" 
d="M40 537l17 145q2 18 19 18h31q17 0 14 -17l-35 -147q-3 -15 -19 -15h-13q-16 0 -14 16z" />
    <glyph glyph-name="quotesinglbase" unicode="&#x201a;" horiz-adv-x="149" 
d="M31 -90l17 145q2 18 19 18h31q17 0 14 -17l-35 -146q-4 -16 -19 -16h-13q-16 0 -14 16z" />
    <glyph glyph-name="quotedblleft" unicode="&#x201c;" horiz-adv-x="268" 
d="M127 684l-17 -145q-2 -18 -20 -18h-30q-17 0 -14 18l35 146q3 15 19 15h13q16 0 14 -16zM228 684l-17 -145q-2 -18 -20 -18h-30q-17 0 -14 18l35 146q3 15 19 15h13q16 0 14 -16z" />
    <glyph glyph-name="quotedblright" unicode="&#x201d;" horiz-adv-x="268" 
d="M141 537l17 145q2 18 19 18h31q17 0 14 -17l-35 -147q-3 -15 -19 -15h-13q-16 0 -14 16zM40 537l17 145q2 18 19 18h31q17 0 14 -17l-35 -147q-3 -15 -19 -15h-13q-16 0 -14 16z" />
    <glyph glyph-name="quotedblbase" unicode="&#x201e;" horiz-adv-x="268" 
d="M141 -90l17 145q2 18 19 18h31q17 0 14 -17l-35 -146q-4 -16 -19 -16h-13q-16 0 -14 16zM40 -90l17 145q2 18 19 18h31q17 0 14 -17l-35 -146q-4 -16 -19 -16h-13q-16 0 -14 16z" />
    <glyph glyph-name="dagger" unicode="&#x2020;" horiz-adv-x="391" 
d="M27 552h145v189q0 9 9 9h28q10 0 10 -9v-189h145q9 0 9 -9v-26q0 -9 -9 -9h-145v-649q0 -9 -10 -9h-28q-9 0 -9 9v649h-145q-10 0 -10 9v26q0 9 10 9z" />
    <glyph glyph-name="daggerdbl" unicode="&#x2021;" horiz-adv-x="391" 
d="M172 -141v183h-145q-10 0 -10 10v26q0 9 10 9h145v426h-145q-10 0 -10 10v25q0 10 10 10h145v183q0 9 9 9h28q10 0 10 -9v-183h145q9 0 9 -10v-25q0 -10 -9 -10h-145v-426h145q9 0 9 -9v-26q0 -10 -9 -10h-145v-183q0 -9 -10 -9h-28q-9 0 -9 9z" />
    <glyph glyph-name="bullet" unicode="&#x2022;" horiz-adv-x="260" 
d="M46 255v99q0 16 9.5 25.5t25.5 9.5h99q16 0 25.5 -9.5t9.5 -25.5v-99q0 -16 -9.5 -25.5t-25.5 -9.5h-99q-16 0 -25.5 9.5t-9.5 25.5z" />
    <glyph glyph-name="ellipsis" unicode="&#x2026;" horiz-adv-x="494" 
d="M46 18v40q0 18 17 18h38q18 0 18 -18v-40q0 -18 -18 -18h-38q-17 0 -17 18zM210 18v40q0 18 18 18h38q18 0 18 -18v-40q0 -18 -18 -18h-38q-18 0 -18 18zM375 18v40q0 18 18 18h38q18 0 18 -18v-40q0 -18 -18 -18h-38q-18 0 -18 18z" />
    <glyph glyph-name="perthousand" unicode="&#x2030;" horiz-adv-x="1043" 
d="M110 28l471 672q3 4 7 4q2 0 6 -2l22 -16q8 -5 3 -13l-470 -672q-3 -5 -8 -5q-3 0 -5 3l-23 15q-7 5 -3 14zM92 593v-165q0 -28 18 -46t46 -18h19q29 0 46.5 18t17.5 46v165q0 29 -17.5 46.5t-46.5 17.5h-19q-28 0 -46 -17.5t-18 -46.5zM46 431v159q0 51 31 82.5t82 31.5
h12q52 0 83.5 -31.5t31.5 -82.5v-159q0 -51 -31.5 -82.5t-83.5 -31.5h-12q-51 0 -82 31.5t-31 82.5zM444 111v158q0 51 31 82.5t83 31.5h12q51 0 82.5 -31.5t31.5 -82.5v-158q0 -52 -31.5 -83.5t-82.5 -31.5h-12q-52 0 -83 31.5t-31 83.5zM491 272v-165q0 -29 17.5 -46.5
t46.5 -17.5h18q29 0 46.5 17.5t17.5 46.5v165q0 28 -17.5 46t-46.5 18h-18q-29 0 -46.5 -17.5t-17.5 -46.5zM757 111v158q0 51 31.5 82.5t82.5 31.5h12q51 0 82.5 -31.5t31.5 -82.5v-158q0 -52 -31.5 -83.5t-82.5 -31.5h-12q-51 0 -82.5 31.5t-31.5 83.5zM804 272v-165
q0 -29 17.5 -46.5t46.5 -17.5h18q29 0 46.5 17.5t17.5 46.5v165q0 29 -17.5 46.5t-46.5 17.5h-18q-29 0 -46.5 -17.5t-17.5 -46.5z" />
    <glyph glyph-name="guilsinglleft" unicode="&#x2039;" horiz-adv-x="262" 
d="M230 457l-159 -152l159 -151q9 -9 1 -17l-17 -17q-6 -4 -9 -4q-2 0 -8 4l-169 161q-8 8 -8 20v8q0 12 8 20l169 161q6 4 9 4q2 0 8 -4l17 -17q7 -7 -1 -16z" />
    <glyph glyph-name="guilsinglright" unicode="&#x203a;" horiz-adv-x="262" 
d="M190 305l-159 152q-8 8 0 16l17 17q4 4 8 4t8 -4l169 -161q9 -9 9 -20v-8q0 -11 -9 -20l-169 -161q-4 -4 -8 -4t-8 4l-17 17q-9 9 0 17z" />
    <glyph glyph-name="fraction" unicode="&#x2044;" horiz-adv-x="577" 
d="M2 -19l535 764q3 5 7 5q2 0 6 -2l23 -16q7 -6 2 -14l-534 -763q-3 -5 -8 -5q-2 0 -6 2l-22 16q-9 5 -3 13z" />
    <glyph glyph-name="Euro" unicode="&#x20ac;" horiz-adv-x="435" 
d="M7 276v24q0 11 12 11h54v78h-54q-12 0 -12 12v23q0 12 12 12h54v148q0 54 33 87t87 33h73q54 0 87.5 -33t33.5 -87v-70q0 -12 -12 -12h-33q-11 0 -11 12v72q0 28 -17 45t-45 17h-78q-28 0 -45 -17t-17 -45v-150h142q12 0 12 -12v-23q0 -12 -12 -12h-142v-78h142
q12 0 12 -11v-24q0 -12 -12 -12h-142v-150q0 -28 17 -45t45 -17h78q28 0 45 17t17 45v72q0 12 11 12h33q12 0 12 -12v-70q0 -54 -33.5 -87t-87.5 -33h-73q-54 0 -87 33t-33 87v148h-54q-12 0 -12 12z" />
    <glyph glyph-name="uni20B4" unicode="&#x20b4;" horiz-adv-x="397" 
d="M29 276v23q0 12 11 12h84l69 77h-153q-11 0 -11 12v23q0 12 11 12h194l33 36q30 33 30 78v39q0 27 -17 43.5t-45 16.5h-66q-28 0 -45 -17t-17 -45v-52q0 -12 -11 -12h-33q-12 0 -12 12v50q0 54 33.5 87t87.5 33h61q54 0 87 -32t33 -85v-34q0 -67 -44 -118h41q12 0 12 -12
v-23q0 -12 -12 -12h-82l-69 -77h151q12 0 12 -12v-23q0 -12 -12 -12h-193l-22 -25q-31 -33 -31 -77v-50q0 -27 17 -43.5t45 -16.5h76q28 0 45 17t17 45v52q0 12 12 12h33q11 0 11 -12v-50q0 -54 -33 -87t-87 -33h-71q-55 0 -88 32t-33 84v46q0 56 35 106h-43q-11 0 -11 12z
" />
    <glyph glyph-name="afii61352" unicode="&#x2116;" horiz-adv-x="765" 
d="M525 593v-145q0 -29 18 -46.5t47 -17.5h18q28 0 46 18t18 46v145q0 29 -18 46.5t-46 17.5h-18q-29 0 -47 -17.5t-18 -46.5zM128 527v-515q0 -12 -12 -12h-33q-11 0 -11 12v676q0 12 11 12h24q11 0 16 -11l209 -519q4 -10 9 -31h2q-4 20 -4 32v517q0 12 11 12h33
q12 0 12 -12v-676q0 -12 -12 -12h-24q-11 0 -16 11l-209 517q-4 10 -9 31h-2q5 -25 5 -32zM479 239v23q0 11 12 11h216q12 0 12 -11v-23q0 -12 -12 -12h-216q-12 0 -12 12zM479 451v139q0 51 31 82.5t83 31.5h12q51 0 82.5 -31.5t31.5 -82.5v-139q0 -51 -31.5 -82.5
t-82.5 -31.5h-12q-52 0 -83 31.5t-31 82.5z" />
    <glyph glyph-name="trademark" unicode="&#x2122;" horiz-adv-x="485" 
d="M183 692v-22q0 -8 -9 -8h-62v-304q0 -8 -7 -8h-23q-8 0 -8 8v304h-61q-8 0 -8 8v22q0 8 8 8h161q9 0 9 -8zM239 358v334q0 8 8 8h26q8 0 10 -8l59 -179q3 -9 3 -22h1q0 13 3 22l59 180q3 7 11 7h25q8 0 8 -8v-334q0 -8 -8 -8h-20q-8 0 -8 8v235q0 13 3 22h-2
q-2 -11 -5 -22l-52 -155q-2 -8 -10 -8h-9q-7 0 -9 8l-54 156q-3 18 -4 21h-1q2 -12 2 -22v-235q0 -8 -7 -8h-21q-8 0 -8 8z" />
    <glyph glyph-name="arrowleft" unicode="&#x2190;" horiz-adv-x="575" 
d="M525 327h-409l125 -115q8 -7 1 -16l-17 -17q-4 -4 -9 -4t-8 4l-159 149q-8 8 -8 20v4q0 12 8 20l159 150q4 4 8 4q3 0 9 -4l16 -17q8 -8 0 -16l-125 -115h409q9 0 9 -10v-28q0 -9 -9 -9z" />
    <glyph glyph-name="arrowup" unicode="&#x2191;" horiz-adv-x="575" 
d="M264 113v409l-114 -125q-4 -4 -9 -4q-3 0 -8 3l-17 17q-8 9 0 17l149 158q7 9 20 9h5q13 0 19 -9l150 -158q9 -8 0 -17l-17 -17q-3 -3 -8 -3q-4 0 -8 4l-115 125v-409q0 -9 -10 -9h-28q-9 0 -9 9z" />
    <glyph glyph-name="arrowright" unicode="&#x2192;" horiz-adv-x="575" 
d="M459 327h-408q-10 0 -10 9v28q0 10 10 10h408l-125 115q-8 8 0 16l17 17q4 4 8 4t8 -4l159 -150q8 -8 8 -20v-4q0 -12 -8 -20l-159 -149q-3 -4 -8 -4t-8 4l-17 17q-9 9 0 16z" />
    <glyph glyph-name="arrowdown" unicode="&#x2193;" horiz-adv-x="575" 
d="M311 587v-408l115 125q4 4 8 4q5 0 8 -4l17 -17q8 -8 0 -16l-149 -159q-8 -8 -20 -8h-4q-12 0 -20 8l-150 159q-8 8 0 16l17 17q3 4 8 4q4 0 8 -4l115 -125v408q0 10 10 10h28q9 0 9 -10z" />
    <glyph glyph-name="uni2196" unicode="&#x2196;" horiz-adv-x="575" 
d="M439 166l-289 289l7 -169q0 -12 -11 -12h-24q-12 0 -12 11l-7 218q0 12 8 20l4 3q8 8 20 8l218 -6q11 0 11 -12v-24q0 -11 -11 -11l-170 7l289 -289q6 -7 0 -13l-20 -20q-3 -3 -7 -3q-3 0 -6 3z" />
    <glyph glyph-name="uni2197" unicode="&#x2197;" horiz-adv-x="575" 
d="M103 199l289 289l-169 -7q-12 -2 -12 11v24q0 12 12 12l217 7q11 0 20 -9l3 -3q9 -9 8 -20l-6 -218q0 -12 -12 -12h-23q-13 0 -11 12l6 170l-289 -289q-3 -3 -6 -3q-4 0 -7 3l-20 20q-7 6 0 13z" />
    <glyph glyph-name="uni2198" unicode="&#x2198;" horiz-adv-x="575" 
d="M137 535l289 -289l-8 169q0 12 11 12h24q12 0 12 -12l7 -217q0 -12 -8 -20l-3 -4q-8 -8 -20 -8l-218 6q-12 2 -12 12v24q0 13 12 11l170 -6l-289 289q-6 6 0 13l19 20q3 3 7 3t7 -3z" />
    <glyph glyph-name="uni2199" unicode="&#x2199;" horiz-adv-x="575" 
d="M472 501l-289 -289l169 8q12 0 12 -11v-25q0 -10 -11 -12l-218 -6q-12 0 -20 8l-3 3q-8 8 -8 20l6 218q0 12 12 12h24q11 0 11 -12l-7 -170l289 289q3 3 7 3q3 0 6 -3l20 -19q7 -7 0 -14z" />
    <glyph glyph-name="minus" unicode="&#x2212;" 
d="M50 338v28q0 12 12 12h279q12 0 12 -12v-28q0 -11 -12 -11h-279q-12 0 -12 11z" />
    <glyph glyph-name="approxequal" unicode="&#x2248;" 
d="M53 369v35q0 9 8 15l31 20q20 12 43 12q16 0 29 -6l88 -35q8 -4 19 -4q14 0 27 8l44 29q1 1 4 1q4 0 4 -6v-34q0 -9 -8 -15l-32 -20q-18 -12 -42 -12q-15 0 -30 6l-87 35q-8 4 -19 4q-16 0 -27 -8l-44 -29l-4 -2q-4 0 -4 6zM53 238v35q0 10 8 15l31 21q18 11 42 11
q19 0 30 -5l88 -35q8 -4 19 -4q16 0 27 7l44 29q2 2 4 2q4 0 4 -6v-35q0 -7 -8 -15l-32 -20q-18 -12 -42 -12q-15 0 -30 6l-87 36q-9 3 -19 3q-16 0 -27 -8l-44 -29l-4 -2q-4 0 -4 6z" />
    <glyph glyph-name="notequal" unicode="&#x2260;" 
d="M213 453l31 85q3 6 9 6q2 0 4 -1l26 -9q9 -4 5 -12l-25 -69h78q12 0 12 -12v-28q0 -12 -12 -12h-97l-36 -97h133q12 0 12 -12v-28q0 -12 -12 -12h-152l-32 -86q-1 -6 -12 -6l-26 10q-10 3 -6 12l26 70h-77q-12 0 -12 12v28q0 12 12 12h96l36 97h-132q-12 0 -12 12v28
q0 12 12 12h151z" />
    <glyph glyph-name="lessequal" unicode="&#x2264;" 
d="M50 118v28q0 12 12 12h279q12 0 12 -12v-28q0 -11 -12 -11h-279q-12 0 -12 11zM346 518l-214 -123l214 -124q11 -5 5 -16l-14 -24q-3 -6 -10 -6q-2 0 -6 2l-261 150q-10 5 -10 18q0 12 10 17l261 151q4 2 6 2q7 0 10 -7l14 -24q5 -12 -5 -16z" />
    <glyph glyph-name="greaterequal" unicode="&#x2265;" 
d="M270 395l-214 123q-9 4 -4 16l13 24q5 7 10 7q2 0 6 -2l262 -151q10 -6 10 -17q0 -12 -10 -18l-262 -150q-4 -2 -6 -2q-5 0 -10 6l-13 24q-6 11 4 16zM353 146v-28q0 -11 -12 -11h-279q-12 0 -12 11v28q0 12 12 12h279q12 0 12 -12z" />
    <glyph glyph-name="commaaccent" horiz-adv-x="134" 
d="M37 -135l12 81q2 13 15 13h23q13 0 10 -12l-24 -83q-3 -10 -14 -10h-13q-11 0 -9 11z" />
    <glyph glyph-name="A.smcp" horiz-adv-x="350" 
d="M171 433l-67 -276h141l-66 276q-3 12 -3 30h-2q0 -22 -3 -30zM280 10l-23 96h-164l-23 -96q-3 -10 -13 -10h-32q-12 0 -8 9l134 541q2 10 13 10h21q10 0 14 -9l134 -541q3 -10 -8 -10h-31q-11 0 -14 10z" />
    <glyph glyph-name="Aacute.smcp" horiz-adv-x="350" 
d="M171 433l-67 -276h141l-66 276q-3 12 -3 30h-2q0 -22 -3 -30zM280 10l-23 96h-164l-23 -96q-3 -10 -13 -10h-32q-12 0 -8 9l134 541q2 10 13 10h21q10 0 14 -9l134 -541q3 -10 -8 -10h-31q-11 0 -14 10zM147 611l43 73q5 8 14 8h47q10 0 3 -7l-64 -75q-7 -7 -16 -7h-23
q-9 0 -4 8z" />
    <glyph glyph-name="Abreve.smcp" horiz-adv-x="350" 
d="M171 433l-67 -276h141l-66 276q-3 12 -3 30h-2q0 -22 -3 -30zM280 10l-23 96h-164l-23 -96q-3 -10 -13 -10h-32q-12 0 -8 9l134 541q2 10 13 10h21q10 0 14 -9l134 -541q3 -10 -8 -10h-31q-11 0 -14 10zM254 675l-1 -8q-1 -29 -19 -46.5t-46 -17.5h-31q-29 0 -47 17.5
t-19 46.5v8q0 9 9 9h19q10 0 10 -9l2 -13q2 -22 23 -22h37q21 0 23 22l1 13q1 9 11 9h19q9 0 9 -9z" />
    <glyph glyph-name="Acircumflex.smcp" horiz-adv-x="350" 
d="M171 433l-67 -276h141l-66 276q-3 12 -3 30h-2q0 -22 -3 -30zM280 10l-23 96h-164l-23 -96q-3 -10 -13 -10h-32q-12 0 -8 9l134 541q2 10 13 10h21q10 0 14 -9l134 -541q3 -10 -8 -10h-31q-11 0 -14 10zM205 687l55 -75q4 -6 -4 -6h-29q-10 0 -15 7l-37 50l-38 -50
q-5 -7 -15 -7h-28q-8 0 -4 6l56 75q5 7 15 7h28q9 0 16 -7z" />
    <glyph glyph-name="Agrave.smcp" horiz-adv-x="350" 
d="M171 433l-67 -276h141l-66 276q-3 12 -3 30h-2q0 -22 -3 -30zM280 10l-23 96h-164l-23 -96q-3 -10 -13 -10h-32q-12 0 -8 9l134 541q2 10 13 10h21q10 0 14 -9l134 -541q3 -10 -8 -10h-31q-11 0 -14 10zM160 684l43 -73q5 -8 -4 -8h-23q-9 0 -16 7l-64 75q-7 7 3 7h48
q8 0 13 -8z" />
    <glyph glyph-name="Adieresis.smcp" horiz-adv-x="350" 
d="M171 433l-67 -276h141l-66 276q-3 12 -3 30h-2q0 -22 -3 -30zM280 10l-23 96h-164l-23 -96q-3 -10 -13 -10h-32q-12 0 -8 9l134 541q2 10 13 10h21q10 0 14 -9l134 -541q3 -10 -8 -10h-31q-11 0 -14 10zM92 629v22q0 18 18 18h21q18 0 18 -18v-22q0 -18 -18 -18h-21
q-18 0 -18 18zM203 629v22q0 18 18 18h22q18 0 18 -18v-22q0 -18 -18 -18h-22q-18 0 -18 18z" />
    <glyph glyph-name="Amacron.smcp" horiz-adv-x="350" 
d="M171 433l-67 -276h141l-66 276q-3 12 -3 30h-2q0 -22 -3 -30zM280 10l-23 96h-164l-23 -96q-3 -10 -13 -10h-32q-12 0 -8 9l134 541q2 10 13 10h21q10 0 14 -9l134 -541q3 -10 -8 -10h-31q-11 0 -14 10zM94 630v21q0 10 10 10h142q9 0 9 -10v-21q0 -9 -9 -9h-142
q-10 0 -10 9z" />
    <glyph glyph-name="Aogonek.smcp" horiz-adv-x="350" 
d="M171 433l-67 -276h141l-66 276q-3 12 -3 30h-2q0 -22 -3 -30zM293 0q-9 0 -12 8l-24 98h-164l-23 -96q-3 -10 -13 -10h-32q-12 0 -8 9l134 541q2 10 13 10h21q10 0 14 -9l134 -543q1 -5 -5 -8q-29 -48 -32 -74q-2 -17 13 -17h43q9 0 9 -10v-14q0 -10 -9 -10h-52
q-17 0 -28 11t-11 28q0 47 32 86z" />
    <glyph glyph-name="Aring.smcp" horiz-adv-x="350" 
d="M171 433l-67 -276h141l-66 276q-3 12 -3 30h-2q0 -22 -3 -30zM143 662q0 -13 9.5 -22.5t22.5 -9.5t22.5 9t9.5 23q0 13 -9.5 22.5t-22.5 9.5t-22.5 -9.5t-9.5 -22.5zM280 10l-23 96h-164l-23 -96q-3 -10 -13 -10h-32q-12 0 -8 9l134 541q2 10 13 10h21q10 0 14 -9
l134 -541q3 -10 -8 -10h-31q-11 0 -14 10zM112 662q0 26 18.5 44.5t44.5 18.5t45 -18.5t19 -44.5t-19 -45t-45 -19t-44.5 19t-18.5 45z" />
    <glyph glyph-name="Atilde.smcp" horiz-adv-x="350" 
d="M171 433l-67 -276h141l-66 276q-3 12 -3 30h-2q0 -22 -3 -30zM280 10l-23 96h-164l-23 -96q-3 -10 -13 -10h-32q-12 0 -8 9l134 541q2 10 13 10h21q10 0 14 -9l134 -541q3 -10 -8 -10h-31q-11 0 -14 10zM92 621v24q0 13 19 22.5t33 9.5q11 0 23 -6l24 -13q6 -3 14 -3
q9 0 40 18q2 2 4 2q4 0 4 -6v-24q0 -13 -18.5 -22t-33.5 -9q-13 0 -23 6l-24 13q-8 3 -14 3q-10 0 -40 -19q-2 -2 -4 -2q-4 0 -4 6z" />
    <glyph glyph-name="AE.smcp" horiz-adv-x="497" 
d="M236 435l-108 -278h114v277q0 5 2 17t2 15h-2q-2 -17 -8 -31zM467 41v-30q0 -11 -11 -11h-203q-11 0 -11 11v95h-134l-38 -96q-2 -10 -13 -10h-32q-12 0 -8 9l216 541q3 10 14 10h209q11 0 11 -11v-30q0 -10 -11 -10h-162v-224h128q10 0 10 -11v-30q0 -11 -10 -11h-128
v-181h162q11 0 11 -11z" />
    <glyph glyph-name="AEacute.smcp" horiz-adv-x="497" 
d="M236 435l-108 -278h114v277q0 5 2 17t2 15h-2q-2 -17 -8 -31zM467 41v-30q0 -11 -11 -11h-203q-11 0 -11 11v95h-134l-38 -96q-2 -10 -13 -10h-32q-12 0 -8 9l216 541q3 10 14 10h209q11 0 11 -11v-30q0 -10 -11 -10h-162v-224h128q10 0 10 -11v-30q0 -11 -10 -11h-128
v-181h162q11 0 11 -11zM247 611l44 73q3 8 13 8h47q10 0 3 -7l-64 -75q-5 -7 -16 -7h-22q-8 0 -5 8z" />
    <glyph glyph-name="B.smcp" horiz-adv-x="359" 
d="M268 98v119q0 21 -13 33.5t-35 12.5h-109v-211h109q22 0 35 12.5t13 33.5zM252 360v102q0 21 -14 34t-36 13h-91v-195h91q23 0 36.5 12.5t13.5 33.5zM320 203v-103q0 -45 -28.5 -72.5t-74.5 -27.5h-147q-10 0 -10 11v538q0 11 10 11h130q46 0 74.5 -27.5t28.5 -71.5v-87
q0 -54 -39 -81q56 -24 56 -90z" />
    <glyph glyph-name="C.smcp" horiz-adv-x="358" 
d="M265 95v56q0 11 11 11h30q11 0 11 -11v-54q0 -46 -28 -73t-75 -27h-60q-46 0 -74 27t-28 73v366q0 46 28 73t74 27h60q47 0 75 -27t28 -73v-54q0 -11 -11 -11h-30q-11 0 -11 11v57q0 20 -13 33t-35 13h-65q-22 0 -35.5 -13t-13.5 -33v-371q0 -21 13.5 -33.5t35.5 -12.5
h65q22 0 35 12.5t13 33.5z" />
    <glyph glyph-name="Cacute.smcp" horiz-adv-x="358" 
d="M265 95v56q0 11 11 11h30q11 0 11 -11v-54q0 -46 -28 -73t-75 -27h-60q-46 0 -74 27t-28 73v366q0 46 28 73t74 27h60q47 0 75 -27t28 -73v-54q0 -11 -11 -11h-30q-11 0 -11 11v57q0 20 -13 33t-35 13h-65q-22 0 -35.5 -13t-13.5 -33v-371q0 -21 13.5 -33.5t35.5 -12.5
h65q22 0 35 12.5t13 33.5zM156 611l43 73q5 8 13 8h48q10 0 3 -7l-64 -75q-7 -7 -16 -7h-23q-9 0 -4 8z" />
    <glyph glyph-name="Ccaron.smcp" horiz-adv-x="358" 
d="M265 95v56q0 11 11 11h30q11 0 11 -11v-54q0 -46 -28 -73t-75 -27h-60q-46 0 -74 27t-28 73v366q0 46 28 73t74 27h60q47 0 75 -27t28 -73v-54q0 -11 -11 -11h-30q-11 0 -11 11v57q0 20 -13 33t-35 13h-65q-22 0 -35.5 -13t-13.5 -33v-371q0 -21 13.5 -33.5t35.5 -12.5
h65q22 0 35 12.5t13 33.5zM269 687l-55 -74q-7 -7 -16 -7h-28q-9 0 -16 7l-55 74q-4 7 4 7h28q8 0 15 -7l38 -50l37 49q5 8 15 8h29q8 0 4 -7z" />
    <glyph glyph-name="Ccedilla.smcp" horiz-adv-x="358" 
d="M242 -77v-19q0 -19 -11.5 -30.5t-30.5 -11.5h-55q-10 0 -10 10v12q0 9 10 9h48q15 0 15 15v10q0 15 -15 15h-27q-7 0 -10.5 4.5t-2.5 11.5l8 48h-7q-46 0 -74 27t-28 73v366q0 46 28 73t74 27h60q47 0 75 -27t28 -73v-54q0 -11 -11 -11h-30q-11 0 -11 11v57q0 20 -13 33
t-35 13h-65q-22 0 -35.5 -13t-13.5 -33v-371q0 -21 13.5 -33.5t35.5 -12.5h65q22 0 35 12.5t13 33.5v56q0 11 11 11h30q11 0 11 -11v-54q0 -46 -28 -73t-75 -27h-16l-6 -32h8q19 0 30.5 -11.5t11.5 -30.5z" />
    <glyph glyph-name="Ccircumflex.smcp" horiz-adv-x="358" 
d="M265 95v56q0 11 11 11h30q11 0 11 -11v-54q0 -46 -28 -73t-75 -27h-60q-46 0 -74 27t-28 73v366q0 46 28 73t74 27h60q47 0 75 -27t28 -73v-54q0 -11 -11 -11h-30q-11 0 -11 11v57q0 20 -13 33t-35 13h-65q-22 0 -35.5 -13t-13.5 -33v-371q0 -21 13.5 -33.5t35.5 -12.5
h65q22 0 35 12.5t13 33.5zM214 687l55 -75q5 -6 -4 -6h-29q-10 0 -15 7l-37 50l-38 -50q-7 -7 -15 -7h-28q-9 0 -4 6l55 75q7 7 16 7h28q9 0 16 -7z" />
    <glyph glyph-name="Cdotaccent.smcp" horiz-adv-x="358" 
d="M265 95v56q0 11 11 11h30q11 0 11 -11v-54q0 -46 -28 -73t-75 -27h-60q-46 0 -74 27t-28 73v366q0 46 28 73t74 27h60q47 0 75 -27t28 -73v-54q0 -11 -11 -11h-30q-11 0 -11 11v57q0 20 -13 33t-35 13h-65q-22 0 -35.5 -13t-13.5 -33v-371q0 -21 13.5 -33.5t35.5 -12.5
h65q22 0 35 12.5t13 33.5zM152 629v26q0 18 17 18h29q18 0 18 -18v-26q0 -18 -18 -18h-29q-17 0 -17 18z" />
    <glyph glyph-name="D.smcp" horiz-adv-x="376" 
d="M273 98v364q0 21 -13.5 34t-35.5 13h-113v-457h113q22 0 35.5 12.5t13.5 33.5zM324 460v-360q0 -45 -28 -72.5t-74 -27.5h-152q-10 0 -10 11v538q0 11 10 11h152q46 0 74 -27.5t28 -72.5z" />
    <glyph glyph-name="Dcaron.smcp" horiz-adv-x="376" 
d="M273 98v364q0 21 -13.5 34t-35.5 13h-113v-457h113q22 0 35.5 12.5t13.5 33.5zM324 460v-360q0 -45 -28 -72.5t-74 -27.5h-152q-10 0 -10 11v538q0 11 10 11h152q46 0 74 -27.5t28 -72.5zM261 687l-55 -74q-7 -7 -15 -7h-29q-10 0 -15 7l-56 74q-4 7 4 7h28q10 0 15 -7
l38 -50l37 49q5 8 15 8h29q8 0 4 -7z" />
    <glyph glyph-name="Dcroat.smcp" horiz-adv-x="376" 
d="M273 98v364q0 21 -13.5 34t-35.5 13h-113v-200h77q10 0 10 -11v-21q0 -11 -10 -11h-77v-214h113q22 0 35.5 12.5t13.5 33.5zM325 460v-360q0 -45 -28.5 -72.5t-74.5 -27.5h-152q-10 0 -10 11v255h-35q-11 0 -11 11v21q0 11 11 11h35v240q0 11 10 11h152q46 0 74.5 -27.5
t28.5 -72.5z" />
    <glyph glyph-name="Eth.smcp" horiz-adv-x="376" 
d="M273 98v364q0 21 -13.5 34t-35.5 13h-113v-200h77q10 0 10 -11v-21q0 -11 -10 -11h-77v-214h113q22 0 35.5 12.5t13.5 33.5zM325 460v-360q0 -45 -28.5 -72.5t-74.5 -27.5h-152q-10 0 -10 11v255h-35q-11 0 -11 11v21q0 11 11 11h35v240q0 11 10 11h152q46 0 74.5 -27.5
t28.5 -72.5z" />
    <glyph glyph-name="Thorn.smcp" horiz-adv-x="341" 
d="M111 402v-235h97q22 0 35 13t13 33v143q0 21 -13 33.5t-35 12.5h-97zM308 354v-138q0 -45 -28.5 -73t-74.5 -28h-94v-104q0 -11 -11 -11h-30q-10 0 -10 11v538q0 11 10 11h30q11 0 11 -11v-95h94q46 0 74.5 -27.5t28.5 -72.5z" />
    <glyph glyph-name="E.smcp" horiz-adv-x="313" 
d="M111 52h162q11 0 11 -11v-30q0 -11 -11 -11h-203q-10 0 -10 11v538q0 11 10 11h203q11 0 11 -11v-30q0 -10 -11 -10h-162v-224h128q10 0 10 -11v-30q0 -11 -10 -11h-128v-181z" />
    <glyph glyph-name="Eacute.smcp" horiz-adv-x="313" 
d="M111 52h162q11 0 11 -11v-30q0 -11 -11 -11h-203q-10 0 -10 11v538q0 11 10 11h203q11 0 11 -11v-30q0 -10 -11 -10h-162v-224h128q10 0 10 -11v-30q0 -11 -10 -11h-128v-181zM144 611l43 73q5 8 14 8h47q10 0 3 -7l-64 -75q-7 -7 -16 -7h-23q-9 0 -4 8z" />
    <glyph glyph-name="Ebreve.smcp" horiz-adv-x="313" 
d="M111 52h162q11 0 11 -11v-30q0 -11 -11 -11h-203q-10 0 -10 11v538q0 11 10 11h203q11 0 11 -11v-30q0 -10 -11 -10h-162v-224h128q10 0 10 -11v-30q0 -11 -10 -11h-128v-181zM251 675v-8q-1 -29 -19 -46.5t-47 -17.5h-31q-28 0 -46 17.5t-19 46.5l-1 8q0 9 9 9h19
q10 0 11 -9l1 -13q2 -22 23 -22h37q21 0 23 22l2 13q0 9 10 9h19q9 0 9 -9z" />
    <glyph glyph-name="Ecaron.smcp" horiz-adv-x="313" 
d="M111 52h162q11 0 11 -11v-30q0 -11 -11 -11h-203q-10 0 -10 11v538q0 11 10 11h203q11 0 11 -11v-30q0 -10 -11 -10h-162v-224h128q10 0 10 -11v-30q0 -11 -10 -11h-128v-181zM257 687l-55 -74q-7 -7 -15 -7h-29q-10 0 -15 7l-55 74q-6 7 3 7h28q10 0 15 -7l38 -50l37 49
q5 8 15 8h29q8 0 4 -7z" />
    <glyph glyph-name="Ecircumflex.smcp" horiz-adv-x="313" 
d="M111 52h162q11 0 11 -11v-30q0 -11 -11 -11h-203q-10 0 -10 11v538q0 11 10 11h203q11 0 11 -11v-30q0 -10 -11 -10h-162v-224h128q10 0 10 -11v-30q0 -11 -10 -11h-128v-181zM202 687l55 -75q5 -6 -4 -6h-29q-10 0 -15 7l-37 50l-38 -50q-5 -7 -15 -7h-28q-9 0 -3 6
l55 75q5 7 15 7h29q8 0 15 -7z" />
    <glyph glyph-name="Edieresis.smcp" horiz-adv-x="313" 
d="M111 52h162q11 0 11 -11v-30q0 -11 -11 -11h-203q-10 0 -10 11v538q0 11 10 11h203q11 0 11 -11v-30q0 -10 -11 -10h-162v-224h128q10 0 10 -11v-30q0 -11 -10 -11h-128v-181zM200 629v22q0 18 18 18h22q18 0 18 -18v-22q0 -18 -18 -18h-22q-18 0 -18 18zM89 629v22
q0 18 18 18h22q17 0 17 -18v-22q0 -18 -17 -18h-22q-18 0 -18 18z" />
    <glyph glyph-name="Edotaccent.smcp" horiz-adv-x="313" 
d="M111 52h162q11 0 11 -11v-30q0 -11 -11 -11h-203q-10 0 -10 11v538q0 11 10 11h203q11 0 11 -11v-30q0 -10 -11 -10h-162v-224h128q10 0 10 -11v-30q0 -11 -10 -11h-128v-181zM140 629v26q0 18 18 18h28q18 0 18 -18v-26q0 -18 -18 -18h-28q-18 0 -18 18z" />
    <glyph glyph-name="Egrave.smcp" horiz-adv-x="313" 
d="M111 52h162q11 0 11 -11v-30q0 -11 -11 -11h-203q-10 0 -10 11v538q0 11 10 11h203q11 0 11 -11v-30q0 -10 -11 -10h-162v-224h128q10 0 10 -11v-30q0 -11 -10 -11h-128v-181zM157 684l44 -73q3 -8 -5 -8h-23q-10 0 -15 7l-65 75q-5 7 4 7h47q8 0 13 -8z" />
    <glyph glyph-name="Emacron.smcp" horiz-adv-x="313" 
d="M111 52h162q11 0 11 -11v-30q0 -11 -11 -11h-203q-10 0 -10 11v538q0 11 10 11h203q11 0 11 -11v-30q0 -10 -11 -10h-162v-224h128q10 0 10 -11v-30q0 -11 -10 -11h-128v-181zM91 630v21q0 10 10 10h142q9 0 9 -10v-21q0 -9 -9 -9h-142q-10 0 -10 9z" />
    <glyph glyph-name="Eogonek.smcp" horiz-adv-x="313" 
d="M215 0h-145q-10 0 -10 11v538q0 11 10 11h203q11 0 11 -11v-30q0 -10 -11 -10h-162v-224h128q10 0 10 -11v-30q0 -11 -10 -11h-128v-181h162q11 0 11 -11v-30q0 -11 -11 -11h-22q-29 -42 -31 -73q-2 -17 13 -17h42q10 0 10 -9v-15q0 -9 -10 -9h-51q-18 0 -28.5 10.5
t-10.5 28.5q0 46 30 84z" />
    <glyph glyph-name="F.smcp" horiz-adv-x="309" 
d="M111 509v-224h128q10 0 10 -11v-30q0 -11 -10 -11h-128v-222q0 -11 -11 -11h-30q-10 0 -10 11v538q0 11 10 11h203q11 0 11 -11v-30q0 -10 -11 -10h-162z" />
    <glyph glyph-name="G.smcp" horiz-adv-x="366" 
d="M323 463v-54q0 -11 -11 -11h-30q-10 0 -10 11v57q0 20 -14 33t-36 13h-70q-22 0 -35.5 -13t-13.5 -33v-371q0 -21 13.5 -33.5t35.5 -12.5h70q23 0 36.5 12.5t13.5 33.5v140h-80q-11 0 -11 11v31q0 10 11 10h120q11 0 11 -10v-180q0 -46 -28 -73t-75 -27h-66q-46 0 -74 27
t-28 73v366q0 46 28 73t74 27h66q47 0 75 -27t28 -73z" />
    <glyph glyph-name="Gbreve.smcp" horiz-adv-x="366" 
d="M323 463v-54q0 -11 -11 -11h-30q-10 0 -10 11v57q0 20 -14 33t-36 13h-70q-22 0 -35.5 -13t-13.5 -33v-371q0 -21 13.5 -33.5t35.5 -12.5h70q23 0 36.5 12.5t13.5 33.5v140h-80q-11 0 -11 11v31q0 10 11 10h120q11 0 11 -10v-180q0 -46 -28 -73t-75 -27h-66q-46 0 -74 27
t-28 73v366q0 46 28 73t74 27h66q47 0 75 -27t28 -73zM265 669v-8q-1 -28 -18.5 -45.5t-46.5 -17.5h-32q-29 0 -46.5 17.5t-18.5 45.5v8q0 10 9 10h18q9 0 11 -10l1 -12q2 -22 24 -22h36q22 0 24 22l1 12q2 10 11 10h18q9 0 9 -10z" />
    <glyph glyph-name="Gcircumflex.smcp" horiz-adv-x="366" 
d="M323 463v-54q0 -11 -11 -11h-30q-10 0 -10 11v57q0 20 -14 33t-36 13h-70q-22 0 -35.5 -13t-13.5 -33v-371q0 -21 13.5 -33.5t35.5 -12.5h70q23 0 36.5 12.5t13.5 33.5v140h-80q-11 0 -11 11v31q0 10 11 10h120q11 0 11 -10v-180q0 -46 -28 -73t-75 -27h-66q-46 0 -74 27
t-28 73v366q0 46 28 73t74 27h66q47 0 75 -27t28 -73zM216 681l55 -74q5 -7 -3 -7h-30q-9 0 -14 8l-37 49l-38 -49q-6 -8 -16 -8h-27q-9 0 -4 7l55 74q6 8 15 8h29q10 0 15 -8z" />
    <glyph glyph-name="Gcommaaccent.smcp" horiz-adv-x="366" 
d="M323 463v-54q0 -11 -11 -11h-30q-10 0 -10 11v57q0 20 -14 33t-36 13h-70q-22 0 -35.5 -13t-13.5 -33v-371q0 -21 13.5 -33.5t35.5 -12.5h70q23 0 36.5 12.5t13.5 33.5v140h-80q-11 0 -11 11v31q0 10 11 10h120q11 0 11 -10v-180q0 -46 -28 -73t-75 -27h-66q-46 0 -74 27
t-28 73v366q0 46 28 73t74 27h66q47 0 75 -27t28 -73zM146 -135l12 81q2 13 15 13h24q13 0 10 -12l-25 -83q-2 -10 -14 -10h-12q-12 0 -10 11z" />
    <glyph glyph-name="Gdotaccent.smcp" horiz-adv-x="366" 
d="M323 463v-54q0 -11 -11 -11h-30q-10 0 -10 11v57q0 20 -14 33t-36 13h-70q-22 0 -35.5 -13t-13.5 -33v-371q0 -21 13.5 -33.5t35.5 -12.5h70q23 0 36.5 12.5t13.5 33.5v140h-80q-11 0 -11 11v31q0 10 11 10h120q11 0 11 -10v-180q0 -46 -28 -73t-75 -27h-66q-46 0 -74 27
t-28 73v366q0 46 28 73t74 27h66q47 0 75 -27t28 -73zM154 623v27q0 18 18 18h29q17 0 17 -18v-27q0 -17 -17 -17h-29q-18 0 -18 17z" />
    <glyph glyph-name="H.smcp" horiz-adv-x="384" 
d="M284 560h30q10 0 10 -11v-538q0 -11 -10 -11h-30q-11 0 -11 11v222h-162v-222q0 -11 -11 -11h-30q-10 0 -10 11v538q0 11 10 11h30q11 0 11 -11v-264h162v264q0 11 11 11z" />
    <glyph glyph-name="Hbar.smcp" horiz-adv-x="384" 
d="M111 424v-139h162v139h-162zM273 233h-162v-222q0 -11 -10 -11h-31q-10 0 -10 11v413h-35q-11 0 -11 11v22q0 11 11 11h35v81q0 11 10 11h31q10 0 10 -11v-81h162v81q0 11 11 11h30q11 0 11 -11v-81h34q11 0 11 -11v-22q0 -11 -11 -11h-34v-413q0 -11 -11 -11h-30
q-11 0 -11 11v222z" />
    <glyph glyph-name="Hcircumflex.smcp" horiz-adv-x="384" 
d="M284 560h30q10 0 10 -11v-538q0 -11 -10 -11h-30q-11 0 -11 11v222h-162v-222q0 -11 -11 -11h-30q-10 0 -10 11v538q0 11 10 11h30q11 0 11 -11v-264h162v264q0 11 11 11zM222 687l55 -75q5 -6 -4 -6h-29q-10 0 -15 7l-37 50l-38 -50q-5 -7 -15 -7h-28q-8 0 -4 6l56 75
q5 7 15 7h29q8 0 15 -7z" />
    <glyph glyph-name="I.smcp" horiz-adv-x="242" 
d="M213 39v-28q0 -11 -11 -11h-162q-11 0 -11 11v28q0 10 11 10h55v462h-55q-11 0 -11 11v27q0 11 11 11h162q11 0 11 -11v-27q0 -11 -11 -11h-56v-462h56q11 0 11 -10z" />
    <glyph glyph-name="Iacute.smcp" horiz-adv-x="242" 
d="M213 39v-28q0 -11 -11 -11h-162q-11 0 -11 11v28q0 10 11 10h55v462h-55q-11 0 -11 11v27q0 11 11 11h162q11 0 11 -11v-27q0 -11 -11 -11h-56v-462h56q11 0 11 -10zM93 611l43 73q5 8 14 8h47q10 0 3 -7l-64 -75q-7 -7 -16 -7h-23q-9 0 -4 8z" />
    <glyph glyph-name="Ibreve.smcp" horiz-adv-x="242" 
d="M213 39v-28q0 -11 -11 -11h-162q-11 0 -11 11v28q0 10 11 10h55v462h-55q-11 0 -11 11v27q0 11 11 11h162q11 0 11 -11v-27q0 -11 -11 -11h-56v-462h56q11 0 11 -10zM200 675v-8q-1 -28 -19 -46t-47 -18h-31q-29 0 -47 18t-19 46v8q0 9 9 9h19q9 0 11 -9l1 -13
q2 -22 23 -22h37q21 0 23 22l1 13q1 9 11 9h19q9 0 9 -9z" />
    <glyph glyph-name="Icircumflex.smcp" horiz-adv-x="242" 
d="M213 39v-28q0 -11 -11 -11h-162q-11 0 -11 11v28q0 10 11 10h55v462h-55q-11 0 -11 11v27q0 11 11 11h162q11 0 11 -11v-27q0 -11 -11 -11h-56v-462h56q11 0 11 -10zM151 687l55 -75q5 -6 -4 -6h-29q-10 0 -15 7l-37 50l-38 -50q-5 -7 -15 -7h-28q-8 0 -4 6l56 75
q5 7 15 7h28q9 0 16 -7z" />
    <glyph glyph-name="Idieresis.smcp" horiz-adv-x="242" 
d="M213 39v-28q0 -11 -11 -11h-162q-11 0 -11 11v28q0 10 11 10h55v462h-55q-11 0 -11 11v27q0 11 11 11h162q11 0 11 -11v-27q0 -11 -11 -11h-56v-462h56q11 0 11 -10zM149 629v22q0 18 18 18h22q18 0 18 -18v-22q0 -18 -18 -18h-22q-18 0 -18 18zM38 629v22q0 18 18 18h21
q18 0 18 -18v-22q0 -18 -18 -18h-21q-18 0 -18 18z" />
    <glyph glyph-name="Idotaccent.smcp" horiz-adv-x="242" 
d="M213 39v-28q0 -11 -11 -11h-162q-11 0 -11 11v28q0 10 11 10h55v462h-55q-11 0 -11 11v27q0 11 11 11h162q11 0 11 -11v-27q0 -11 -11 -11h-56v-462h56q11 0 11 -10zM89 629v26q0 18 18 18h28q18 0 18 -18v-26q0 -18 -18 -18h-28q-18 0 -18 18z" />
    <glyph glyph-name="Igrave.smcp" horiz-adv-x="242" 
d="M213 39v-28q0 -11 -11 -11h-162q-11 0 -11 11v28q0 10 11 10h55v462h-55q-11 0 -11 11v27q0 11 11 11h162q11 0 11 -11v-27q0 -11 -11 -11h-56v-462h56q11 0 11 -10zM106 684l43 -73q5 -8 -4 -8h-23q-9 0 -16 7l-64 75q-7 7 3 7h48q8 0 13 -8z" />
    <glyph glyph-name="Imacron.smcp" horiz-adv-x="242" 
d="M213 39v-28q0 -11 -11 -11h-162q-11 0 -11 11v28q0 10 11 10h55v462h-55q-11 0 -11 11v27q0 11 11 11h162q11 0 11 -11v-27q0 -11 -11 -11h-56v-462h56q11 0 11 -10zM40 630v21q0 10 10 10h142q9 0 9 -10v-21q0 -9 -9 -9h-142q-10 0 -10 9z" />
    <glyph glyph-name="Iogonek.smcp" horiz-adv-x="242" 
d="M104 0h-64q-11 0 -11 11v28q0 10 11 10h55v462h-55q-11 0 -11 11v27q0 11 11 11h162q11 0 11 -11v-27q0 -11 -11 -11h-56v-462h56q11 0 11 -10v-28q0 -11 -11 -11h-63q-28 -40 -31 -73q-2 -17 13 -17h43q9 0 9 -9v-15q0 -9 -9 -9h-52q-17 0 -28 10.5t-11 28.5q0 44 31 84
z" />
    <glyph glyph-name="Itilde.smcp" horiz-adv-x="242" 
d="M213 39v-28q0 -11 -11 -11h-162q-11 0 -11 11v28q0 10 11 10h55v462h-55q-11 0 -11 11v27q0 11 11 11h162q11 0 11 -11v-27q0 -11 -11 -11h-56v-462h56q11 0 11 -10zM38 621v24q0 13 19 22.5t33 9.5q11 0 23 -6l24 -13q6 -3 14 -3q9 0 40 18q2 2 4 2q4 0 4 -6v-24
q0 -13 -18.5 -22t-33.5 -9q-13 0 -23 6l-24 13q-8 3 -14 3q-10 0 -40 -19q-2 -2 -4 -2q-4 0 -4 6z" />
    <glyph glyph-name="IJ.smcp" horiz-adv-x="568" 
d="M213 39v-28q0 -11 -11 -11h-162q-11 0 -11 11v28q0 10 11 10h55v462h-55q-11 0 -11 11v27q0 11 11 11h162q11 0 11 -11v-27q0 -11 -11 -11h-56v-462h56q11 0 11 -10zM387 560h117q11 0 11 -11v-452q0 -46 -28 -73t-75 -27h-49q-46 0 -74.5 27.5t-28.5 72.5v34q0 10 11 10
h30q11 0 11 -10v-36q0 -21 13.5 -33.5t35.5 -12.5h54q22 0 35 12.5t13 33.5v416h-76q-11 0 -11 11v27q0 11 11 11z" />
    <glyph glyph-name="J.smcp" horiz-adv-x="326" 
d="M146 560h116q11 0 11 -11v-452q0 -46 -28 -73t-74 -27h-50q-46 0 -74 27t-28 73v34q0 10 11 10h29q11 0 11 -10v-36q0 -21 13.5 -33.5t35.5 -12.5h54q22 0 35.5 12.5t13.5 33.5v416h-76q-11 0 -11 11v27q0 11 11 11z" />
    <glyph glyph-name="Jcircumflex.smcp" horiz-adv-x="326" 
d="M146 560h116q11 0 11 -11v-452q0 -46 -28 -73t-74 -27h-50q-46 0 -74 27t-28 73v34q0 10 11 10h29q11 0 11 -10v-36q0 -21 13.5 -33.5t35.5 -12.5h54q22 0 35.5 12.5t13.5 33.5v416h-76q-11 0 -11 11v27q0 11 11 11zM233 687l55 -75q4 -6 -3 -6h-29q-10 0 -15 7l-37 50
l-38 -50q-7 -7 -15 -7h-28q-8 0 -4 6l55 75q7 7 15 7h29q10 0 15 -7z" />
    <glyph glyph-name="K.smcp" horiz-adv-x="342" 
d="M270 9l-150 280l136 262q5 9 16 9h36q11 0 6 -9l-136 -262l149 -280q5 -9 -6 -9h-36q-11 0 -15 9zM60 11v538q0 11 10 11h30q11 0 11 -11v-538q0 -11 -11 -11h-30q-10 0 -10 11z" />
    <glyph glyph-name="Kcommaaccent.smcp" horiz-adv-x="342" 
d="M60 11v538q0 11 10 11h30q11 0 11 -11v-538q0 -11 -11 -11h-30q-10 0 -10 11zM270 9l-150 280l136 262q5 9 16 9h36q11 0 6 -9l-136 -262l149 -280q5 -9 -6 -9h-36q-11 0 -15 9zM130 -135l12 81q2 13 15 13h23q13 0 10 -12l-24 -83q-3 -10 -14 -10h-13q-11 0 -9 11z" />
    <glyph glyph-name="L.smcp" horiz-adv-x="292" 
d="M60 11v538q0 11 10 11h30q11 0 11 -11v-497h157q10 0 10 -11v-30q0 -11 -10 -11h-198q-10 0 -10 11z" />
    <glyph glyph-name="Lacute.smcp" horiz-adv-x="292" 
d="M60 11v538q0 11 10 11h30q11 0 11 -11v-497h157q10 0 10 -11v-30q0 -11 -10 -11h-198q-10 0 -10 11zM63 611l44 73q3 8 13 8h47q10 0 3 -7l-64 -75q-7 -7 -16 -7h-22q-8 0 -5 8z" />
    <glyph glyph-name="Lcaron.smcp" horiz-adv-x="292" 
d="M60 11v538q0 11 10 11h30q11 0 11 -11v-497h157q10 0 10 -11v-30q0 -11 -10 -11h-198q-10 0 -10 11zM197 465l12 82q2 13 16 13h23q13 0 10 -13l-25 -82q-2 -11 -14 -11h-12q-12 0 -10 11z" />
    <glyph glyph-name="Lcommaaccent.smcp" horiz-adv-x="292" 
d="M60 11v538q0 11 10 11h30q11 0 11 -11v-497h157q10 0 10 -11v-30q0 -11 -10 -11h-198q-10 0 -10 11zM123 -135l12 81q2 13 15 13h23q13 0 10 -12l-24 -83q-3 -10 -14 -10h-13q-11 0 -9 11z" />
    <glyph glyph-name="Ldot.smcp" horiz-adv-x="292" 
d="M60 11v538q0 11 10 11h30q11 0 11 -11v-497h157q10 0 10 -11v-30q0 -11 -10 -11h-198q-10 0 -10 11zM199 284v28q0 18 17 18h32q18 0 18 -18v-28q0 -18 -18 -18h-32q-17 0 -17 18z" />
    <glyph glyph-name="Lslash.smcp" horiz-adv-x="300" 
d="M118 237v-185h157q10 0 10 -11v-30q0 -11 -10 -11h-197q-11 0 -11 11v197l-36 -20q-4 -2 -6 -2q-6 0 -9 6l-10 19q-6 8 4 15l57 32v291q0 11 11 11h30q10 0 10 -11v-263l69 39q2 1 6 1q7 0 8 -5l11 -19q5 -9 -4 -15z" />
    <glyph glyph-name="M.smcp" horiz-adv-x="461" 
d="M60 11v538q0 11 10 11h35q11 0 14 -10l107 -307q3 -13 3 -30h3q0 17 3 30l108 307q3 10 14 10h35q10 0 10 -11v-538q0 -11 -10 -11h-29q-10 0 -10 11v406q0 4 3 31h-2q0 -1 -2 -13t-4 -16l-97 -277q-3 -9 -14 -9h-12q-12 0 -15 9l-96 276q-4 10 -6 30h-3q4 -18 4 -31
v-406q0 -11 -11 -11h-28q-10 0 -10 11z" />
    <glyph glyph-name="N.smcp" horiz-adv-x="391" 
d="M280 157v392q0 11 11 11h30q11 0 11 -11v-538q0 -11 -11 -11h-21q-11 0 -16 9l-167 393q-2 5 -4.5 15.5t-3.5 13.5l-2 -1q4 -18 4 -30v-389q0 -11 -11 -11h-30q-10 0 -10 11v538q0 11 10 11h22q10 0 15 -9l167 -395q2 -4 7 -29l3 1q-4 18 -4 29z" />
    <glyph glyph-name="Nacute.smcp" horiz-adv-x="391" 
d="M280 157v392q0 11 11 11h30q11 0 11 -11v-538q0 -11 -11 -11h-21q-11 0 -16 9l-167 393q-2 5 -4.5 15.5t-3.5 13.5l-2 -1q4 -18 4 -30v-389q0 -11 -11 -11h-30q-10 0 -10 11v538q0 11 10 11h22q10 0 15 -9l167 -395q2 -4 7 -29l3 1q-4 18 -4 29zM167 611l44 73q5 8 13 8
h48q10 0 3 -7l-64 -75q-7 -7 -16 -7h-23q-8 0 -5 8z" />
    <glyph glyph-name="Ncaron.smcp" horiz-adv-x="391" 
d="M280 157v392q0 11 11 11h30q11 0 11 -11v-538q0 -11 -11 -11h-21q-11 0 -16 9l-167 393q-2 5 -4.5 15.5t-3.5 13.5l-2 -1q4 -18 4 -30v-389q0 -11 -11 -11h-30q-10 0 -10 11v538q0 11 10 11h22q10 0 15 -9l167 -395q2 -4 7 -29l3 1q-4 18 -4 29zM280 687l-55 -74
q-5 -7 -15 -7h-29q-8 0 -15 7l-55 74q-4 7 4 7h28q8 0 15 -7l38 -50l37 49q5 8 15 8h29q7 0 3 -7z" />
    <glyph glyph-name="Ncommaaccent.smcp" horiz-adv-x="391" 
d="M280 157v392q0 11 11 11h30q11 0 11 -11v-538q0 -11 -11 -11h-21q-11 0 -16 9l-167 393q-2 5 -4.5 15.5t-3.5 13.5l-2 -1q4 -18 4 -30v-389q0 -11 -11 -11h-30q-10 0 -10 11v538q0 11 10 11h22q10 0 15 -9l167 -395q2 -4 7 -29l3 1q-4 18 -4 29zM147 -135l12 81
q2 13 15 13h24q13 0 10 -12l-25 -83q-3 -10 -14 -10h-12q-12 0 -10 11z" />
    <glyph glyph-name="Ntilde.smcp" horiz-adv-x="391" 
d="M280 157v392q0 11 11 11h30q11 0 11 -11v-538q0 -11 -11 -11h-21q-11 0 -16 9l-167 393q-2 5 -4.5 15.5t-3.5 13.5l-2 -1q4 -18 4 -30v-389q0 -11 -11 -11h-30q-10 0 -10 11v538q0 11 10 11h22q10 0 15 -9l167 -395q2 -4 7 -29l3 1q-4 18 -4 29zM113 621v24q0 13 19 22.5
t33 9.5q11 0 23 -6l23 -13q8 -3 14 -3q12 0 40 18q4 2 5 2q3 0 3 -6v-24q0 -13 -18 -22t-33 -9q-12 0 -23 6l-24 13q-7 3 -14 3q-10 0 -40 -19q-2 -2 -5 -2t-3 6z" />
    <glyph glyph-name="Eng.smcp" horiz-adv-x="391" 
d="M282 127l2 1q-4 12 -4 29v392q0 11 11 11h30q11 0 11 -11v-569q0 -45 -28.5 -72.5t-74.5 -27.5h-52q-10 0 -10 11v30q0 10 10 10h54q22 0 35.5 13t13.5 34v44l-163 380q-3 6 -8 29l-2 -1q4 -18 4 -30v-389q0 -11 -11 -11h-30q-10 0 -10 11v538q0 11 10 11h22q10 0 15 -9
l167 -395q4 -7 8 -29z" />
    <glyph glyph-name="O.smcp" horiz-adv-x="381" 
d="M329 463v-366q0 -46 -28 -73t-75 -27h-72q-46 0 -74 27t-28 73v366q0 46 28 73t74 27h72q47 0 75 -27t28 -73zM278 466q0 20 -13.5 33t-35.5 13h-77q-22 0 -35.5 -13t-13.5 -33v-371q0 -21 13.5 -33.5t35.5 -12.5h77q22 0 35.5 12.5t13.5 33.5v371z" />
    <glyph glyph-name="Oacute.smcp" horiz-adv-x="381" 
d="M329 463v-366q0 -46 -28 -73t-75 -27h-72q-46 0 -74 27t-28 73v366q0 46 28 73t74 27h72q47 0 75 -27t28 -73zM278 466q0 20 -13.5 33t-35.5 13h-77q-22 0 -35.5 -13t-13.5 -33v-371q0 -21 13.5 -33.5t35.5 -12.5h77q22 0 35.5 12.5t13.5 33.5v371zM162 611l44 73
q3 8 13 8h47q10 0 3 -7l-64 -75q-7 -7 -16 -7h-22q-10 0 -5 8z" />
    <glyph glyph-name="Obreve.smcp" horiz-adv-x="381" 
d="M278 95v371q0 20 -13.5 33t-35.5 13h-77q-22 0 -35.5 -13t-13.5 -33v-371q0 -21 13.5 -33.5t35.5 -12.5h77q22 0 35.5 12.5t13.5 33.5zM329 463v-366q0 -46 -28 -73t-75 -27h-72q-46 0 -74 27t-28 73v366q0 46 28 73t74 27h72q47 0 75 -27t28 -73zM269 675v-8
q-1 -29 -19 -46.5t-46 -17.5h-32q-28 0 -46 17.5t-19 46.5v8q-1 9 9 9h18q10 0 11 -9l1 -13q2 -22 24 -22h36q10 0 16.5 6t6.5 16l2 13q0 9 10 9h19q9 0 9 -9z" />
    <glyph glyph-name="Ocircumflex.smcp" horiz-adv-x="381" 
d="M278 95v371q0 20 -13.5 33t-35.5 13h-77q-22 0 -35.5 -13t-13.5 -33v-371q0 -21 13.5 -33.5t35.5 -12.5h77q22 0 35.5 12.5t13.5 33.5zM329 463v-366q0 -46 -28 -73t-75 -27h-72q-46 0 -74 27t-28 73v366q0 46 28 73t74 27h72q47 0 75 -27t28 -73zM220 687l55 -75
q5 -6 -4 -6h-29q-8 0 -15 7l-37 50l-38 -50q-5 -7 -15 -7h-28q-7 0 -3 6l55 75q5 7 15 7h29q10 0 15 -7z" />
    <glyph glyph-name="Odieresis.smcp" horiz-adv-x="381" 
d="M329 463v-366q0 -46 -28 -73t-75 -27h-72q-46 0 -74 27t-28 73v366q0 46 28 73t74 27h72q47 0 75 -27t28 -73zM278 466q0 20 -13.5 33t-35.5 13h-77q-22 0 -35.5 -13t-13.5 -33v-371q0 -21 13.5 -33.5t35.5 -12.5h77q22 0 35.5 12.5t13.5 33.5v371zM218 629v22
q0 7 5 12.5t13 5.5h22q18 0 18 -18v-22q0 -18 -18 -18h-22q-18 0 -18 18zM107 629v22q0 18 18 18h22q18 0 18 -18v-22q0 -18 -18 -18h-22q-18 0 -18 18z" />
    <glyph glyph-name="Ograve.smcp" horiz-adv-x="381" 
d="M329 463v-366q0 -46 -28 -73t-75 -27h-72q-46 0 -74 27t-28 73v366q0 46 28 73t74 27h72q47 0 75 -27t28 -73zM278 466q0 20 -13.5 33t-35.5 13h-77q-22 0 -35.5 -13t-13.5 -33v-371q0 -21 13.5 -33.5t35.5 -12.5h77q22 0 35.5 12.5t13.5 33.5v371zM175 684l44 -73
q3 -8 -5 -8h-22q-9 0 -16 7l-64 75q-7 7 3 7h47q10 0 13 -8z" />
    <glyph glyph-name="Ohungarumlaut.smcp" horiz-adv-x="381" 
d="M329 463v-366q0 -46 -28 -73t-75 -27h-72q-46 0 -74 27t-28 73v366q0 46 28 73t74 27h72q47 0 75 -27t28 -73zM278 466q0 20 -13.5 33t-35.5 13h-77q-22 0 -35.5 -13t-13.5 -33v-371q0 -21 13.5 -33.5t35.5 -12.5h77q22 0 35.5 12.5t13.5 33.5v371zM221 611l45 73
q5 8 14 8h40q9 0 4 -7l-61 -74q-5 -8 -15 -8h-23q-9 0 -4 8zM123 611l43 73q5 8 14 8h40q9 0 4 -7l-59 -74q-5 -8 -15 -8h-23q-9 0 -4 8z" />
    <glyph glyph-name="Omacron.smcp" horiz-adv-x="381" 
d="M329 463v-366q0 -46 -28 -73t-75 -27h-72q-46 0 -74 27t-28 73v366q0 46 28 73t74 27h72q47 0 75 -27t28 -73zM278 466q0 20 -13.5 33t-35.5 13h-77q-22 0 -35.5 -13t-13.5 -33v-371q0 -21 13.5 -33.5t35.5 -12.5h77q22 0 35.5 12.5t13.5 33.5v371zM110 630v21q0 10 9 10
h142q10 0 10 -10v-21q0 -9 -10 -9h-142q-9 0 -9 9z" />
    <glyph glyph-name="Oslash.smcp" horiz-adv-x="381" 
d="M105 81l148 426q-12 5 -24 5h-77q-22 0 -35.5 -13t-13.5 -33v-371q0 -6 2 -14zM275 482l-148 -428q10 -5 25 -5h77q22 0 35.5 12.5t13.5 33.5v371q0 8 -3 16zM65 -35l19 55q-32 27 -32 77v366q0 46 28 73t74 27h72q26 0 43 -7l14 38q1 6 10 6l13 -4q7 -3 5 -11l-15 -44
q33 -28 33 -78v-366q0 -46 -28 -73t-75 -27h-72q-26 0 -44 7l-16 -48q-4 -6 -11 -6l-13 5q-7 2 -5 10z" />
    <glyph glyph-name="Oslashacute.smcp" horiz-adv-x="381" 
d="M105 81l148 426q-12 5 -24 5h-77q-22 0 -35.5 -13t-13.5 -33v-371q0 -6 2 -14zM275 482l-148 -428q10 -5 25 -5h77q22 0 35.5 12.5t13.5 33.5v371q0 8 -3 16zM65 -35l19 55q-32 27 -32 77v366q0 46 28 73t74 27h72q26 0 43 -7l14 38q1 6 10 6l13 -4q7 -3 5 -11l-15 -44
q33 -28 33 -78v-366q0 -46 -28 -73t-75 -27h-72q-26 0 -44 7l-16 -48q-4 -6 -11 -6l-13 5q-7 2 -5 10zM162 611l44 73q3 8 13 8h47q10 0 3 -7l-64 -75q-7 -7 -16 -7h-22q-10 0 -5 8z" />
    <glyph glyph-name="Otilde.smcp" horiz-adv-x="381" 
d="M278 95v371q0 20 -13.5 33t-35.5 13h-77q-22 0 -35.5 -13t-13.5 -33v-371q0 -21 13.5 -33.5t35.5 -12.5h77q22 0 35.5 12.5t13.5 33.5zM329 463v-366q0 -46 -28 -73t-75 -27h-72q-46 0 -74 27t-28 73v366q0 46 28 73t74 27h72q47 0 75 -27t28 -73zM107 621v24
q0 13 19 22.5t34 9.5q12 0 22 -6l24 -13q8 -3 14 -3q9 0 40 18l4 2q4 0 4 -6v-24q0 -13 -18.5 -22t-33.5 -9q-11 0 -23 6l-24 13q-6 3 -13 3t-13 -2.5t-16.5 -9.5t-11.5 -7q-1 -2 -4 -2q-4 0 -4 6z" />
    <glyph glyph-name="OE.smcp" horiz-adv-x="532" 
d="M278 95v371q0 20 -13.5 33t-35.5 13h-77q-22 0 -35.5 -13t-13.5 -33v-371q0 -21 13.5 -33.5t35.5 -12.5h77q22 0 35.5 12.5t13.5 33.5zM329 233v-181h163q11 0 11 -11v-30q0 -11 -11 -11h-203q-9 0 -11 8q-24 -11 -52 -11h-72q-46 0 -74 27t-28 73v366q0 46 28 73t74 27
h72q28 0 52 -11q2 8 11 8h203q11 0 11 -11v-30q0 -10 -11 -10h-163v-224h128q10 0 10 -11v-30q0 -11 -10 -11h-128z" />
    <glyph glyph-name="P.smcp" horiz-adv-x="341" 
d="M256 320v142q0 21 -13 34t-35 13h-97v-235h97q22 0 35 12.5t13 33.5zM60 11v538q0 11 10 11h135q46 0 74.5 -27.5t28.5 -72.5v-138q0 -45 -28.5 -72.5t-74.5 -27.5h-94v-211q0 -11 -11 -11h-30q-10 0 -10 11z" />
    <glyph glyph-name="Q.smcp" horiz-adv-x="376" 
d="M276 97v369q0 20 -14 33t-36 13h-76q-22 0 -35.5 -13t-13.5 -33v-369q0 -21 13.5 -34t35.5 -13h76q22 0 36 13t14 34zM287 -106h-25q-43 0 -69.5 25.5t-26.5 67.5v12h-14q-46 0 -74.5 27.5t-28.5 72.5v364q0 45 28.5 72.5t74.5 27.5h72q47 0 75 -27t28 -73v-364
q0 -45 -28.5 -72.5t-74.5 -27.5h-8v-15q0 -20 12.5 -32t33.5 -12h25q11 0 11 -10v-26q0 -10 -11 -10z" />
    <glyph glyph-name="R.smcp" horiz-adv-x="356" 
d="M256 327v135q0 21 -13 34t-35 13h-97v-228h97q22 0 35 12.5t13 33.5zM308 460v-131q0 -66 -57 -90l70 -229q3 -10 -8 -10h-32q-11 0 -14 10l-67 219h-89v-218q0 -11 -11 -11h-30q-10 0 -10 11v538q0 11 10 11h135q46 0 74.5 -27.5t28.5 -72.5z" />
    <glyph glyph-name="Racute.smcp" horiz-adv-x="356" 
d="M256 327v135q0 21 -13 34t-35 13h-97v-228h97q22 0 35 12.5t13 33.5zM308 460v-131q0 -66 -57 -90l70 -229q3 -10 -8 -10h-32q-11 0 -14 10l-67 219h-89v-218q0 -11 -11 -11h-30q-10 0 -10 11v538q0 11 10 11h135q46 0 74.5 -27.5t28.5 -72.5zM137 611l44 73q3 8 13 8h47
q10 0 3 -7l-64 -75q-7 -7 -16 -7h-22q-8 0 -5 8z" />
    <glyph glyph-name="Rcaron.smcp" horiz-adv-x="356" 
d="M256 327v135q0 21 -13 34t-35 13h-97v-228h97q22 0 35 12.5t13 33.5zM308 460v-131q0 -66 -57 -90l70 -229q3 -10 -8 -10h-32q-11 0 -14 10l-67 219h-89v-218q0 -11 -11 -11h-30q-10 0 -10 11v538q0 11 10 11h135q46 0 74.5 -27.5t28.5 -72.5zM250 687l-55 -74
q-5 -7 -15 -7h-29q-10 0 -15 7l-55 74q-4 7 3 7h28q10 0 15 -7l38 -50l37 49q6 8 15 8h29q8 0 4 -7z" />
    <glyph glyph-name="Rcommaaccent.smcp" horiz-adv-x="356" 
d="M256 327v135q0 21 -13 34t-35 13h-97v-228h97q22 0 35 12.5t13 33.5zM308 460v-131q0 -66 -57 -90l70 -229q3 -10 -8 -10h-32q-11 0 -14 10l-67 219h-89v-218q0 -11 -11 -11h-30q-10 0 -10 11v538q0 11 10 11h135q46 0 74.5 -27.5t28.5 -72.5zM140 -135l12 81q2 13 15 13
h24q13 0 10 -12l-25 -83q-2 -10 -14 -10h-12q-12 0 -10 11z" />
    <glyph glyph-name="S.smcp" horiz-adv-x="333" 
d="M143 563h50q46 0 74 -27t28 -73v-54q0 -11 -11 -11h-29q-11 0 -11 11v57q0 20 -13.5 33t-35.5 13h-55q-22 0 -35 -13t-13 -33v-56q0 -26 19 -42l150 -129q36 -33 36 -79v-64q0 -45 -28 -72.5t-74 -27.5h-59q-46 0 -74 27.5t-28 72.5v54q0 11 11 11l29 1q11 0 11 -11v-56
q0 -21 13.5 -33.5t36.5 -12.5h63q22 0 35 12.5t13 33.5v64q0 24 -20 41l-149 129q-37 32 -37 80v54q0 46 28 73t75 27z" />
    </font>
</defs>
</svg>
