<?xml version="1.0" standalone="no"?>
<!DOCTYPE svg PUBLIC "-//W3C//DTD SVG 1.1//EN" "http://www.w3.org/Graphics/SVG/1.1/DTD/svg11.dtd" >
<svg>
<metadata>
Created by FontForge 20090622 at Mon May  6 12:05:06 2019
 By deploy user
Copyright (c) 2018 by Oleh Lishchuk. All rights reserved.
</metadata>
<defs>
<font id="VinSansPro-Regular" horiz-adv-x="413" >
  <font-face 
    font-family="Vin Sans Pro"
    font-weight="400"
    font-stretch="normal"
    units-per-em="1000"
    panose-1="0 0 0 0 0 0 0 0 0 0"
    ascent="800"
    descent="-200"
    x-height="550"
    cap-height="700"
    bbox="-20 -175 1020 875"
    underline-thickness="50"
    underline-position="-75"
    unicode-range="U+0020-U+FB04"
  />
<missing-glyph horiz-adv-x="0" 
 />
    <glyph glyph-name="ff" unicode="ff" horiz-adv-x="525" 
d="M12 498v37q0 15 15 15h58v30q0 54 33 87t87 33h31q15 0 15 -15v-37q0 -15 -15 -15h-31q-23 0 -36.5 -13.5t-13.5 -36.5v-33h81q15 0 15 -15v-37q0 -15 -15 -15h-81v-468q0 -15 -15 -15h-40q-15 0 -15 15v468h-58q-15 0 -15 15zM274 498v37q0 15 15 15h58v30q0 54 33 87
t87 33h31q15 0 15 -15v-37q0 -15 -15 -15h-31q-23 0 -36.5 -13.5t-13.5 -36.5v-33h81q15 0 15 -15v-37q0 -15 -15 -15h-81v-468q0 -15 -15 -15h-40q-15 0 -15 15v468h-58q-15 0 -15 15z" />
    <glyph glyph-name="fi" unicode="fi" horiz-adv-x="453" 
d="M12 498v37q0 15 15 15h58v30q0 54 33 87t87 33h31q15 0 15 -15v-37q0 -15 -15 -15h-31q-23 0 -36.5 -13.5t-13.5 -36.5v-33h81q15 0 15 -15v-37q0 -15 -15 -15h-81v-468q0 -15 -15 -15h-40q-15 0 -15 15v468h-58q-15 0 -15 15zM323 15v520q0 15 15 15h40q15 0 15 -15
v-520q0 -15 -15 -15h-40q-15 0 -15 15zM315 648v36q0 22 23 22h39q23 0 23 -22v-36q0 -23 -23 -23h-39q-23 0 -23 23z" />
    <glyph glyph-name="fl" unicode="fl" horiz-adv-x="452" 
d="M12 498v37q0 15 15 15h58v30q0 54 33 87t87 33h31q15 0 15 -15v-37q0 -15 -15 -15h-31q-23 0 -36.5 -13.5t-13.5 -36.5v-33h81q15 0 15 -15v-37q0 -15 -15 -15h-81v-468q0 -15 -15 -15h-40q-15 0 -15 15v468h-58q-15 0 -15 15zM322 15v670q0 15 15 15h40q15 0 15 -15
v-670q0 -15 -15 -15h-40q-15 0 -15 15z" />
    <glyph glyph-name="ffi" unicode="ffi" horiz-adv-x="715" 
d="M12 498v37q0 15 15 15h58v30q0 54 33 87t87 33h31q15 0 15 -15v-37q0 -15 -15 -15h-31q-23 0 -36.5 -13.5t-13.5 -36.5v-33h81q15 0 15 -15v-37q0 -15 -15 -15h-81v-468q0 -15 -15 -15h-40q-15 0 -15 15v468h-58q-15 0 -15 15zM274 498v37q0 15 15 15h58v30q0 54 33 87
t87 33h31q15 0 15 -15v-37q0 -15 -15 -15h-31q-23 0 -36.5 -13.5t-13.5 -36.5v-33h81q15 0 15 -15v-37q0 -15 -15 -15h-81v-468q0 -15 -15 -15h-40q-15 0 -15 15v468h-58q-15 0 -15 15zM585 15v520q0 15 15 15h40q15 0 15 -15v-520q0 -15 -15 -15h-40q-15 0 -15 15zM577 648
v36q0 22 23 22h40q22 0 22 -22v-36q0 -23 -22 -23h-40q-23 0 -23 23z" />
    <glyph glyph-name="ffl" unicode="ffl" horiz-adv-x="715" 
d="M12 498v37q0 15 15 15h58v30q0 54 33 87t87 33h31q15 0 15 -15v-37q0 -15 -15 -15h-31q-23 0 -36.5 -13.5t-13.5 -36.5v-33h81q15 0 15 -15v-37q0 -15 -15 -15h-81v-468q0 -15 -15 -15h-40q-15 0 -15 15v468h-58q-15 0 -15 15zM274 498v37q0 15 15 15h58v30q0 54 33 87
t87 33h31q15 0 15 -15v-37q0 -15 -15 -15h-31q-23 0 -36.5 -13.5t-13.5 -36.5v-33h81q15 0 15 -15v-37q0 -15 -15 -15h-81v-468q0 -15 -15 -15h-40q-15 0 -15 15v468h-58q-15 0 -15 15zM585 15v670q0 15 15 15h40q15 0 15 -15v-670q0 -15 -15 -15h-40q-15 0 -15 15z" />
    <glyph glyph-name="afii10104_afii10104" unicode="&#x457;&#x457;" horiz-adv-x="379" 
d="M60 15v520q0 15 15 15h40q15 0 15 -15v-520q0 -15 -15 -15h-40q-15 0 -15 15zM156 619v23q0 23 23 23h23q23 0 23 -23v-23q0 -22 -23 -22h-23q-23 0 -23 22zM2 619v23q0 23 23 23h23q23 0 23 -23v-23q0 -22 -23 -22h-23q-23 0 -23 22zM250 15v520q0 15 15 15h40
q15 0 15 -15v-520q0 -15 -15 -15h-40q-15 0 -15 15zM311 619v23q0 23 22 23h23q23 0 23 -23v-23q0 -22 -23 -22h-23q-22 0 -22 22z" />
    <glyph glyph-name=".notdef" horiz-adv-x="0" 
 />
    <glyph glyph-name=".null" horiz-adv-x="0" 
 />
    <glyph glyph-name="nonmarkingreturn" horiz-adv-x="333" 
 />
    <glyph glyph-name="space" unicode=" " horiz-adv-x="230" 
 />
    <glyph glyph-name="exclam" unicode="!" horiz-adv-x="202" 
d="M68 207l-5 471q-1 10 5 16t16 6h33q22 0 22 -22l-5 -471q-2 -22 -22 -22h-22q-22 0 -22 22zM56 23v48q0 22 22 22h45q23 0 23 -22v-48q0 -23 -23 -23h-45q-22 0 -22 23z" />
    <glyph glyph-name="quotedbl" unicode="&#x22;" horiz-adv-x="253" 
d="M154 505l-4 183q0 12 11 12h37q12 0 12 -12l-4 -183q0 -12 -12 -12h-28q-12 0 -12 12zM47 505l-4 183q0 12 12 12h36q12 0 12 -12l-4 -183q0 -12 -12 -12h-28q-12 0 -12 12z" />
    <glyph glyph-name="numbersign" unicode="#" horiz-adv-x="581" 
d="M199 242h145l39 216h-146zM17 197v30q0 15 15 15h106l38 216h-94q-15 0 -15 15v30q0 15 15 15h105l29 167q3 15 18 15h30q15 0 13 -15l-30 -167h146l30 167q3 15 18 15h30q15 0 13 -15l-30 -167h95q15 0 15 -15v-30q0 -15 -15 -15h-105l-39 -216h94q15 0 15 -15v-30
q0 -15 -15 -15h-104l-30 -167q-3 -15 -18 -15h-30q-15 0 -13 15l30 167h-146l-29 -167q-3 -15 -18 -15h-31q-15 0 -12 15l29 167h-95q-15 0 -15 15z" />
    <glyph glyph-name="dollar" unicode="$" horiz-adv-x="400" 
d="M172 -80v75h-7q-59 0 -94.5 35.5t-35.5 94.5v66q0 15 15 15h43q15 0 15 -15v-69q0 -24 14.5 -38.5t38.5 -14.5h76q24 0 38.5 14.5t14.5 38.5v78q0 29 -21 47l-180 161q-46 41 -46 102v64q0 58 35.5 94t93.5 36v75q0 15 15 15h30q15 0 15 -15v-75q58 0 93.5 -35.5
t35.5 -94.5v-66q0 -15 -15 -15h-43q-15 0 -15 15v70q0 24 -14.5 38.5t-38.5 14.5h-65q-24 0 -39 -14.5t-15 -38.5v-68q0 -28 21 -47l181 -161q46 -41 46 -102v-75q0 -59 -36 -94.5t-94 -35.5h-2v-75q0 -15 -15 -15h-30q-15 0 -15 15z" />
    <glyph glyph-name="percent" unicode="%" horiz-adv-x="749" 
d="M117 36l465 663q4 5 9 5t7 -2l30 -21q9 -7 3 -16l-464 -664q-5 -5 -10 -5q-1 0 -7 2l-30 21q-9 6 -3 17zM103 588v-155q0 -25 15.5 -40.5t40.5 -15.5h23q25 0 40.5 15.5t15.5 40.5v155q0 25 -15.5 40.5t-40.5 15.5h-23q-25 0 -40.5 -15t-15.5 -41zM43 438v145q0 55 33 88
t88 33h13q54 0 87.5 -33t33.5 -88v-145q0 -54 -33.5 -87.5t-87.5 -33.5h-13q-55 0 -88 33.5t-33 87.5zM451 117v145q0 54 33 87.5t87 33.5h13q55 0 88 -33.5t33 -87.5v-145q0 -55 -33 -88t-88 -33h-13q-54 0 -87 33t-33 88zM510 267v-155q0 -25 15.5 -40.5t41.5 -15.5h22
q25 0 40.5 15t15.5 41v155q0 25 -15.5 40.5t-40.5 15.5h-22q-25 0 -41 -15.5t-16 -40.5z" />
    <glyph glyph-name="ampersand" unicode="&#x26;" horiz-adv-x="474" 
d="M121 286v-163q0 -24 14.5 -38.5t38.5 -14.5h86q24 0 38.5 14.5t14.5 38.5v216h-140q-23 0 -37.5 -14.5t-14.5 -38.5zM253 630h-78q-24 0 -38.5 -14.5t-14.5 -38.5v-112q0 -24 14.5 -38.5t38.5 -14.5h270q15 0 15 -15v-43q0 -15 -15 -15h-59v-213q0 -58 -36 -93.5
t-94 -35.5h-79q-58 0 -94 35.5t-36 93.5v140q0 75 58 110q-57 35 -57 110v88q0 58 36 93.5t94 35.5h72q58 0 94 -35.5t36 -93.5v-50q0 -15 -15 -15h-44q-15 0 -15 15v53q0 24 -14.5 38.5t-38.5 14.5z" />
    <glyph glyph-name="quotesingle" unicode="'" horiz-adv-x="146" 
d="M47 505l-4 183q0 12 12 12h36q12 0 12 -12l-4 -183q0 -12 -12 -12h-28q-12 0 -12 12z" />
    <glyph glyph-name="parenleft" unicode="(" horiz-adv-x="229" 
d="M175 746l34 -30q8 -8 0 -16l-40 -42q-36 -36 -36 -85v-546q0 -49 36 -85l40 -42q8 -8 0 -16l-34 -30q-4 -3 -8 -3q-6 0 -9 4l-48 49q-50 50 -50 119v554q0 69 50 119l48 49q3 4 9 4q3 0 8 -3z" />
    <glyph glyph-name="parenright" unicode=")" horiz-adv-x="229" 
d="M21 716l34 30q3 3 8 3t9 -4l48 -49q49 -49 49 -119v-554q0 -70 -49 -119l-48 -49q-4 -4 -9 -4t-8 3l-34 30q-9 8 -1 16l41 42q35 35 35 85v546q0 50 -35 85l-41 42q-8 8 1 16z" />
    <glyph glyph-name="asterisk" unicode="*" horiz-adv-x="343" 
d="M194 573l107 43q2 1 5 1q7 0 9 -8l12 -35q4 -10 -7 -14l-112 -29l73 -88q7 -10 -2 -16l-30 -22q-5 -3 -7 -3q-6 0 -9 6l-62 96l-61 -97q-5 -5 -9 -5q-3 0 -7 2l-30 22q-11 7 -2 16l72 88l-111 29q-11 4 -7 14l12 35q2 8 9 8q4 0 5 -1l107 -42l-7 115q0 12 11 12h37
q11 0 11 -12z" />
    <glyph glyph-name="plus" unicode="+" 
d="M65 387h108v108q0 15 15 15h37q15 0 15 -15v-108h108q15 0 15 -15v-37q0 -15 -15 -15h-108v-108q0 -15 -15 -15h-37q-15 0 -15 15v108h-108q-15 0 -15 15v37q0 15 15 15z" />
    <glyph glyph-name="comma" unicode="," horiz-adv-x="179" 
d="M40 -84l16 153q2 23 25 23h36q23 0 18 -22l-36 -154q-5 -19 -24 -19h-17q-20 0 -18 19z" />
    <glyph glyph-name="hyphen" unicode="-" horiz-adv-x="280" 
d="M43 287v36q0 12 12 12h170q12 0 12 -12v-36q0 -12 -12 -12h-170q-12 0 -12 12z" />
    <glyph glyph-name="period" unicode="." horiz-adv-x="177" 
d="M43 23v48q0 22 23 22h45q22 0 22 -22v-48q0 -23 -22 -23h-45q-23 0 -23 23z" />
    <glyph glyph-name="slash" unicode="/" horiz-adv-x="373" 
d="M1 -121l315 863q3 8 11 8q3 0 4 -1l34 -13q12 -4 7 -14l-315 -864q-3 -8 -11 -8q-2 0 -4 1l-34 13q-12 3 -7 15z" />
    <glyph glyph-name="zero" unicode="0" horiz-adv-x="437" 
d="M122 561v-422q0 -31 19 -50.5t51 -19.5h53q31 0 50.5 19.5t19.5 50.5v422q0 31 -19.5 50.5t-50.5 19.5h-53q-32 0 -51 -19.5t-19 -50.5zM48 146v408q0 68 41 109t109 41h40q68 0 109 -41t41 -109v-408q0 -68 -41 -109t-109 -41h-40q-68 0 -109 41t-41 109z" />
    <glyph glyph-name="one" unicode="1" horiz-adv-x="322" 
d="M162 15v600l-121 -54q-2 0 -3.5 -0.5t-2.5 -0.5q-8 0 -8 11v45q0 16 14 21l133 57q12 6 29 6h17q15 0 15 -15v-670q0 -15 -15 -15h-43q-15 0 -15 15z" />
    <glyph glyph-name="two" unicode="2" horiz-adv-x="398" 
d="M44 15v127q0 57 44 93l178 157q18 15 18 40v129q0 31 -19 50.5t-51 19.5h-31q-31 0 -50.5 -19.5t-19.5 -50.5v-46q0 -15 -15 -15h-43q-15 0 -15 15v39q0 68 41 109t109 41h17q67 0 108.5 -41t41.5 -109v-125q0 -57 -43 -93l-178 -156q-18 -15 -18 -40v-67h232
q15 0 15 -15v-43q0 -15 -15 -15h-291q-15 0 -15 15z" />
    <glyph glyph-name="three" unicode="3" horiz-adv-x="410" 
d="M370 246v-100q0 -68 -41 -109t-109 -41h-36q-68 0 -109 41t-41 109v31q0 15 15 15h43q15 0 15 -15v-38q0 -31 19.5 -50.5t50.5 -19.5h50q31 0 50.5 19.5t19.5 50.5v117q0 32 -19.5 51t-50.5 19h-53q-15 0 -15 15v43q0 15 15 15h45q32 0 51.5 19.5t19.5 50.5v91
q0 32 -19 51t-51 19h-40q-32 0 -51 -19t-19 -51v-38q0 -15 -15 -15h-43q-15 0 -15 15v31q0 67 41.5 108.5t108.5 41.5h26q67 0 108.5 -41.5t41.5 -108.5v-74q0 -79 -64 -115q71 -35 71 -118z" />
    <glyph glyph-name="four" unicode="4" horiz-adv-x="431" 
d="M347 220h56q15 0 15 -15v-43q0 -15 -15 -15h-56v-132q0 -15 -15 -15h-44q-15 0 -15 15v132h-240q-15 0 -15 15v23q0 13 6 29l199 472q7 14 21 14h49q15 0 10 -14l-197 -466h167v179q0 15 15 15h44q15 0 15 -15v-179z" />
    <glyph glyph-name="five" unicode="5" horiz-adv-x="423" 
d="M346 688v-50q0 -11 -12 -11h-193v-186h84q68 0 109.5 -41t41.5 -109v-145q0 -68 -41 -109t-109 -41h-34q-68 0 -109 41t-41 109v35q0 11 11 11h50q12 0 12 -11v-42q0 -31 19.5 -50.5t50.5 -19.5h48q31 0 50.5 19.5t19.5 50.5v159q0 32 -19.5 51t-51.5 19h-149
q-15 0 -15 15v302q0 15 15 15h251q12 0 12 -12z" />
    <glyph glyph-name="six" unicode="6" horiz-adv-x="423" 
d="M118 286v-147q0 -31 19 -50.5t51 -19.5h52q32 0 51 19.5t19 50.5v147q0 32 -19 51t-51 19h-52q-32 0 -51 -19t-19 -51zM359 520h-43q-15 0 -15 15v26q0 31 -19.5 50.5t-50.5 19.5h-43q-32 0 -51 -19.5t-19 -50.5v-150q33 18 77 18h38q67 0 108.5 -41.5t41.5 -108.5v-133
q0 -68 -41.5 -109t-108.5 -41h-38q-67 0 -108.5 41t-41.5 109v408q0 68 41.5 109t108.5 41h29q68 0 109 -41t41 -109v-19q0 -15 -15 -15z" />
    <glyph glyph-name="seven" unicode="7" horiz-adv-x="359" 
d="M25 700h294q15 0 15 -15v-32q0 -16 -5 -29l-125 -350q-5 -13 -5 -29v-230q0 -15 -15 -15h-44q-15 0 -15 15v248q0 11 6 29l121 338h-227q-15 0 -15 15v40q0 15 15 15z" />
    <glyph glyph-name="eight" unicode="8" horiz-adv-x="422" 
d="M113 267v-131q0 -32 19.5 -51t50.5 -19h56q31 0 50.5 19t19.5 51v131q0 31 -19.5 50.5t-50.5 19.5h-56q-31 0 -50.5 -19.5t-19.5 -50.5zM124 563v-82q0 -31 19 -50.5t51 -19.5h35q31 0 50.5 19.5t19.5 50.5v82q0 31 -19.5 50.5t-50.5 19.5h-35q-32 0 -51 -19.5t-19 -50.5
zM51 491v62q0 67 41.5 108.5t108.5 41.5h21q68 0 109 -41.5t41 -108.5v-62q0 -77 -61 -114q71 -37 71 -120v-111q0 -68 -41 -109t-109 -41h-42q-68 0 -109 41t-41 109v111q0 85 72 120q-61 36 -61 114z" />
    <glyph glyph-name="nine" unicode="9" horiz-adv-x="420" 
d="M302 419v142q0 31 -19 50.5t-51 19.5h-49q-31 0 -50.5 -19.5t-19.5 -50.5v-142q0 -31 19.5 -50.5t50.5 -19.5h49q32 0 51 19.5t19 50.5zM56 180h43q15 0 15 -15v-26q0 -31 19 -50.5t51 -19.5h48q32 0 51 19.5t19 50.5v155q-33 -18 -77 -18h-35q-68 0 -109 41t-41 109v128
q0 68 41 109t109 41h35q67 0 108.5 -41t41.5 -109v-408q0 -68 -41.5 -109t-108.5 -41h-34q-67 0 -108.5 41t-41.5 109v19q0 15 15 15z" />
    <glyph glyph-name="colon" unicode=":" horiz-adv-x="178" 
d="M45 479v48q0 23 23 23h44q23 0 23 -23v-48q0 -22 -23 -22h-44q-23 0 -23 22zM43 23v48q0 22 23 22h45q22 0 22 -22v-48q0 -23 -22 -23h-45q-23 0 -23 23z" />
    <glyph glyph-name="semicolon" unicode=";" horiz-adv-x="180" 
d="M46 479v48q0 23 23 23h45q22 0 22 -23v-48q0 -22 -22 -22h-45q-23 0 -23 22zM40 -84l16 153q2 23 25 23h36q23 0 18 -22l-36 -154q-5 -19 -24 -19h-17q-20 0 -18 19z" />
    <glyph glyph-name="less" unicode="&#x3c;" 
d="M356 464l-199 -114l199 -114q12 -8 5 -20l-18 -33q-5 -7 -12 -7q-2 0 -8 2l-260 150q-13 6 -13 22t13 22l260 150q3 2 8 2q8 0 12 -7l18 -33q7 -12 -5 -20z" />
    <glyph glyph-name="equal" unicode="=" 
d="M50 258v37q0 15 15 15h283q15 0 15 -15v-37q0 -15 -15 -15h-283q-15 0 -15 15zM50 412v36q0 15 15 15h283q15 0 15 -15v-36q0 -15 -15 -15h-283q-15 0 -15 15z" />
    <glyph glyph-name="greater" unicode="&#x3e;" 
d="M256 350l-198 114q-13 8 -6 20l18 33q4 7 12 7q6 0 8 -2l261 -150q12 -7 12 -22t-12 -22l-261 -150q-4 -2 -8 -2q-7 0 -12 7l-18 33q-7 12 6 20z" />
    <glyph glyph-name="question" unicode="?" horiz-adv-x="373" 
d="M337 574v-105q0 -61 -43 -104l-57 -61q-18 -22 -20 -49l-1 -55q-2 -15 -16 -15h-37q-14 0 -16 15l-1 53q-1 27 10.5 55.5t30.5 48.5l57 62q19 21 19 49v110q0 24 -14.5 38.5t-38.5 14.5h-55q-24 0 -38 -14.5t-14 -38.5v-71q0 -15 -15 -15h-43q-15 0 -15 15v67
q0 59 35 94.5t93 35.5h49q59 0 94.5 -36t35.5 -94zM137 23v48q0 22 23 22h44q23 0 23 -22v-48q0 -23 -23 -23h-44q-23 0 -23 23z" />
    <glyph glyph-name="at" unicode="@" horiz-adv-x="763" 
d="M463 181v185q-78 59 -120 59q-21 0 -37 -14t-16 -40v-195q0 -26 16 -40t37 -14q46 0 120 59zM463 439v29q0 15 15 15h40q15 0 15 -15v-311q0 -22 11.5 -35.5t31.5 -13.5h30q19 0 30.5 13.5t11.5 35.5v246q0 74 -45 119t-118 45h-207q-73 0 -118 -45t-45 -119v-260
q0 -73 44.5 -118t118.5 -45h199q15 0 15 -15v-30q0 -15 -15 -15h-199q-100 0 -161.5 61t-61.5 162v260q0 101 61.5 162.5t161.5 61.5h207q100 0 161.5 -61.5t61.5 -162.5v-246q0 -51 -30 -82t-79 -31h-29q-76 0 -100 69q-83 -58 -143 -58q-45 0 -76 34t-31 87v194
q0 54 31 88t76 34q58 0 136 -53z" />
    <glyph glyph-name="A" unicode="A" horiz-adv-x="424" 
d="M134 201h156l-73 318q-4 17 -4 43h-2q0 -26 -4 -43zM307 128h-190l-26 -113q-3 -15 -18 -15h-46q-16 0 -11 15l162 670q3 15 19 15h30q14 0 19 -15l162 -670q3 -15 -11 -15h-45q-16 0 -19 15z" />
    <glyph glyph-name="B" unicode="B" horiz-adv-x="431" 
d="M138 323v-250h126q24 0 39 15t15 39v142q0 24 -15 39t-39 15h-126zM138 627v-232h106q24 0 38.5 15t14.5 39v124q0 24 -14.5 39t-38.5 15h-106zM65 15v670q0 15 15 15h161q59 0 94.5 -36t35.5 -94v-101q0 -69 -48 -104q68 -32 68 -116v-119q0 -58 -35.5 -94t-94.5 -36
h-181q-15 0 -15 15z" />
    <glyph glyph-name="C" unicode="C" horiz-adv-x="430" 
d="M327 207h43q15 0 15 -15v-66q0 -58 -35.5 -94t-94.5 -36h-70q-59 0 -94.5 36t-35.5 94v448q0 58 35.5 94t94.5 36h70q59 0 94.5 -36t35.5 -94v-66q0 -15 -15 -15h-43q-15 0 -15 15v70q0 24 -15 38.5t-39 14.5h-76q-24 0 -39 -14.5t-15 -38.5v-456q0 -24 15 -38.5
t39 -14.5h76q24 0 39 14.5t15 38.5v70q0 15 15 15z" />
    <glyph glyph-name="D" unicode="D" horiz-adv-x="448" 
d="M267 627h-129v-554h129q24 0 38.5 15t14.5 39v446q0 24 -14.5 39t-38.5 15zM65 15v670q0 15 15 15h183q59 0 94.5 -36t35.5 -94v-440q0 -58 -35.5 -94t-94.5 -36h-183q-15 0 -15 15z" />
    <glyph glyph-name="E" unicode="E" horiz-adv-x="372" 
d="M327 627h-189v-268h145q15 0 15 -15v-43q0 -15 -15 -15h-145v-213h189q15 0 15 -15v-43q0 -15 -15 -15h-247q-15 0 -15 15v670q0 15 15 15h247q15 0 15 -15v-43q0 -15 -15 -15z" />
    <glyph glyph-name="F" unicode="F" horiz-adv-x="367" 
d="M327 627h-189v-268h145q15 0 15 -15v-43q0 -15 -15 -15h-145v-271q0 -15 -15 -15h-43q-15 0 -15 15v670q0 15 15 15h247q15 0 15 -15v-43q0 -15 -15 -15z" />
    <glyph glyph-name="G" unicode="G" horiz-adv-x="437" 
d="M215 304v44q0 15 15 15h147q15 0 15 -15v-222q0 -58 -36 -94t-94 -36h-77q-59 0 -94.5 36t-35.5 94v448q0 58 35.5 94t94.5 36h77q58 0 94 -36t36 -94v-66q0 -15 -15 -15h-44q-15 0 -15 15v70q0 24 -14.5 38.5t-38.5 14.5h-83q-24 0 -39 -14.5t-15 -38.5v-456
q0 -24 15 -38.5t39 -14.5h83q24 0 38.5 14.5t14.5 38.5v167h-88q-15 0 -15 15z" />
    <glyph glyph-name="H" unicode="H" horiz-adv-x="458" 
d="M65 15v670q0 15 15 15h43q15 0 15 -15v-326h182v326q0 15 15 15h43q15 0 15 -15v-670q0 -15 -15 -15h-43q-15 0 -15 15v271h-182v-271q0 -15 -15 -15h-43q-15 0 -15 15z" />
    <glyph glyph-name="I" unicode="I" horiz-adv-x="290" 
d="M32 15v40q0 15 15 15h61v560h-61q-15 0 -15 15v40q0 15 15 15h196q15 0 15 -15v-40q0 -15 -15 -15h-61v-560h61q15 0 15 -15v-40q0 -15 -15 -15h-196q-15 0 -15 15z" />
    <glyph glyph-name="J" unicode="J" horiz-adv-x="390" 
d="M203 -4h-55q-58 0 -94 36t-36 94v42q0 15 15 15h44q15 0 15 -15v-46q0 -24 14.5 -38.5t38.5 -14.5h62q24 0 38.5 14.5t14.5 38.5v508h-92q-15 0 -15 15v40q0 15 15 15h150q15 0 15 -15v-559q0 -58 -35.5 -94t-94.5 -36z" />
    <glyph glyph-name="K" unicode="K" horiz-adv-x="415" 
d="M65 15v670q0 15 15 15h43q15 0 15 -15v-670q0 -15 -15 -15h-43q-15 0 -15 15zM323 700h52q14 0 8 -14l-160 -324l177 -349q6 -13 -9 -13h-51q-16 0 -22 13l-176 349l160 324q5 14 21 14z" />
    <glyph glyph-name="L" unicode="L" horiz-adv-x="348" 
d="M138 74h180q15 0 15 -15v-44q0 -15 -15 -15h-238q-15 0 -15 15v670q0 15 15 15h43q15 0 15 -15v-611z" />
    <glyph glyph-name="M" unicode="M" horiz-adv-x="554" 
d="M135 503v-488q0 -15 -15 -15h-40q-15 0 -15 15v670q0 15 15 15h50q15 0 20 -14l120 -365q6 -18 6 -42h2q0 27 5 42l121 365q5 14 20 14h50q15 0 15 -15v-670q0 -15 -15 -15h-40q-15 0 -15 15v488q0 18 4 42l-2 1q-4 -28 -9 -42l-107 -328q-5 -15 -20 -15h-17
q-16 0 -19 15l-107 328q-1 3 -10 42l-2 -1q5 -20 5 -42z" />
    <glyph glyph-name="N" unicode="N" horiz-adv-x="466" 
d="M138 473v-458q0 -15 -15 -15h-43q-15 0 -15 15v670q0 15 15 15h30q14 0 21 -14l188 -463q4 -11 12 -41h2q-6 26 -6 43v460q0 15 15 15h44q15 0 15 -15v-670q0 -15 -15 -15h-30q-16 0 -21 14l-188 460q-5 12 -12 42l-2 -1q5 -20 5 -42z" />
    <glyph glyph-name="O" unicode="O" horiz-adv-x="455" 
d="M128 578v-456q0 -24 15 -38.5t39 -14.5h91q24 0 39 14.5t15 38.5v456q0 24 -15 38.5t-39 14.5h-91q-24 0 -39 -14.5t-15 -38.5zM55 126v448q0 58 35.5 94t94.5 36h85q58 0 94 -36t36 -94v-448q0 -58 -36 -94t-94 -36h-85q-59 0 -94.5 36t-35.5 94z" />
    <glyph glyph-name="P" unicode="P" horiz-adv-x="408" 
d="M250 627h-112v-278h112q24 0 38.5 14.5t14.5 38.5v171q0 24 -14.5 39t-38.5 15zM246 276h-108v-261q0 -15 -15 -15h-43q-15 0 -15 15v670q0 15 15 15h166q58 0 94 -36t36 -94v-164q0 -58 -36 -94t-94 -36z" />
    <glyph glyph-name="Q" unicode="Q" horiz-adv-x="455" 
d="M128 578v-452q0 -24 15 -39t39 -15h91q24 0 39 15t15 39v452q0 24 -15 38.5t-39 14.5h-91q-24 0 -39 -14.5t-15 -38.5zM316 -67h33q15 0 15 -15v-36q0 -15 -15 -15h-33q-54 0 -87 33t-33 87v12h-11q-59 0 -94.5 35.5t-35.5 94.5v445q0 58 35.5 94t94.5 36h85q58 0 94 -36
t36 -94v-445q0 -59 -36 -94.5t-94 -35.5h-4v-16q0 -23 14 -36.5t36 -13.5z" />
    <glyph glyph-name="R" unicode="R" horiz-adv-x="428" 
d="M250 627h-112v-271h112q24 0 38.5 14.5t14.5 38.5v164q0 24 -14.5 39t-38.5 15zM315 14l-77 268h-100v-267q0 -15 -15 -15h-43q-15 0 -15 15v670q0 15 15 15h166q58 0 94 -36t36 -94v-158q0 -84 -67 -116l81 -282q5 -14 -11 -14h-45q-16 0 -19 14z" />
    <glyph glyph-name="S" unicode="S" horiz-adv-x="400" 
d="M43 510v64q0 58 35.5 94t94.5 36h58q59 0 94.5 -36t35.5 -94v-66q0 -15 -15 -15h-43q-15 0 -15 15v70q0 24 -14.5 38.5t-38.5 14.5h-65q-24 0 -39 -14.5t-15 -38.5v-68q0 -28 21 -47l181 -161q46 -41 46 -102v-75q0 -59 -36 -94.5t-94 -35.5h-69q-59 0 -94.5 35.5
t-35.5 94.5v66q0 15 15 15h43q15 0 15 -15v-69q0 -24 14.5 -38.5t38.5 -14.5h76q24 0 38.5 14.5t14.5 38.5v78q0 29 -21 47l-180 161q-46 41 -46 102z" />
    <glyph glyph-name="T" unicode="T" horiz-adv-x="373" 
d="M363 685v-43q0 -15 -15 -15h-125v-612q0 -15 -15 -15h-43q-15 0 -15 15v612h-125q-15 0 -15 15v43q0 15 15 15h323q15 0 15 -15z" />
    <glyph glyph-name="U" unicode="U" horiz-adv-x="447" 
d="M333 700h44q15 0 15 -15v-559q0 -58 -36 -94t-94 -36h-77q-59 0 -94.5 36t-35.5 94v559q0 15 15 15h43q15 0 15 -15v-563q0 -24 15 -38.5t39 -14.5h83q24 0 38.5 14.5t14.5 38.5v563q0 15 15 15z" />
    <glyph glyph-name="V" unicode="V" horiz-adv-x="417" 
d="M344 700h46q15 0 12 -15l-160 -670q-3 -15 -18 -15h-30q-16 0 -19 15l-159 670q-5 15 11 15h46q16 0 19 -15l112 -504q4 -17 4 -43h2q0 24 3 43l113 504q3 15 18 15z" />
    <glyph glyph-name="W" unicode="W" horiz-adv-x="595" 
d="M333 685l80 -488q2 -13 2 -43h2q0 24 3 43l86 488q2 15 17 15h45q15 0 12 -15l-129 -670q-3 -15 -18 -15h-32q-15 0 -17 15l-83 475q-2 12 -2 43h-2q0 -25 -3 -43l-83 -475q-2 -15 -17 -15h-32q-15 0 -17 15l-130 670q-2 15 12 15h45q15 0 18 -15l85 -488q2 -13 2 -43h2
q0 24 3 43l80 488q3 15 18 15h35q15 0 18 -15z" />
    <glyph glyph-name="X" unicode="X" horiz-adv-x="392" 
d="M307 700h49q15 0 10 -14l-130 -321l143 -351q5 -14 -10 -14h-49q-14 0 -21 14l-95 238q-7 17 -7 42h-2q0 -25 -7 -42l-96 -238q-5 -14 -20 -14h-50q-14 0 -9 14l143 351l-130 321q-5 14 9 14h50q15 0 20 -14l83 -207q7 -17 7 -42h2q0 25 7 42l83 207q5 14 20 14z" />
    <glyph glyph-name="Y" unicode="Y" horiz-adv-x="398" 
d="M162 15v262l-146 409q-5 14 10 14h46q15 0 20 -14l100 -280q6 -18 6 -42h2q0 24 6 42l100 280q5 14 20 14h46q15 0 10 -14l-146 -409v-262q0 -15 -15 -15h-44q-15 0 -15 15z" />
    <glyph glyph-name="Z" unicode="Z" horiz-adv-x="371" 
d="M336 58v-43q0 -15 -15 -15h-274q-15 0 -15 15v43q0 17 6 29l221 540h-208q-15 0 -15 15v43q0 15 15 15h273q15 0 15 -15v-43q0 -17 -6 -29l-222 -540h210q15 0 15 -15z" />
    <glyph glyph-name="bracketleft" unicode="[" horiz-adv-x="230" 
d="M220 738v-43q0 -12 -12 -12h-75v-766h75q12 0 12 -12v-43q0 -12 -12 -12h-136q-12 0 -12 12v876q0 12 12 12h136q12 0 12 -12z" />
    <glyph glyph-name="backslash" unicode="\" horiz-adv-x="373" 
d="M57 742l315 -863q5 -12 -7 -15l-34 -13q-2 -1 -4 -1q-8 0 -11 8l-315 864q-5 10 7 14l34 13q2 1 4 1q8 0 11 -8z" />
    <glyph glyph-name="bracketright" unicode="]" horiz-adv-x="230" 
d="M170 738v-876q0 -12 -12 -12h-136q-12 0 -12 12v43q0 12 12 12h75v766h-75q-12 0 -12 12v43q0 12 12 12h136q12 0 12 -12z" />
    <glyph glyph-name="asciicircum" unicode="^" 
d="M310 492l-103 132l-104 -133q-4 -5 -11 -5q-6 0 -10 4l-27 26q-10 10 -1 21l121 152q9 11 25 11h13q16 0 25 -11l120 -151q11 -11 0 -21l-27 -26q-4 -4 -10 -4q-7 0 -11 5z" />
    <glyph glyph-name="underscore" unicode="_" horiz-adv-x="230" 
d="M0 -150v73h230v-73h-230z" />
    <glyph glyph-name="grave" unicode="`" horiz-adv-x="188" 
d="M115 781l42 -74q5 -10 -6 -10h-28q-12 0 -20 8l-70 77q-9 9 4 9h61q10 0 17 -10z" />
    <glyph glyph-name="a" unicode="a" 
d="M283 114v141q-67 16 -103 16q-27 0 -45 -16.5t-18 -43.5v-101q0 -25 16 -38.5t37 -13.5q43 0 113 56zM283 15v27q-72 -50 -130 -50q-45 0 -75.5 33t-30.5 86v99q0 55 33.5 88t89.5 33q45 0 113 -13v110q0 60 -53 60h-55q-53 0 -53 -60v-20q0 -15 -15 -15h-40
q-15 0 -15 15v26q0 54 33 87t87 33h61q54 0 87 -33t33 -87v-419q0 -15 -15 -15h-40q-15 0 -15 15z" />
    <glyph glyph-name="b" unicode="b" horiz-adv-x="423" 
d="M130 433v-316q78 -59 120 -59q21 0 37 14.5t16 39.5v326q0 25 -16 39.5t-37 14.5q-42 0 -120 -59zM75 700h40q15 0 15 -15v-180q81 53 137 53q45 0 75.5 -33.5t30.5 -87.5v-324q0 -54 -30.5 -87.5t-75.5 -33.5q-56 0 -137 53v-30q0 -15 -15 -15h-40q-15 0 -15 15v670
q0 15 15 15z" />
    <glyph glyph-name="c" unicode="c" horiz-adv-x="388" 
d="M170 62h62q22 0 36 14t14 36v46q0 15 15 15h40q15 0 15 -15v-42q0 -54 -33 -87t-87 -33h-62q-54 0 -87 33t-33 87v318q0 54 33 87t87 33h62q54 0 87 -33t33 -87v-42q0 -15 -15 -15h-40q-15 0 -15 15v46q0 22 -14 36t-36 14h-62q-22 0 -36 -14t-14 -36v-326q0 -22 14 -36
t36 -14z" />
    <glyph glyph-name="d" unicode="d" horiz-adv-x="423" 
d="M293 117v316q-78 59 -120 59q-21 0 -37 -14.5t-16 -39.5v-326q0 -25 16 -39.5t37 -14.5q42 0 120 59zM308 700h40q15 0 15 -15v-670q0 -15 -15 -15h-40q-15 0 -15 15v30q-78 -53 -136 -53q-45 0 -76 33.5t-31 87.5v324q0 54 31 87.5t76 33.5q58 0 136 -53v180q0 15 15 15
z" />
    <glyph glyph-name="e" unicode="e" horiz-adv-x="402" 
d="M235 488h-65q-22 0 -36 -14t-14 -36v-128h165v128q0 22 -13.5 36t-36.5 14zM340 243h-220v-130q0 -23 14 -37t36 -14h65q23 0 36.5 14t13.5 36v33q0 15 15 15h40q15 0 15 -15v-29q0 -54 -33 -87t-87 -33h-65q-54 0 -87 33t-33 87v318q0 54 33 87t87 33h65q54 0 87 -32.5
t33 -86.5v-177q0 -15 -15 -15z" />
    <glyph glyph-name="f" unicode="f" horiz-adv-x="262" 
d="M12 498v37q0 15 15 15h58v30q0 54 33 87t87 33h31q15 0 15 -15v-37q0 -15 -15 -15h-31q-23 0 -36.5 -13.5t-13.5 -36.5v-33h81q15 0 15 -15v-37q0 -15 -15 -15h-81v-468q0 -15 -15 -15h-40q-15 0 -15 15v468h-58q-15 0 -15 15z" />
    <glyph glyph-name="g" unicode="g" horiz-adv-x="423" 
d="M293 117v316q-78 59 -120 59q-21 0 -37 -14.5t-16 -39.5v-326q0 -25 16 -39.5t37 -14.5q42 0 120 59zM293 505v30q0 15 15 15h40q15 0 15 -15v-548q0 -74 -51.5 -109.5t-127.5 -35.5q-29 0 -71.5 7.5t-42.5 24.5v37q0 11 14 11q6 0 10 -1q52 -12 83 -12q46 0 81 20.5
t35 64.5v50q-80 -52 -136 -52q-45 0 -76 33.5t-31 87.5v324q0 54 31 87.5t76 33.5q55 0 136 -53z" />
    <glyph glyph-name="h" unicode="h" horiz-adv-x="432" 
d="M75 700h40q15 0 15 -15v-180q78 53 135 53q45 0 76 -34t31 -87v-422q0 -15 -15 -15h-40q-15 0 -15 15v423q0 26 -16 40t-38 14q-40 0 -118 -59v-414q0 -19 -15 -19h-40q-15 0 -15 19v666q0 15 15 15z" />
    <glyph glyph-name="i" unicode="i" horiz-adv-x="190" 
d="M61 15v520q0 15 15 15h40q15 0 15 -15v-520q0 -15 -15 -15h-40q-15 0 -15 15zM53 648v36q0 22 22 22h40q23 0 23 -22v-36q0 -23 -23 -23h-40q-22 0 -22 23z" />
    <glyph glyph-name="j" unicode="j" horiz-adv-x="208" 
d="M-5 -83h31q22 0 36 13.5t14 36.5v568q0 15 15 15h40q15 0 15 -15v-565q0 -54 -33 -87t-87 -33h-31q-15 0 -15 15v37q0 15 15 15zM68 648v35q0 23 23 23h40q22 0 22 -23v-35q0 -23 -22 -23h-40q-23 0 -23 23z" />
    <glyph glyph-name="k" unicode="k" horiz-adv-x="366" 
d="M60 15v670q0 15 15 15h40q15 0 15 -15v-670q0 -15 -15 -15h-40q-15 0 -15 15zM344 537l-138 -256l147 -268q7 -13 -9 -13h-43q-15 0 -22 13l-147 268l138 256q6 13 21 13h44q15 0 9 -13z" />
    <glyph glyph-name="l" unicode="l" horiz-adv-x="190" 
d="M60 15v670q0 15 15 15h40q15 0 15 -15v-670q0 -15 -15 -15h-40q-15 0 -15 15z" />
    <glyph glyph-name="m" unicode="m" horiz-adv-x="640" 
d="M510 15v423q0 25 -16 39.5t-37 14.5q-45 0 -102 -55v-422q0 -15 -15 -15h-40q-15 0 -15 15v423q0 25 -16 39.5t-37 14.5q-39 0 -102 -53v-424q0 -15 -15 -15h-40q-15 0 -15 15v520q0 15 15 15h40q15 0 15 -15v-24q64 47 118 47q62 0 92 -57q72 57 133 57q45 0 76 -33.5
t31 -87.5v-422q0 -15 -15 -15h-40q-15 0 -15 15z" />
    <glyph glyph-name="n" unicode="n" horiz-adv-x="432" 
d="M75 550h40q15 0 15 -15v-30q78 53 135 53q45 0 76 -34t31 -87v-422q0 -15 -15 -15h-40q-15 0 -15 15v423q0 26 -16 40t-38 14q-40 0 -118 -59v-418q0 -15 -15 -15h-40q-15 0 -15 15v520q0 15 15 15z" />
    <glyph glyph-name="o" unicode="o" horiz-adv-x="415" 
d="M120 438v-326q0 -22 14 -36t36 -14h75q23 0 36.5 14t13.5 36v326q0 22 -13.5 36t-36.5 14h-75q-22 0 -36 -14t-14 -36zM50 116v318q0 54 33 87t87 33h75q54 0 87 -33t33 -87v-318q0 -54 -33 -87t-87 -33h-75q-54 0 -87 33t-33 87z" />
    <glyph glyph-name="p" unicode="p" horiz-adv-x="423" 
d="M130 433v-316q78 -59 120 -59q21 0 37 14.5t16 39.5v326q0 25 -16 39.5t-37 14.5q-42 0 -120 -59zM115 -150h-40q-15 0 -15 15v670q0 15 15 15h40q15 0 15 -15v-30q81 53 137 53q45 0 75.5 -33.5t30.5 -87.5v-324q0 -54 -30.5 -87.5t-75.5 -33.5q-56 0 -137 53v-180
q0 -15 -15 -15z" />
    <glyph glyph-name="q" unicode="q" horiz-adv-x="423" 
d="M293 117v316q-78 59 -120 59q-21 0 -37 -14.5t-16 -39.5v-326q0 -25 16 -39.5t37 -14.5q42 0 120 59zM348 -150h-40q-15 0 -15 15v180q-78 -53 -136 -53q-45 0 -76 33.5t-31 87.5v324q0 54 31 87.5t76 33.5q58 0 136 -53v30q0 15 15 15h40q15 0 15 -15v-670
q0 -15 -15 -15z" />
    <glyph glyph-name="r" unicode="r" horiz-adv-x="274" 
d="M75 550h40q15 0 15 -15v-29q74 51 118 51q13 0 13 -14l1 -47q0 -11 -12 -11q-48 0 -120 -59v-411q0 -15 -15 -15h-40q-15 0 -15 15v520q0 15 15 15z" />
    <glyph glyph-name="s" unicode="s" horiz-adv-x="385" 
d="M345 156v-40q0 -54 -32.5 -87t-87.5 -33h-65q-54 0 -87 33t-33 87v42q0 15 15 15h40q15 0 15 -15v-36q0 -60 53 -60h59q53 0 53 60v31q0 30 -25 47l-153 106q-23 16 -37.5 43t-14.5 56v29q0 54 32.5 87t87.5 33h55q54 0 87 -33t33 -87v-42q0 -15 -15 -15h-40
q-15 0 -15 15v36q0 60 -53 60h-49q-53 0 -53 -60v-21q0 -29 25 -46l153 -106q23 -17 37.5 -44t14.5 -55z" />
    <glyph glyph-name="t" unicode="t" horiz-adv-x="276" 
d="M13 498v37q0 15 15 15h59v85q0 15 15 15h40q15 0 15 -15v-85h80q15 0 15 -15v-37q0 -15 -15 -15h-80v-371q0 -22 13.5 -36t36.5 -14h30q15 0 15 -15v-36q0 -15 -15 -15h-30q-54 0 -87 33t-33 87v367h-59q-15 0 -15 15z" />
    <glyph glyph-name="u" unicode="u" horiz-adv-x="437" 
d="M362 0h-40q-15 0 -15 15v34q-81 -57 -140 -57q-45 0 -76 33.5t-31 87.5v422q0 15 15 15h40q15 0 15 -15v-423q0 -25 16 -39.5t37 -14.5q44 0 124 64v413q0 15 15 15h40q15 0 15 -15v-520q0 -15 -15 -15z" />
    <glyph glyph-name="v" unicode="v" horiz-adv-x="352" 
d="M181 160l87 375q3 15 19 15h42q14 0 11 -15l-127 -520q-3 -15 -18 -15h-38q-15 0 -18 15l-127 520q-3 15 12 15h42q15 0 18 -15l87 -375q4 -19 4 -45h2q0 26 4 45z" />
    <glyph glyph-name="w" unicode="w" horiz-adv-x="549" 
d="M270 384l-72 -369q-3 -15 -18 -15h-38q-15 0 -18 15l-112 520q-3 15 12 15h42q15 0 18 -15l74 -385q3 -20 3 -45h2q0 32 3 45l73 385q2 15 17 15h37q15 0 18 -15l73 -385q3 -19 3 -45h2q0 32 3 45l73 385q3 15 18 15h42q15 0 12 -15l-112 -520q-3 -15 -19 -15h-37
q-15 0 -18 15l-72 369q-3 20 -3 44h-2q0 -27 -4 -44z" />
    <glyph glyph-name="x" unicode="x" horiz-adv-x="365" 
d="M188 370l83 167q7 13 21 13h44q14 0 9 -13l-125 -256l127 -267q5 -14 -9 -14h-43q-16 0 -22 14l-85 178q-4 8 -4 22h-2q0 -14 -4 -22l-88 -179q-6 -13 -21 -13h-44q-14 0 -9 13l130 268l-122 255q-6 14 9 14h44q15 0 21 -14l80 -166q4 -9 4 -22h2q0 13 4 22z" />
    <glyph glyph-name="y" unicode="y" horiz-adv-x="359" 
d="M112 -135l34 135l-134 535q-3 15 12 15h42q15 0 18 -15l90 -375q4 -19 4 -45h2q0 26 4 45l91 375q3 15 18 15h42q15 0 12 -15l-168 -670q-3 -15 -19 -15h-37q-16 0 -11 15z" />
    <glyph glyph-name="z" unicode="z" horiz-adv-x="342" 
d="M37 80l198 403h-187q-15 0 -15 15v37q0 15 15 15h250q15 0 15 -15v-37q0 -17 -7 -28l-197 -403h191q15 0 15 -15v-37q0 -15 -15 -15h-255q-15 0 -15 15v37q0 14 7 28z" />
    <glyph glyph-name="braceleft" unicode="{" horiz-adv-x="269" 
d="M165 630v-220q0 -76 -56 -110q58 -34 58 -110v-220q0 -24 14.5 -38.5t38.5 -14.5h24q15 0 15 -15v-37q0 -15 -15 -15h-21q-58 0 -93.5 35.5t-35.5 94.5v230q0 24 -15 38.5t-39 14.5h-13q-15 0 -15 15v44q0 15 15 15h13q24 0 38 14.5t14 38.5v230q0 59 35.5 94.5
t93.5 35.5h23q15 0 15 -15v-37q0 -15 -15 -15h-26q-24 0 -38.5 -14.5t-14.5 -38.5z" />
    <glyph glyph-name="bar" unicode="|" horiz-adv-x="180" 
d="M60 -138v876q0 12 12 12h36q12 0 12 -12v-876q0 -12 -12 -12h-36q-12 0 -12 12z" />
    <glyph glyph-name="braceright" unicode="}" horiz-adv-x="269" 
d="M102 -30v220q0 76 58 110q-56 35 -56 110v220q0 24 -14.5 38.5t-38.5 14.5h-26q-15 0 -15 15v37q0 15 15 15h23q58 0 93.5 -35.5t35.5 -94.5v-230q0 -24 14 -38.5t38 -14.5h14q15 0 15 -15v-44q0 -15 -15 -15h-14q-23 0 -38 -14.5t-15 -38.5v-230q0 -58 -36 -94t-94 -36
h-21q-15 0 -15 15v37q0 15 15 15h25q24 0 38 14.5t14 38.5z" />
    <glyph glyph-name="asciitilde" unicode="~" 
d="M52 332v45q0 11 10 18l27 18q20 13 49 13q21 0 36 -7l80 -34q11 -4 24 -4q18 0 32 9l42 26q2 2 5 2q5 0 5 -7v-45q0 -11 -10 -18l-28 -17q-22 -14 -49 -14q-17 0 -36 7l-80 34q-12 5 -24 5q-17 0 -32 -9l-41 -27q-2 -2 -6 -2t-4 7z" />
    <glyph glyph-name="exclamdown" unicode="&#xa1;" horiz-adv-x="202" 
d="M63 -128l5 471q0 22 22 22h22q20 0 22 -22l5 -471q0 -22 -22 -22h-33q-10 0 -16 6t-5 16zM56 479v48q0 23 22 23h45q23 0 23 -23v-48q0 -22 -23 -22h-45q-22 0 -22 22z" />
    <glyph glyph-name="cent" unicode="&#xa2;" horiz-adv-x="388" 
d="M177 7v81h-7q-54 0 -87 33t-33 87v284q0 54 33 87t87 33h7v81q0 11 12 11h30q11 0 11 -11v-81h2q54 0 87 -33t33 -87v-40q0 -15 -15 -15h-40q-15 0 -15 15v43q0 23 -14 36.5t-36 13.5h-62q-22 0 -36 -13.5t-14 -36.5v-290q0 -23 14 -36.5t36 -13.5h62q22 0 36 13.5
t14 36.5v43q0 15 15 15h40q15 0 15 -15v-40q0 -54 -33 -87t-87 -33h-2v-81q0 -11 -11 -11h-30q-12 0 -12 11z" />
    <glyph glyph-name="sterling" unicode="&#xa3;" horiz-adv-x="449" 
d="M27 15v43q0 15 15 15h62v209h-62q-15 0 -15 15v30q0 15 15 15h62v232q0 58 36 94t94 36h50q58 0 94 -36t36 -94v-66q0 -15 -15 -15h-44q-15 0 -15 15v70q0 24 -14.5 38.5t-38.5 14.5h-57q-24 0 -38.5 -14.5t-14.5 -38.5v-236h115q15 0 15 -15v-30q0 -15 -15 -15h-115
v-209h219q15 0 15 -15v-43q0 -15 -15 -15h-354q-15 0 -15 15z" />
    <glyph glyph-name="currency" unicode="&#xa4;" horiz-adv-x="533" 
d="M125 350q0 -58 41.5 -100t100.5 -42t100.5 42t41.5 100t-41.5 100t-100.5 42t-100.5 -42t-41.5 -100zM436 228l55 -55q10 -11 0 -21l-26 -26q-5 -5 -10 -5q-6 0 -11 5l-55 55q-54 -40 -122 -40q-67 0 -123 40l-55 -55q-4 -5 -11 -5q-6 0 -10 5l-26 26q-11 10 0 21l56 55
q-40 54 -40 122t40 122l-56 56q-11 11 0 21l26 26q5 5 10 5q4 0 11 -5l55 -56q56 40 123 40q68 0 122 -40l55 56q7 5 11 5q5 0 10 -5l26 -26q11 -11 0 -21l-55 -55q39 -55 39 -123q0 -69 -39 -122z" />
    <glyph glyph-name="yen" unicode="&#xa5;" horiz-adv-x="398" 
d="M56 115v29q0 15 15 15h91v60h-91q-15 0 -15 15v30q0 15 15 15h90l-145 407q-5 14 10 14h46q15 0 20 -14l100 -280q6 -18 6 -42h2q0 24 6 42l100 280q5 14 20 14h46q15 0 10 -14l-145 -407h91q15 0 15 -15v-30q0 -15 -15 -15h-92v-60h92q15 0 15 -15v-29q0 -15 -15 -15
h-92v-85q0 -15 -15 -15h-44q-15 0 -15 15v85h-91q-15 0 -15 15z" />
    <glyph glyph-name="brokenbar" unicode="&#xa6;" horiz-adv-x="180" 
d="M60 -138v380h60v-380q0 -12 -12 -12h-36q-12 0 -12 12zM120 738v-380h-60v380q0 12 12 12h36q12 0 12 -12z" />
    <glyph glyph-name="section" unicode="&#xa7;" horiz-adv-x="392" 
d="M188 193l-98 89q-45 40 -45 93v209q0 54 32.5 87t87.5 33h62q54 0 87 -33t33 -87v-56q0 -15 -15 -15h-40q-15 0 -15 15v50q0 27 -16.5 43.5t-43.5 16.5h-42q-27 0 -43.5 -16.5t-16.5 -43.5v-198q0 -27 22 -46l98 -88q9 -6 2 -16l-32 -35q-3 -4 -9 -4q-2 0 -8 2zM209 463
l93 -85q45 -42 45 -93v-210q0 -54 -33 -87t-87 -33h-62q-54 0 -87 33t-33 87v56q0 15 15 15h40q15 0 15 -15v-49q0 -27 16.5 -43.5t43.5 -16.5h42q27 0 43.5 16.5t16.5 43.5v197q0 27 -21 46l-93 86q-10 7 -2 15l31 35q4 4 9 4q4 0 8 -2z" />
    <glyph glyph-name="dieresis" unicode="&#xa8;" horiz-adv-x="247" 
d="M149 726v23q0 23 22 23h23q23 0 23 -23v-23q0 -23 -23 -23h-23q-22 0 -22 23zM30 726v23q0 23 23 23h23q22 0 22 -23v-23q0 -23 -22 -23h-23q-23 0 -23 23z" />
    <glyph glyph-name="copyright" unicode="&#xa9;" horiz-adv-x="783" 
d="M115 477v-254q0 -73 44.5 -118t118.5 -45h227q73 0 118 45t45 118v254q0 73 -45 118t-118 45h-227q-74 0 -118.5 -45t-44.5 -118zM55 223v254q0 101 61.5 162t161.5 61h227q101 0 162 -61t61 -162v-254q0 -101 -61 -162t-162 -61h-227q-100 0 -161.5 61t-61.5 162z
M365 194h62q23 0 36.5 14t13.5 36v26q0 15 15 15h40q15 0 15 -15v-23q0 -54 -33 -87t-87 -33h-62q-54 0 -87 33t-33 87v206q0 54 33 87t87 33h62q54 0 87 -33t33 -87v-23q0 -15 -15 -15h-40q-15 0 -15 15v26q0 22 -13.5 36t-36.5 14h-62q-23 0 -36.5 -14t-13.5 -36v-212
q0 -22 13.5 -36t36.5 -14z" />
    <glyph glyph-name="ordfeminine" unicode="&#xaa;" horiz-adv-x="269" 
d="M78 479v-64q0 -16 10 -24.5t23 -8.5q27 0 73 35v90q-42 10 -66 10q-17 0 -28.5 -10.5t-11.5 -27.5zM30 415v63q0 36 22 58t59 22q28 0 73 -8v69q0 38 -34 38h-36q-33 0 -33 -38v-12q0 -10 -11 -10h-27q-10 0 -10 10v16q0 36 21.5 58t57.5 22h40q36 0 57.5 -22t21.5 -58
v-271q0 -10 -10 -10h-27q-10 0 -10 10v17q-51 -33 -85 -33q-28 0 -48.5 22.5t-20.5 56.5z" />
    <glyph glyph-name="guillemotleft" unicode="&#xab;" horiz-adv-x="440" 
d="M231 448l-147 -143l147 -142q11 -11 1 -22l-22 -21q-5 -5 -10 -5q-6 0 -11 5l-158 153q-11 11 -11 26v12q0 15 11 26l158 153q5 5 11 5q5 0 10 -5l22 -21q10 -12 -1 -21zM406 448l-147 -143l147 -143q11 -9 1 -21l-22 -21q-4 -5 -11 -5q-6 0 -10 4l-159 155
q-11 11 -11 25v12q0 14 11 25l159 155q4 4 10 4q7 0 11 -5l21 -21q11 -11 0 -21z" />
    <glyph glyph-name="logicalnot" unicode="&#xac;" 
d="M296 350h-231q-15 0 -15 15v37q0 15 15 15h283q15 0 15 -15v-127q0 -15 -15 -15h-37q-15 0 -15 15v75z" />
    <glyph glyph-name="uni00AD" unicode="&#xad;" horiz-adv-x="280" 
d="M43 287v36q0 12 12 12h170q12 0 12 -12v-36q0 -12 -12 -12h-170q-12 0 -12 12z" />
    <glyph glyph-name="registered" unicode="&#xae;" horiz-adv-x="783" 
d="M115 477v-254q0 -73 44.5 -118t118.5 -45h227q73 0 118 45t45 118v254q0 73 -45 118t-118 45h-227q-74 0 -118.5 -45t-44.5 -118zM423 515h-88v-159h88q23 0 37 14t14 37v57q0 23 -14 37t-37 14zM55 223v254q0 101 61.5 162t161.5 61h227q101 0 162 -61t61 -162v-254
q0 -101 -61 -162t-162 -61h-227q-100 0 -161.5 61t-61.5 162zM479 131l-62 158h-82v-157q0 -14 -13 -14h-40q-13 0 -13 14v436q0 14 13 14h138q55 0 88 -33t33 -87v-52q0 -76 -59 -106l66 -173q2 -5 -1.5 -9t-9.5 -4h-41q-11 0 -17 13z" />
    <glyph glyph-name="macron" unicode="&#xaf;" horiz-adv-x="236" 
d="M30 727v26q0 12 12 12h153q11 0 11 -12v-26q0 -12 -11 -12h-153q-12 0 -12 12z" />
    <glyph glyph-name="degree" unicode="&#xb0;" horiz-adv-x="273" 
d="M27 598q0 46 32 78t78 32q45 0 77.5 -32t32.5 -78q0 -45 -32.5 -77.5t-77.5 -32.5q-46 0 -78 32.5t-32 77.5zM81 598q0 -22 16.5 -38.5t39.5 -16.5t39 16.5t16 38.5q0 23 -16.5 39.5t-38.5 16.5q-23 0 -39.5 -17t-16.5 -39z" />
    <glyph glyph-name="plusminus" unicode="&#xb1;" 
d="M225 233h-37q-15 0 -15 15v109h-108q-15 0 -15 15v36q0 15 15 15h108v109q0 15 15 15h37q15 0 15 -15v-109h108q15 0 15 -15v-36q0 -15 -15 -15h-108v-109q0 -15 -15 -15zM50 122v36q0 15 15 15h283q15 0 15 -15v-36q0 -15 -15 -15h-283q-15 0 -15 15z" />
    <glyph glyph-name="twosuperior" unicode="&#xb2;" horiz-adv-x="203" 
d="M99 703h6q36 0 58 -22t22 -59v-58q0 -33 -25 -52l-85 -69q-8 -8 -8 -17v-29h112q8 0 8 -10v-28q0 -9 -8 -9h-149q-10 0 -10 9v68q0 31 25 51l85 70q9 7 9 17v61q0 14 -8.5 22t-21.5 8h-15q-13 0 -21 -8.5t-8 -21.5v-24q0 -9 -9 -9h-28q-10 0 -10 9v20q0 37 22 59t59 22z
" />
    <glyph glyph-name="threesuperior" unicode="&#xb3;" horiz-adv-x="209" 
d="M97 702h13q36 0 58 -22t22 -58v-32q0 -40 -32 -59q35 -19 35 -60v-43q0 -36 -22 -58.5t-59 -22.5h-15q-37 0 -59 22.5t-22 58.5v16q0 9 10 9h28q9 0 9 -9v-20q0 -13 8 -21.5t21 -8.5h25q13 0 21 8.5t8 21.5v54q0 13 -8 21t-21 8h-26q-9 0 -9 9v28q0 10 9 10h22
q13 0 21.5 8t8.5 21v43q0 30 -29 30h-22q-13 0 -21 -8.5t-8 -21.5v-19q0 -10 -10 -10h-27q-10 0 -10 10v15q0 36 22 58t59 22z" />
    <glyph glyph-name="acute" unicode="&#xb4;" horiz-adv-x="188" 
d="M31 707l43 74q5 10 16 10h62q12 0 3 -9l-70 -77q-6 -8 -19 -8h-29q-11 0 -6 10z" />
    <glyph glyph-name="paragraph" unicode="&#xb6;" horiz-adv-x="509" 
d="M215 279h-40q-59 0 -94.5 35.5t-35.5 94.5v161q0 58 35.5 94t94.5 36h250q15 0 15 -15v-820q0 -15 -15 -15h-43q-15 0 -15 15v762h-79v-762q0 -15 -15 -15h-43q-15 0 -15 15v414z" />
    <glyph glyph-name="periodcentered" unicode="&#xb7;" horiz-adv-x="177" 
d="M43 326v48q0 23 23 23h45q22 0 22 -23v-48q0 -23 -22 -23h-45q-23 0 -23 23z" />
    <glyph glyph-name="cedilla" unicode="&#xb8;" horiz-adv-x="177" 
d="M147 -76v-22q0 -20 -12.5 -32.5t-32.5 -12.5h-60q-12 0 -12 12v13q0 12 12 12h50q15 0 15 15v8q0 15 -15 15h-25q-21 0 -18 21l9 50h44l-7 -34h7q20 0 32.5 -12.5t12.5 -32.5z" />
    <glyph glyph-name="onesuperior" unicode="&#xb9;" horiz-adv-x="164" 
d="M102 700h11q10 0 10 -9v-332q0 -9 -10 -9h-28q-9 0 -9 9v287l-56 -23q-9 0 -9 7v29q0 8 9 12l64 26q7 3 18 3z" />
    <glyph glyph-name="ordmasculine" unicode="&#xba;" horiz-adv-x="270" 
d="M239 623v-205q0 -35 -22 -57t-58 -22h-48q-36 0 -57.5 22t-21.5 57v205q0 36 21.5 58t57.5 22h48q36 0 58 -22t22 -58zM80 626v-210q0 -14 8.5 -23t22.5 -9h48q14 0 23 9t9 23v210q0 14 -9 22.5t-23 8.5h-48q-14 0 -22.5 -8.5t-8.5 -22.5z" />
    <glyph glyph-name="guillemotright" unicode="&#xbb;" horiz-adv-x="440" 
d="M355 305l-147 143q-12 10 0 21l21 21q4 5 11 5q6 0 10 -5l159 -153q11 -13 11 -26v-12q0 -13 -11 -26l-159 -153q-4 -5 -10 -5q-7 0 -11 5l-21 21q-11 11 0 22zM180 305l-147 143q-10 10 0 21l21 21q7 5 11 5q6 0 11 -5l158 -153q11 -11 11 -26v-12q0 -15 -11 -26
l-158 -153q-5 -5 -11 -5q-5 0 -10 5l-22 21q-9 11 0 22z" />
    <glyph glyph-name="onequarter" unicode="&#xbc;" horiz-adv-x="770" 
d="M169 700h11q9 0 9 -9v-332q0 -9 -9 -9h-29q-8 0 -8 9v287l-56 -23q-9 0 -9 7v29q0 9 9 12l63 26q9 3 19 3zM91 -10l528 754q5 6 9 6t7 -3l30 -21q9 -7 3 -16l-527 -754q-4 -5 -10 -5q-4 0 -7 2l-30 21q-9 6 -3 16zM688 68h-26v-59q0 -9 -9 -9h-28q-10 0 -10 9v59h-118
q-9 0 -9 10v14q0 10 4 17l96 232q3 9 13 9h32q9 0 5 -9l-94 -226h71v78q0 9 10 9h28q9 0 9 -9v-78h26q9 0 9 -10v-27q0 -10 -9 -10z" />
    <glyph glyph-name="onehalf" unicode="&#xbd;" horiz-adv-x="750" 
d="M169 700h11q9 0 9 -9v-332q0 -9 -9 -9h-29q-8 0 -8 9v287l-56 -23q-9 0 -9 7v29q0 9 9 12l63 26q9 3 19 3zM91 -10l528 754q5 6 9 6t7 -3l30 -21q9 -7 3 -16l-527 -754q-4 -5 -10 -5q-4 0 -7 2l-30 21q-9 6 -3 16zM579 353h6q36 0 58 -22t22 -59v-58q0 -33 -25 -52
l-85 -69q-8 -8 -8 -17v-29h112q8 0 8 -10v-28q0 -9 -8 -9h-149q-10 0 -10 9v68q0 31 25 51l85 70q9 7 9 17v61q0 14 -8.5 22t-21.5 8h-15q-13 0 -21 -8.5t-8 -21.5v-24q0 -9 -9 -9h-28q-10 0 -10 9v20q0 37 22 59t59 22z" />
    <glyph glyph-name="threequarters" unicode="&#xbe;" horiz-adv-x="815" 
d="M163 702h13q37 0 59 -22t22 -58v-32q0 -40 -33 -59q36 -20 36 -60v-43q0 -36 -22.5 -58.5t-58.5 -22.5h-15q-37 0 -59 22.5t-22 58.5v16q0 9 9 9h28q10 0 10 -9v-20q0 -13 8 -21.5t21 -8.5h24q13 0 21.5 8t8.5 22v54q0 13 -8.5 21t-21.5 8h-25q-10 0 -10 9v28q0 10 10 10
h22q13 0 21.5 8t8.5 21v43q0 13 -8 21.5t-21 8.5h-22q-29 0 -29 -30v-19q0 -10 -10 -10h-28q-9 0 -9 10v15q0 36 22 58t58 22zM136 -10l528 754q4 6 9 6q4 0 7 -3l30 -21q9 -7 3 -16l-527 -754q-4 -5 -10 -5q-4 0 -7 2l-30 21q-9 6 -3 16zM733 68h-26v-59q0 -9 -9 -9h-28
q-10 0 -10 9v59h-118q-9 0 -9 10v14q0 10 4 17l96 232q3 9 13 9h32q10 0 5 -9l-94 -226h71v78q0 9 10 9h28q9 0 9 -9v-78h26q9 0 9 -10v-27q0 -10 -9 -10z" />
    <glyph glyph-name="questiondown" unicode="&#xbf;" horiz-adv-x="373" 
d="M30 -24v105q0 60 42 104l57 61q20 22 20 49l2 55q0 15 16 15h37q15 0 15 -15l1 -53q2 -60 -40 -105l-58 -61q-19 -21 -19 -49v-110q0 -24 15 -38.5t39 -14.5h55q24 0 37.5 14.5t13.5 38.5v68q0 15 15 15h44q15 0 15 -15v-64q0 -59 -35.5 -94.5t-93.5 -35.5h-48
q-58 0 -94 36t-36 94zM230 527v-48q0 -22 -23 -22h-45q-22 0 -22 22v48q0 23 22 23h45q23 0 23 -23z" />
    <glyph glyph-name="Agrave" unicode="&#xc0;" horiz-adv-x="424" 
d="M134 201h156l-73 318q-4 17 -4 43h-2q0 -26 -4 -43zM307 128h-190l-26 -113q-3 -15 -18 -15h-46q-16 0 -11 15l162 670q3 15 19 15h30q14 0 19 -15l162 -670q3 -15 -11 -15h-45q-16 0 -19 15zM201 824l42 -74q7 -10 -6 -10h-28q-12 0 -20 8l-70 78q-8 8 4 8h61
q12 0 17 -10z" />
    <glyph glyph-name="Aacute" unicode="&#xc1;" horiz-adv-x="424" 
d="M134 201h156l-73 318q-4 17 -4 43h-2q0 -26 -4 -43zM307 128h-190l-26 -113q-3 -15 -18 -15h-46q-16 0 -11 15l162 670q3 15 19 15h30q14 0 19 -15l162 -670q3 -15 -11 -15h-45q-16 0 -19 15zM180 750l43 74q5 10 17 10h61q10 0 4 -8l-70 -78q-8 -8 -20 -8h-29
q-11 0 -6 10z" />
    <glyph glyph-name="Acircumflex" unicode="&#xc2;" horiz-adv-x="424" 
d="M134 201h156l-73 318q-4 17 -4 43h-2q0 -26 -4 -43zM307 128h-190l-26 -113q-3 -15 -18 -15h-46q-16 0 -11 15l162 670q3 15 19 15h30q14 0 19 -15l162 -670q3 -15 -11 -15h-45q-16 0 -19 15zM249 828l57 -76q7 -9 -4 -9h-38q-12 0 -19 10l-33 46l-35 -46q-7 -10 -18 -10
h-37q-11 0 -4 9l57 76q6 9 19 9h36q13 0 19 -9z" />
    <glyph glyph-name="Atilde" unicode="&#xc3;" horiz-adv-x="424" 
d="M134 201h156l-73 318q-4 17 -4 43h-2q0 -26 -4 -43zM307 128h-190l-26 -113q-3 -15 -18 -15h-46q-16 0 -11 15l162 670q3 15 19 15h30q14 0 19 -15l162 -670q3 -15 -11 -15h-45q-16 0 -19 15zM120 758v29q0 16 20.5 26.5t38.5 10.5q13 0 26 -7l25 -13q8 -4 18 -4
q15 0 42 19q4 2 6 2q4 0 4 -7v-29q0 -16 -20 -26t-38 -10q-14 0 -26 6l-26 14q-8 4 -17 4q-14 0 -43 -20q-2 -2 -5 -2q-5 0 -5 7z" />
    <glyph glyph-name="Adieresis" unicode="&#xc4;" horiz-adv-x="424" 
d="M134 201h156l-73 318q-4 17 -4 43h-2q0 -26 -4 -43zM307 128h-190l-26 -113q-3 -15 -18 -15h-46q-16 0 -11 15l162 670q3 15 19 15h30q14 0 19 -15l162 -670q3 -15 -11 -15h-45q-16 0 -19 15zM119 769v23q0 23 23 23h23q22 0 22 -23v-23q0 -22 -22 -22h-23q-23 0 -23 22z
M238 769v23q0 23 22 23h23q23 0 23 -23v-23q0 -22 -23 -22h-23q-22 0 -22 22z" />
    <glyph glyph-name="Aring" unicode="&#xc5;" horiz-adv-x="424" 
d="M134 201h156l-73 318q-4 17 -4 43h-2q0 -26 -4 -43zM179 805q0 -13 9.5 -23t23.5 -10t23.5 10t9.5 23t-9.5 23t-23.5 10t-23.5 -10t-9.5 -23zM307 128h-190l-26 -113q-3 -15 -18 -15h-46q-16 0 -11 15l162 670q3 15 19 15h30q14 0 19 -15l162 -670q3 -15 -11 -15h-45
q-16 0 -19 15zM142 805q0 29 20.5 49.5t49.5 20.5t49.5 -20.5t20.5 -49.5t-20.5 -49.5t-49.5 -20.5t-49.5 20.5t-20.5 49.5z" />
    <glyph glyph-name="AE" unicode="&#xc6;" horiz-adv-x="612" 
d="M165 201h140v350q0 11 5 43l-2 1q-4 -29 -10 -42zM305 128h-167l-43 -113q-5 -15 -19 -15h-49q-16 0 -11 14l259 672q5 14 19 14h273q15 0 15 -15v-43q0 -15 -15 -15h-188v-268h145q15 0 15 -15v-43q0 -15 -15 -15h-145v-213h188q15 0 15 -15v-43q0 -15 -15 -15h-247
q-15 0 -15 15v113z" />
    <glyph glyph-name="Ccedilla" unicode="&#xc7;" horiz-adv-x="430" 
d="M278 -76v-22q0 -20 -12.5 -32.5t-32.5 -12.5h-60q-11 0 -11 12v13q0 12 11 12h50q15 0 15 15v8q0 15 -15 15h-25q-22 0 -17 21l8 43h-4q-59 0 -94.5 36t-35.5 94v448q0 58 35.5 94t94.5 36h70q59 0 94.5 -36t35.5 -94v-66q0 -15 -15 -15h-43q-15 0 -15 15v70
q0 24 -15 38.5t-39 14.5h-76q-24 0 -39 -14.5t-15 -38.5v-456q0 -24 15 -38.5t39 -14.5h76q24 0 39 14.5t15 38.5v70q0 15 15 15h43q15 0 15 -15v-66q0 -58 -35.5 -94t-94.5 -36h-23l-5 -27h6q20 0 32.5 -12.5t12.5 -32.5z" />
    <glyph glyph-name="Egrave" unicode="&#xc8;" horiz-adv-x="372" 
d="M327 627h-189v-268h145q15 0 15 -15v-43q0 -15 -15 -15h-145v-213h189q15 0 15 -15v-43q0 -15 -15 -15h-247q-15 0 -15 15v670q0 15 15 15h247q15 0 15 -15v-43q0 -15 -15 -15zM192 824l43 -74q5 -10 -6 -10h-29q-13 0 -19 8l-70 78q-8 8 3 8h62q11 0 16 -10z" />
    <glyph glyph-name="Eacute" unicode="&#xc9;" horiz-adv-x="372" 
d="M327 627h-189v-268h145q15 0 15 -15v-43q0 -15 -15 -15h-145v-213h189q15 0 15 -15v-43q0 -15 -15 -15h-247q-15 0 -15 15v670q0 15 15 15h247q15 0 15 -15v-43q0 -15 -15 -15zM172 750l42 74q7 10 17 10h61q12 0 4 -8l-70 -78q-8 -8 -20 -8h-28q-11 0 -6 10z" />
    <glyph glyph-name="Ecircumflex" unicode="&#xca;" horiz-adv-x="372" 
d="M327 627h-189v-268h145q15 0 15 -15v-43q0 -15 -15 -15h-145v-213h189q15 0 15 -15v-43q0 -15 -15 -15h-247q-15 0 -15 15v670q0 15 15 15h247q15 0 15 -15v-43q0 -15 -15 -15zM241 828l57 -76q7 -9 -5 -9h-38q-11 0 -18 10l-33 46l-35 -46q-8 -10 -19 -10h-36
q-12 0 -5 9l58 76q6 9 18 9h37q12 0 19 -9z" />
    <glyph glyph-name="Edieresis" unicode="&#xcb;" horiz-adv-x="372" 
d="M327 627h-189v-268h145q15 0 15 -15v-43q0 -15 -15 -15h-145v-213h189q15 0 15 -15v-43q0 -15 -15 -15h-247q-15 0 -15 15v670q0 15 15 15h247q15 0 15 -15v-43q0 -15 -15 -15zM110 769v23q0 23 23 23h23q23 0 23 -23v-23q0 -22 -23 -22h-23q-23 0 -23 22zM229 769v23
q0 23 23 23h23q22 0 22 -23v-23q0 -22 -22 -22h-23q-23 0 -23 22z" />
    <glyph glyph-name="Igrave" unicode="&#xcc;" horiz-adv-x="290" 
d="M32 15v40q0 15 15 15h61v560h-61q-15 0 -15 15v40q0 15 15 15h196q15 0 15 -15v-40q0 -15 -15 -15h-61v-560h61q15 0 15 -15v-40q0 -15 -15 -15h-196q-15 0 -15 15zM134 824l42 -74q7 -10 -5 -10h-29q-12 0 -20 8l-70 78q-8 8 4 8h61q12 0 17 -10z" />
    <glyph glyph-name="Iacute" unicode="&#xcd;" horiz-adv-x="290" 
d="M32 15v40q0 15 15 15h61v560h-61q-15 0 -15 15v40q0 15 15 15h196q15 0 15 -15v-40q0 -15 -15 -15h-61v-560h61q15 0 15 -15v-40q0 -15 -15 -15h-196q-15 0 -15 15zM114 750l42 74q5 10 17 10h61q12 0 4 -8l-70 -78q-8 -8 -20 -8h-29q-12 0 -5 10z" />
    <glyph glyph-name="Icircumflex" unicode="&#xce;" horiz-adv-x="290" 
d="M32 15v40q0 15 15 15h61v560h-61q-15 0 -15 15v40q0 15 15 15h196q15 0 15 -15v-40q0 -15 -15 -15h-61v-560h61q15 0 15 -15v-40q0 -15 -15 -15h-196q-15 0 -15 15zM182 828l58 -76q7 -9 -5 -9h-38q-11 0 -18 10l-34 46l-35 -46q-7 -10 -18 -10h-37q-11 0 -4 9l57 76
q7 9 19 9h36q13 0 19 -9z" />
    <glyph glyph-name="Idieresis" unicode="&#xcf;" horiz-adv-x="290" 
d="M32 15v40q0 15 15 15h61v560h-61q-15 0 -15 15v40q0 15 15 15h196q15 0 15 -15v-40q0 -15 -15 -15h-61v-560h61q15 0 15 -15v-40q0 -15 -15 -15h-196q-15 0 -15 15zM52 769v23q0 23 23 23h23q22 0 22 -23v-23q0 -22 -22 -22h-23q-23 0 -23 22zM171 769v23q0 23 22 23h23
q23 0 23 -23v-23q0 -22 -23 -22h-23q-22 0 -22 22z" />
    <glyph glyph-name="Eth" unicode="&#xd0;" horiz-adv-x="448" 
d="M224 327h-86v-254h129q24 0 38.5 15t14.5 39v446q0 24 -14.5 39t-38.5 15h-129v-240h86q15 0 15 -15v-30q0 -15 -15 -15zM12 342v30q0 15 15 15h38v298q0 15 15 15h183q59 0 94.5 -36t35.5 -94v-440q0 -58 -35.5 -94t-94.5 -36h-183q-15 0 -15 15v312h-38q-15 0 -15 15z
" />
    <glyph glyph-name="Ntilde" unicode="&#xd1;" horiz-adv-x="466" 
d="M138 473v-458q0 -15 -15 -15h-43q-15 0 -15 15v670q0 15 15 15h30q14 0 21 -14l188 -463q4 -11 12 -41h2q-6 26 -6 43v460q0 15 15 15h44q15 0 15 -15v-670q0 -15 -15 -15h-30q-16 0 -21 14l-188 460q-5 12 -12 42l-2 -1q5 -20 5 -42zM142 758v29q0 16 20 26.5t38 10.5
q15 0 26 -7l26 -13q8 -4 17 -4q16 0 43 19q4 2 5 2q5 0 5 -7v-29q0 -16 -20.5 -26t-37.5 -10q-14 0 -27 6l-26 14q-7 4 -16 4q-13 0 -44 -20q-2 -2 -5 -2q-4 0 -4 7z" />
    <glyph glyph-name="Ograve" unicode="&#xd2;" horiz-adv-x="455" 
d="M128 578v-456q0 -24 15 -38.5t39 -14.5h91q24 0 39 14.5t15 38.5v456q0 24 -15 38.5t-39 14.5h-91q-24 0 -39 -14.5t-15 -38.5zM55 126v448q0 58 35.5 94t94.5 36h85q58 0 94 -36t36 -94v-448q0 -58 -36 -94t-94 -36h-85q-59 0 -94.5 36t-35.5 94zM217 824l42 -74
q5 -10 -6 -10h-28q-12 0 -20 8l-70 78q-8 8 4 8h61q10 0 17 -10z" />
    <glyph glyph-name="Oacute" unicode="&#xd3;" horiz-adv-x="455" 
d="M128 578v-456q0 -24 15 -38.5t39 -14.5h91q24 0 39 14.5t15 38.5v456q0 24 -15 38.5t-39 14.5h-91q-24 0 -39 -14.5t-15 -38.5zM55 126v448q0 58 35.5 94t94.5 36h85q58 0 94 -36t36 -94v-448q0 -58 -36 -94t-94 -36h-85q-59 0 -94.5 36t-35.5 94zM196 750l43 74
q5 10 16 10h62q11 0 3 -8l-70 -78q-6 -8 -19 -8h-29q-11 0 -6 10z" />
    <glyph glyph-name="Ocircumflex" unicode="&#xd4;" horiz-adv-x="455" 
d="M128 578v-456q0 -24 15 -38.5t39 -14.5h91q24 0 39 14.5t15 38.5v456q0 24 -15 38.5t-39 14.5h-91q-24 0 -39 -14.5t-15 -38.5zM55 126v448q0 58 35.5 94t94.5 36h85q58 0 94 -36t36 -94v-448q0 -58 -36 -94t-94 -36h-85q-59 0 -94.5 36t-35.5 94zM265 828l57 -76
q7 -9 -4 -9h-39q-11 0 -18 10l-33 46l-35 -46q-7 -10 -19 -10h-36q-12 0 -5 9l58 76q6 9 19 9h36q13 0 19 -9z" />
    <glyph glyph-name="Otilde" unicode="&#xd5;" horiz-adv-x="455" 
d="M128 578v-456q0 -24 15 -38.5t39 -14.5h91q24 0 39 14.5t15 38.5v456q0 24 -15 38.5t-39 14.5h-91q-24 0 -39 -14.5t-15 -38.5zM55 126v448q0 58 35.5 94t94.5 36h85q58 0 94 -36t36 -94v-448q0 -58 -36 -94t-94 -36h-85q-59 0 -94.5 36t-35.5 94zM136 758v29
q0 16 20.5 26.5t37.5 10.5q14 0 27 -7l25 -13q8 -4 17 -4q16 0 43 19q4 2 5 2q5 0 5 -7v-29q0 -16 -20 -26t-38 -10q-14 0 -27 6l-25 14q-8 4 -17 4q-14 0 -43 -20q-2 -2 -6 -2t-4 7z" />
    <glyph glyph-name="Odieresis" unicode="&#xd6;" horiz-adv-x="455" 
d="M128 578v-456q0 -24 15 -38.5t39 -14.5h91q24 0 39 14.5t15 38.5v456q0 24 -15 38.5t-39 14.5h-91q-24 0 -39 -14.5t-15 -38.5zM55 126v448q0 58 35.5 94t94.5 36h85q58 0 94 -36t36 -94v-448q0 -58 -36 -94t-94 -36h-85q-59 0 -94.5 36t-35.5 94zM253 769v23q0 23 23 23
h23q23 0 23 -23v-23q0 -22 -23 -22h-23q-23 0 -23 22zM135 769v23q0 23 22 23h23q23 0 23 -23v-23q0 -22 -23 -22h-23q-22 0 -22 22z" />
    <glyph glyph-name="multiply" unicode="&#xd7;" 
d="M207 303l-101 -101q-5 -5 -11 -5q-5 0 -10 5l-26 26q-11 10 0 21l101 101l-101 101q-12 10 0 21l26 26q5 5 10 5q4 0 11 -5l101 -101l101 101q5 5 11 5q5 0 10 -5l26 -26q10 -10 0 -21l-101 -101l100 -101q12 -10 0 -21l-25 -25q-4 -5 -11 -5q-6 0 -10 5z" />
    <glyph glyph-name="Oslash" unicode="&#xd8;" horiz-adv-x="455" 
d="M132 102l159 527q-12 2 -18 2h-91q-24 0 -39 -14.5t-15 -38.5v-456q0 -12 4 -20zM323 599l-158 -528q10 -2 17 -2h91q24 0 39 14.5t15 38.5v456q0 7 -4 21zM364 730l-15 -48q51 -37 51 -108v-448q0 -58 -36 -94t-94 -36h-85q-20 0 -42 5l-14 -44q-2 -8 -9 -8q-1 0 -2 1
h-2l-18 6q-11 3 -7 14l15 49q-51 35 -51 107v448q0 58 35.5 94t94.5 36h85q20 0 42 -5l14 43q2 8 9 8q3 0 4 -1l18 -5q11 -3 7 -14z" />
    <glyph glyph-name="Ugrave" unicode="&#xd9;" horiz-adv-x="447" 
d="M333 700h44q15 0 15 -15v-559q0 -58 -36 -94t-94 -36h-77q-59 0 -94.5 36t-35.5 94v559q0 15 15 15h43q15 0 15 -15v-563q0 -24 15 -38.5t39 -14.5h83q24 0 38.5 14.5t14.5 38.5v563q0 15 15 15zM212 824l43 -74q5 -10 -6 -10h-29q-13 0 -19 8l-70 78q-8 8 3 8h62
q11 0 16 -10z" />
    <glyph glyph-name="Uacute" unicode="&#xda;" horiz-adv-x="447" 
d="M333 700h44q15 0 15 -15v-559q0 -58 -36 -94t-94 -36h-77q-59 0 -94.5 36t-35.5 94v559q0 15 15 15h43q15 0 15 -15v-563q0 -24 15 -38.5t39 -14.5h83q24 0 38.5 14.5t14.5 38.5v563q0 15 15 15zM192 750l42 74q7 10 17 10h61q12 0 4 -8l-70 -78q-8 -8 -20 -8h-28
q-11 0 -6 10z" />
    <glyph glyph-name="Ucircumflex" unicode="&#xdb;" horiz-adv-x="447" 
d="M333 700h44q15 0 15 -15v-559q0 -58 -36 -94t-94 -36h-77q-59 0 -94.5 36t-35.5 94v559q0 15 15 15h43q15 0 15 -15v-563q0 -24 15 -38.5t39 -14.5h83q24 0 38.5 14.5t14.5 38.5v563q0 15 15 15zM261 828l57 -76q7 -9 -5 -9h-38q-11 0 -18 10l-33 46l-35 -46
q-8 -10 -19 -10h-36q-12 0 -5 9l58 76q6 9 18 9h37q12 0 19 -9z" />
    <glyph glyph-name="Udieresis" unicode="&#xdc;" horiz-adv-x="447" 
d="M333 700h44q15 0 15 -15v-559q0 -58 -36 -94t-94 -36h-77q-59 0 -94.5 36t-35.5 94v559q0 15 15 15h43q15 0 15 -15v-563q0 -24 15 -38.5t39 -14.5h83q24 0 38.5 14.5t14.5 38.5v563q0 15 15 15zM249 769v23q0 23 23 23h23q22 0 22 -23v-23q0 -22 -22 -22h-23
q-23 0 -23 22zM130 769v23q0 23 23 23h23q23 0 23 -23v-23q0 -22 -23 -22h-23q-23 0 -23 22z" />
    <glyph glyph-name="Yacute" unicode="&#xdd;" horiz-adv-x="398" 
d="M382 686l-146 -409v-262q0 -15 -15 -15h-44q-15 0 -15 15v262l-146 409q-5 14 10 14h46q15 0 20 -14l100 -280q6 -18 6 -42h2q0 24 6 42l100 280q5 14 20 14h46q15 0 10 -14zM168 750l42 74q7 10 17 10h61q12 0 4 -8l-70 -78q-8 -8 -20 -8h-28q-11 0 -6 10z" />
    <glyph glyph-name="Thorn" unicode="&#xde;" horiz-adv-x="408" 
d="M250 496h-112v-278h112q24 0 38.5 14.5t14.5 38.5v171q0 24 -14.5 39t-38.5 15zM246 145h-108v-130q0 -15 -15 -15h-43q-15 0 -15 15v670q0 15 15 15h43q15 0 15 -15v-116h108q58 0 94 -35.5t36 -94.5v-164q0 -59 -36 -94.5t-94 -35.5z" />
    <glyph glyph-name="germandbls" unicode="&#xdf;" horiz-adv-x="421" 
d="M180 703h54q54 0 87 -32t33 -84v-80q0 -67 -49 -99q66 -29 66 -108v-183q0 -53 -33 -85t-87 -32h-51q-15 0 -15 15v37q0 15 15 15h47q54 0 54 58v185q0 28 -14 44t-40 16h-47q-15 0 -15 15v37q0 15 15 15h27q27 0 42 16.5t15 43.5v84q0 56 -53 56h-51q-22 0 -36 -13.5
t-14 -36.5v-572q0 -15 -15 -15h-40q-15 0 -15 15v568q0 54 33 87t87 33z" />
    <glyph glyph-name="agrave" unicode="&#xe0;" 
d="M283 114v141q-67 16 -103 16q-27 0 -45 -16.5t-18 -43.5v-101q0 -25 16 -38.5t37 -13.5q43 0 113 56zM283 15v27q-72 -50 -130 -50q-45 0 -75.5 33t-30.5 86v99q0 55 33.5 88t89.5 33q45 0 113 -13v110q0 60 -53 60h-55q-53 0 -53 -60v-20q0 -15 -15 -15h-40
q-15 0 -15 15v26q0 54 33 87t87 33h61q54 0 87 -33t33 -87v-419q0 -15 -15 -15h-40q-15 0 -15 15zM197 674l42 -74q5 -10 -6 -10h-28q-12 0 -20 8l-70 78q-8 8 4 8h61q10 0 17 -10z" />
    <glyph glyph-name="aacute" unicode="&#xe1;" 
d="M283 114v141q-67 16 -103 16q-27 0 -45 -16.5t-18 -43.5v-101q0 -25 16 -38.5t37 -13.5q43 0 113 56zM283 15v27q-72 -50 -130 -50q-45 0 -75.5 33t-30.5 86v99q0 55 33.5 88t89.5 33q45 0 113 -13v110q0 60 -53 60h-55q-53 0 -53 -60v-20q0 -15 -15 -15h-40
q-15 0 -15 15v26q0 54 33 87t87 33h61q54 0 87 -33t33 -87v-419q0 -15 -15 -15h-40q-15 0 -15 15zM176 600l43 74q5 10 16 10h62q11 0 3 -8l-70 -78q-6 -8 -19 -8h-29q-11 0 -6 10z" />
    <glyph glyph-name="acircumflex" unicode="&#xe2;" 
d="M283 114v141q-67 16 -103 16q-27 0 -45 -16.5t-18 -43.5v-101q0 -25 16 -38.5t37 -13.5q43 0 113 56zM283 15v27q-72 -50 -130 -50q-45 0 -75.5 33t-30.5 86v99q0 55 33.5 88t89.5 33q45 0 113 -13v110q0 60 -53 60h-55q-53 0 -53 -60v-20q0 -15 -15 -15h-40
q-15 0 -15 15v26q0 54 33 87t87 33h61q54 0 87 -33t33 -87v-419q0 -15 -15 -15h-40q-15 0 -15 15zM245 678l57 -76q7 -9 -4 -9h-39q-11 0 -18 10l-33 46l-35 -46q-7 -10 -19 -10h-36q-12 0 -5 9l58 76q6 9 19 9h36q13 0 19 -9z" />
    <glyph glyph-name="atilde" unicode="&#xe3;" 
d="M283 114v141q-67 16 -103 16q-27 0 -45 -16.5t-18 -43.5v-101q0 -25 16 -38.5t37 -13.5q43 0 113 56zM283 15v27q-72 -50 -130 -50q-45 0 -75.5 33t-30.5 86v99q0 55 33.5 88t89.5 33q45 0 113 -13v110q0 60 -53 60h-55q-53 0 -53 -60v-20q0 -15 -15 -15h-40
q-15 0 -15 15v26q0 54 33 87t87 33h61q54 0 87 -33t33 -87v-419q0 -15 -15 -15h-40q-15 0 -15 15zM116 608v29q0 16 20.5 26.5t37.5 10.5q14 0 27 -7l25 -13q8 -4 17 -4q16 0 43 19q4 2 5 2q5 0 5 -7v-29q0 -16 -20 -26t-38 -10q-14 0 -27 6l-25 14q-8 4 -17 4
q-14 0 -43 -20q-2 -2 -6 -2t-4 7z" />
    <glyph glyph-name="adieresis" unicode="&#xe4;" 
d="M283 114v141q-67 16 -103 16q-27 0 -45 -16.5t-18 -43.5v-101q0 -25 16 -38.5t37 -13.5q43 0 113 56zM283 15v27q-72 -50 -130 -50q-45 0 -75.5 33t-30.5 86v99q0 55 33.5 88t89.5 33q45 0 113 -13v110q0 60 -53 60h-55q-53 0 -53 -60v-20q0 -15 -15 -15h-40
q-15 0 -15 15v26q0 54 33 87t87 33h61q54 0 87 -33t33 -87v-419q0 -15 -15 -15h-40q-15 0 -15 15zM115 619v23q0 23 22 23h23q23 0 23 -23v-23q0 -22 -23 -22h-23q-22 0 -22 22zM233 619v23q0 23 23 23h23q23 0 23 -23v-23q0 -22 -23 -22h-23q-23 0 -23 22z" />
    <glyph glyph-name="aring" unicode="&#xe5;" 
d="M283 114v141q-67 16 -103 16q-27 0 -45 -16.5t-18 -43.5v-101q0 -25 16 -38.5t37 -13.5q43 0 113 56zM175 655q0 -13 9.5 -23t23.5 -10q13 0 22.5 10t9.5 23t-9.5 23t-22.5 10q-14 0 -23.5 -10t-9.5 -23zM283 15v27q-72 -50 -130 -50q-45 0 -75.5 33t-30.5 86v99
q0 55 33.5 88t89.5 33q45 0 113 -13v110q0 60 -53 60h-55q-53 0 -53 -60v-20q0 -15 -15 -15h-40q-15 0 -15 15v26q0 54 33 87t87 33h61q54 0 87 -33t33 -87v-419q0 -15 -15 -15h-40q-15 0 -15 15zM138 655q0 29 20.5 49.5t49.5 20.5t49.5 -20.5t20.5 -49.5t-21 -49.5
t-49 -20.5q-29 0 -49.5 20.5t-20.5 49.5z" />
    <glyph glyph-name="ae" unicode="&#xe6;" horiz-adv-x="635" 
d="M283 116v139q-67 16 -103 16q-27 0 -45 -16.5t-18 -43.5v-101q0 -25 16 -38.5t37 -13.5q47 0 113 58zM468 488h-65q-23 0 -36.5 -14t-13.5 -36v-128h165v128q0 22 -14 36t-36 14zM573 243h-220v-130q0 -23 14 -37t36 -14h65q22 0 36 14t14 36v33q0 15 15 15h40
q15 0 15 -15v-29q0 -54 -33 -87t-87 -33h-65q-73 0 -103 55q-84 -59 -145 -59q-45 0 -76.5 33t-31.5 86v99q0 55 33.5 88t89.5 33q45 0 113 -13v116q0 6 1 9q-8 45 -53 45h-56q-53 0 -53 -60v-20q0 -15 -15 -15h-40q-15 0 -15 15v26q0 54 32.5 87t86.5 33h62q52 0 85 -31
q33 31 85 31h65q54 0 87 -32.5t33 -86.5v-177q0 -15 -15 -15z" />
    <glyph glyph-name="ccedilla" unicode="&#xe7;" horiz-adv-x="388" 
d="M259 -76v-22q0 -20 -12.5 -32.5t-32.5 -12.5h-60q-11 0 -11 12v13q0 12 11 12h50q15 0 15 15v8q0 15 -15 15h-25q-22 0 -17 21l7 43q-53 0 -86 33t-33 87v318q0 54 33 87t87 33h62q54 0 87 -33t33 -87v-42q0 -15 -15 -15h-40q-15 0 -15 15v46q0 22 -14 36t-36 14h-62
q-22 0 -36 -14t-14 -36v-326q0 -22 14 -36t36 -14h62q22 0 36 14t14 36v46q0 15 15 15h40q15 0 15 -15v-42q0 -54 -33 -87t-87 -33h-19l-5 -27h6q20 0 32.5 -12.5t12.5 -32.5z" />
    <glyph glyph-name="egrave" unicode="&#xe8;" horiz-adv-x="402" 
d="M235 488h-65q-22 0 -36 -14t-14 -36v-128h165v128q0 22 -13.5 36t-36.5 14zM340 243h-220v-130q0 -23 14 -37t36 -14h65q23 0 36.5 14t13.5 36v33q0 15 15 15h40q15 0 15 -15v-29q0 -54 -33 -87t-87 -33h-65q-54 0 -87 33t-33 87v318q0 54 33 87t87 33h65q54 0 87 -32.5
t33 -86.5v-177q0 -15 -15 -15zM192 674l42 -74q5 -10 -6 -10h-28q-12 0 -20 8l-70 78q-8 8 4 8h61q10 0 17 -10z" />
    <glyph glyph-name="eacute" unicode="&#xe9;" horiz-adv-x="402" 
d="M235 488h-65q-22 0 -36 -14t-14 -36v-128h165v128q0 22 -13.5 36t-36.5 14zM340 243h-220v-130q0 -23 14 -37t36 -14h65q23 0 36.5 14t13.5 36v33q0 15 15 15h40q15 0 15 -15v-29q0 -54 -33 -87t-87 -33h-65q-54 0 -87 33t-33 87v318q0 54 33 87t87 33h65q54 0 87 -32.5
t33 -86.5v-177q0 -15 -15 -15zM171 600l43 74q5 10 16 10h62q11 0 3 -8l-70 -78q-6 -8 -19 -8h-29q-11 0 -6 10z" />
    <glyph glyph-name="ecircumflex" unicode="&#xea;" horiz-adv-x="402" 
d="M235 488h-65q-22 0 -36 -14t-14 -36v-128h165v128q0 22 -13.5 36t-36.5 14zM340 243h-220v-130q0 -23 14 -37t36 -14h65q23 0 36.5 14t13.5 36v33q0 15 15 15h40q15 0 15 -15v-29q0 -54 -33 -87t-87 -33h-65q-54 0 -87 33t-33 87v318q0 54 33 87t87 33h65q54 0 87 -32.5
t33 -86.5v-177q0 -15 -15 -15zM240 678l57 -76q7 -9 -4 -9h-39q-11 0 -18 10l-33 46l-35 -46q-7 -10 -19 -10h-36q-12 0 -5 9l58 76q6 9 19 9h36q13 0 19 -9z" />
    <glyph glyph-name="edieresis" unicode="&#xeb;" horiz-adv-x="402" 
d="M235 488h-65q-22 0 -36 -14t-14 -36v-128h165v128q0 22 -13.5 36t-36.5 14zM340 243h-220v-130q0 -23 14 -37t36 -14h65q23 0 36.5 14t13.5 36v33q0 15 15 15h40q15 0 15 -15v-29q0 -54 -33 -87t-87 -33h-65q-54 0 -87 33t-33 87v318q0 54 33 87t87 33h65q54 0 87 -32.5
t33 -86.5v-177q0 -15 -15 -15zM110 619v23q0 23 22 23h23q23 0 23 -23v-23q0 -22 -23 -22h-23q-22 0 -22 22zM228 619v23q0 23 23 23h23q23 0 23 -23v-23q0 -22 -23 -22h-23q-23 0 -23 22z" />
    <glyph glyph-name="igrave" unicode="&#xec;" horiz-adv-x="190" 
d="M60 15v520q0 15 15 15h40q15 0 15 -15v-520q0 -15 -15 -15h-40q-15 0 -15 15zM84 674l43 -74q5 -10 -6 -10h-29q-13 0 -19 8l-70 78q-8 8 3 8h62q11 0 16 -10z" />
    <glyph glyph-name="iacute" unicode="&#xed;" horiz-adv-x="190" 
d="M60 15v520q0 15 15 15h40q15 0 15 -15v-520q0 -15 -15 -15h-40q-15 0 -15 15zM64 600l42 74q7 10 17 10h61q12 0 4 -8l-70 -78q-8 -8 -20 -8h-28q-11 0 -6 10z" />
    <glyph glyph-name="icircumflex" unicode="&#xee;" horiz-adv-x="190" 
d="M60 15v520q0 15 15 15h40q15 0 15 -15v-520q0 -15 -15 -15h-40q-15 0 -15 15zM133 678l57 -76q7 -9 -5 -9h-38q-11 0 -18 10l-33 46l-35 -46q-8 -10 -19 -10h-36q-12 0 -5 9l58 76q6 9 18 9h37q12 0 19 -9z" />
    <glyph glyph-name="idieresis" unicode="&#xef;" horiz-adv-x="190" 
d="M60 15v520q0 15 15 15h40q15 0 15 -15v-520q0 -15 -15 -15h-40q-15 0 -15 15zM121 619v23q0 23 23 23h23q22 0 22 -23v-23q0 -22 -22 -22h-23q-23 0 -23 22zM2 619v23q0 23 23 23h23q23 0 23 -23v-23q0 -22 -23 -22h-23q-23 0 -23 22z" />
    <glyph glyph-name="eth" unicode="&#xf0;" horiz-adv-x="420" 
d="M300 122v310q-78 53 -120 53q-21 0 -37 -14t-16 -39v-310q0 -60 53 -60h67q53 0 53 60zM300 504v39q0 61 -58 78l-14 -35q-3 -11 -13 -11q-4 0 -5 1l-23 7q-15 5 -10 19l12 30l-68 13q-25 4 -25 18v31q0 13 18 13q6 0 10 -1l83 -15l14 36q3 10 18 10l22 -8q15 -3 10 -18
l-11 -29q58 -15 84 -50t26 -96v-420q0 -54 -33 -87t-87 -33h-73q-54 0 -87 33t-33 87v316q0 53 31 86.5t75 33.5q59 0 137 -48z" />
    <glyph glyph-name="ntilde" unicode="&#xf1;" horiz-adv-x="432" 
d="M75 550h40q15 0 15 -15v-30q78 53 135 53q45 0 76 -34t31 -87v-422q0 -15 -15 -15h-40q-15 0 -15 15v423q0 26 -16 40t-38 14q-40 0 -118 -59v-418q0 -15 -15 -15h-40q-15 0 -15 15v520q0 15 15 15zM125 608v29q0 16 20.5 26.5t38.5 10.5q15 0 26 -7l26 -13q8 -4 17 -4
q13 0 43 19q4 2 5 2q4 0 4 -7v-29q0 -16 -20 -26t-38 -10q-14 0 -26 6l-26 14q-8 4 -17 4q-14 0 -43 -20q-2 -2 -5 -2q-5 0 -5 7z" />
    <glyph glyph-name="ograve" unicode="&#xf2;" horiz-adv-x="415" 
d="M120 438v-326q0 -22 14 -36t36 -14h75q23 0 36.5 14t13.5 36v326q0 22 -13.5 36t-36.5 14h-75q-22 0 -36 -14t-14 -36zM50 116v318q0 54 33 87t87 33h75q54 0 87 -33t33 -87v-318q0 -54 -33 -87t-87 -33h-75q-54 0 -87 33t-33 87zM197 674l42 -74q5 -10 -6 -10h-28
q-12 0 -20 8l-70 78q-8 8 4 8h61q10 0 17 -10z" />
    <glyph glyph-name="oacute" unicode="&#xf3;" horiz-adv-x="415" 
d="M120 438v-326q0 -22 14 -36t36 -14h75q23 0 36.5 14t13.5 36v326q0 22 -13.5 36t-36.5 14h-75q-22 0 -36 -14t-14 -36zM50 116v318q0 54 33 87t87 33h75q54 0 87 -33t33 -87v-318q0 -54 -33 -87t-87 -33h-75q-54 0 -87 33t-33 87zM176 600l43 74q5 10 16 10h62q11 0 3 -8
l-70 -78q-6 -8 -19 -8h-29q-11 0 -6 10z" />
    <glyph glyph-name="ocircumflex" unicode="&#xf4;" horiz-adv-x="415" 
d="M120 438v-326q0 -22 14 -36t36 -14h75q23 0 36.5 14t13.5 36v326q0 22 -13.5 36t-36.5 14h-75q-22 0 -36 -14t-14 -36zM50 116v318q0 54 33 87t87 33h75q54 0 87 -33t33 -87v-318q0 -54 -33 -87t-87 -33h-75q-54 0 -87 33t-33 87zM245 678l57 -76q7 -9 -4 -9h-39
q-11 0 -18 10l-33 46l-35 -46q-7 -10 -19 -10h-36q-12 0 -5 9l58 76q6 9 19 9h36q13 0 19 -9z" />
    <glyph glyph-name="otilde" unicode="&#xf5;" horiz-adv-x="415" 
d="M120 438v-326q0 -22 14 -36t36 -14h75q23 0 36.5 14t13.5 36v326q0 22 -13.5 36t-36.5 14h-75q-22 0 -36 -14t-14 -36zM50 116v318q0 54 33 87t87 33h75q54 0 87 -33t33 -87v-318q0 -54 -33 -87t-87 -33h-75q-54 0 -87 33t-33 87zM116 608v29q0 16 20.5 26.5t37.5 10.5
q14 0 27 -7l25 -13q8 -4 17 -4q16 0 43 19q4 2 5 2q5 0 5 -7v-29q0 -16 -20 -26t-38 -10q-14 0 -27 6l-25 14q-8 4 -17 4q-14 0 -43 -20q-2 -2 -6 -2t-4 7z" />
    <glyph glyph-name="odieresis" unicode="&#xf6;" horiz-adv-x="415" 
d="M120 438v-326q0 -22 14 -36t36 -14h75q23 0 36.5 14t13.5 36v326q0 22 -13.5 36t-36.5 14h-75q-22 0 -36 -14t-14 -36zM50 116v318q0 54 33 87t87 33h75q54 0 87 -33t33 -87v-318q0 -54 -33 -87t-87 -33h-75q-54 0 -87 33t-33 87zM233 619v23q0 23 23 23h23q23 0 23 -23
v-23q0 -22 -23 -22h-23q-23 0 -23 22zM115 619v23q0 23 22 23h23q23 0 23 -23v-23q0 -22 -23 -22h-23q-22 0 -22 22z" />
    <glyph glyph-name="divide" unicode="&#xf7;" 
d="M50 335v37q0 15 15 15h283q15 0 15 -15v-37q0 -15 -15 -15h-283q-15 0 -15 15zM163 486v48q0 23 22 23h46q22 0 22 -23v-48q0 -23 -22 -23h-46q-22 0 -22 23zM161 173v48q0 22 22 22h46q22 0 22 -22v-48q0 -23 -22 -23h-46q-22 0 -22 23z" />
    <glyph glyph-name="oslash" unicode="&#xf8;" horiz-adv-x="415" 
d="M126 87l134 399q-10 2 -15 2h-75q-22 0 -36 -14t-14 -36v-326q0 -14 6 -25zM289 463l-134 -399q8 -2 15 -2h75q23 0 36.5 14t13.5 36v326q0 14 -6 25zM86 -32l15 46q-51 32 -51 102v318q0 54 33 87t87 33h75q21 0 37 -4l14 43q4 7 9 7q3 0 4 -1l14 -4q8 -3 6 -13l-15 -46
q51 -32 51 -102v-318q0 -54 -33 -87t-87 -33h-75q-21 0 -37 4l-14 -43q-3 -7 -10 -7q-2 0 -3 1l-14 4q-9 3 -6 13z" />
    <glyph glyph-name="ugrave" unicode="&#xf9;" horiz-adv-x="437" 
d="M362 0h-40q-15 0 -15 15v34q-81 -57 -140 -57q-45 0 -76 33.5t-31 87.5v422q0 15 15 15h40q15 0 15 -15v-423q0 -25 16 -39.5t37 -14.5q44 0 124 64v413q0 15 15 15h40q15 0 15 -15v-520q0 -15 -15 -15zM207 674l43 -74q5 -10 -6 -10h-29q-13 0 -19 8l-70 78q-8 8 3 8h62
q11 0 16 -10z" />
    <glyph glyph-name="uacute" unicode="&#xfa;" horiz-adv-x="437" 
d="M362 0h-40q-15 0 -15 15v34q-81 -57 -140 -57q-45 0 -76 33.5t-31 87.5v422q0 15 15 15h40q15 0 15 -15v-423q0 -25 16 -39.5t37 -14.5q44 0 124 64v413q0 15 15 15h40q15 0 15 -15v-520q0 -15 -15 -15zM187 600l42 74q7 10 17 10h61q12 0 4 -8l-70 -78q-8 -8 -20 -8h-28
q-11 0 -6 10z" />
    <glyph glyph-name="ucircumflex" unicode="&#xfb;" horiz-adv-x="437" 
d="M362 0h-40q-15 0 -15 15v34q-81 -57 -140 -57q-45 0 -76 33.5t-31 87.5v422q0 15 15 15h40q15 0 15 -15v-423q0 -25 16 -39.5t37 -14.5q44 0 124 64v413q0 15 15 15h40q15 0 15 -15v-520q0 -15 -15 -15zM256 678l57 -76q7 -9 -5 -9h-38q-11 0 -18 10l-33 46l-35 -46
q-8 -10 -19 -10h-36q-12 0 -5 9l58 76q6 9 18 9h37q11 0 19 -9z" />
    <glyph glyph-name="udieresis" unicode="&#xfc;" horiz-adv-x="437" 
d="M362 0h-40q-15 0 -15 15v34q-81 -57 -140 -57q-45 0 -76 33.5t-31 87.5v422q0 15 15 15h40q15 0 15 -15v-423q0 -25 16 -39.5t37 -14.5q44 0 124 64v413q0 15 15 15h40q15 0 15 -15v-520q0 -15 -15 -15zM125 619v23q0 23 23 23h23q23 0 23 -23v-23q0 -22 -23 -22h-23
q-23 0 -23 22zM244 619v23q0 23 23 23h23q22 0 22 -23v-23q0 -22 -22 -22h-23q-23 0 -23 22z" />
    <glyph glyph-name="yacute" unicode="&#xfd;" horiz-adv-x="359" 
d="M112 -135l34 135l-134 535q-3 15 12 15h42q15 0 18 -15l90 -375q4 -19 4 -45h2q0 26 4 45l91 375q3 15 18 15h42q15 0 12 -15l-168 -670q-3 -15 -19 -15h-37q-16 0 -11 15zM148 600l42 74q5 10 17 10h61q12 0 4 -8l-70 -78q-8 -8 -20 -8h-29q-12 0 -5 10z" />
    <glyph glyph-name="thorn" unicode="&#xfe;" horiz-adv-x="423" 
d="M130 433v-316q78 -59 120 -59q21 0 37 14.5t16 39.5v326q0 25 -16 39.5t-37 14.5q-42 0 -120 -59zM115 -150h-40q-15 0 -15 15v820q0 15 15 15h40q15 0 15 -15v-180q81 53 137 53q45 0 75.5 -33.5t30.5 -87.5v-324q0 -54 -30.5 -87.5t-75.5 -33.5q-56 0 -137 53v-180
q0 -15 -15 -15z" />
    <glyph glyph-name="ydieresis" unicode="&#xff;" horiz-adv-x="359" 
d="M112 -135l34 135l-134 535q-3 15 12 15h42q15 0 18 -15l90 -375q4 -19 4 -45h2q0 26 4 45l91 375q3 15 18 15h42q15 0 12 -15l-168 -670q-3 -15 -19 -15h-37q-16 0 -11 15zM205 619v23q0 23 22 23h23q23 0 23 -23v-23q0 -22 -23 -22h-23q-22 0 -22 22zM86 619v23
q0 23 23 23h23q22 0 22 -23v-23q0 -22 -22 -22h-23q-23 0 -23 22z" />
    <glyph glyph-name="Amacron" unicode="&#x100;" horiz-adv-x="424" 
d="M134 201h156l-73 318q-4 17 -4 43h-2q0 -26 -4 -43zM307 128h-190l-26 -113q-3 -15 -18 -15h-46q-16 0 -11 15l162 670q3 15 19 15h30q14 0 19 -15l162 -670q3 -15 -11 -15h-45q-16 0 -19 15zM124 770v27q0 11 11 11h153q12 0 12 -11v-27q0 -12 -12 -12h-153
q-11 0 -11 12z" />
    <glyph glyph-name="amacron" unicode="&#x101;" 
d="M283 114v141q-67 16 -103 16q-27 0 -45 -16.5t-18 -43.5v-101q0 -25 16 -38.5t37 -13.5q43 0 113 56zM283 15v27q-72 -50 -130 -50q-45 0 -75.5 33t-30.5 86v99q0 55 33.5 88t89.5 33q45 0 113 -13v110q0 60 -53 60h-55q-53 0 -53 -60v-20q0 -15 -15 -15h-40
q-15 0 -15 15v26q0 54 33 87t87 33h61q54 0 87 -33t33 -87v-419q0 -15 -15 -15h-40q-15 0 -15 15zM119 620v27q0 11 12 11h153q12 0 12 -11v-27q0 -12 -12 -12h-153q-12 0 -12 12z" />
    <glyph glyph-name="Abreve" unicode="&#x102;" horiz-adv-x="424" 
d="M134 201h156l-73 318q-4 17 -4 43h-2q0 -26 -4 -43zM307 128h-190l-26 -113q-3 -15 -18 -15h-46q-16 0 -11 15l162 670q3 15 19 15h30q14 0 19 -15l162 -670q3 -15 -11 -15h-45q-16 0 -19 15zM304 820v-10q-2 -32 -22 -51t-51 -19h-33q-32 0 -51.5 19.5t-20.5 50.5l-1 10
q0 11 12 11h22q11 0 13 -11l3 -15q2 -20 21 -20h38q19 0 21 20l2 15q2 11 13 11h23q11 0 11 -11z" />
    <glyph glyph-name="abreve" unicode="&#x103;" 
d="M283 114v141q-67 16 -103 16q-27 0 -45 -16.5t-18 -43.5v-101q0 -25 16 -38.5t37 -13.5q43 0 113 56zM283 15v27q-72 -50 -130 -50q-45 0 -75.5 33t-30.5 86v99q0 55 33.5 88t89.5 33q45 0 113 -13v110q0 60 -53 60h-55q-53 0 -53 -60v-20q0 -15 -15 -15h-40
q-15 0 -15 15v26q0 54 33 87t87 33h61q54 0 87 -33t33 -87v-419q0 -15 -15 -15h-40q-15 0 -15 15zM300 670l-1 -10q-1 -31 -20.5 -50.5t-51.5 -19.5h-33q-32 0 -51.5 19.5t-20.5 50.5l-1 10q0 11 11 11h23q11 0 13 -11l2 -15q2 -20 21 -20h39q19 0 21 20l2 15q2 11 13 11h23
q11 0 11 -11z" />
    <glyph glyph-name="Aogonek" unicode="&#x104;" horiz-adv-x="424" 
d="M134 201h156l-73 318q-4 17 -4 43h-2q0 -26 -4 -43zM314 -84q0 45 34 84q-12 2 -14 13l-27 115h-190l-26 -113q-3 -15 -18 -15h-46q-16 0 -11 15l162 670q3 15 19 15h30q14 0 19 -15l163 -672q3 -13 -10 -13h-9q-29 -40 -33 -70q-3 -17 12 -17h41q12 0 12 -11v-17
q0 -12 -12 -12h-53q-19 0 -31 12t-12 31z" />
    <glyph glyph-name="aogonek" unicode="&#x105;" 
d="M283 114v141q-67 16 -103 16q-27 0 -45 -16.5t-18 -43.5v-101q0 -25 16 -38.5t37 -13.5q43 0 113 56zM340 0h-2q-27 -38 -33 -70q-3 -17 13 -17h40q12 0 12 -11v-17q0 -12 -12 -12h-53q-19 0 -30.5 12t-11.5 31q0 46 33 84q-13 0 -13 13v29q-72 -50 -130 -50
q-45 0 -75.5 33t-30.5 86v99q0 55 33.5 88t89.5 33q45 0 113 -13v110q0 60 -53 60h-55q-53 0 -53 -60v-20q0 -15 -15 -15h-40q-15 0 -15 15v26q0 54 33 87t87 33h61q54 0 87 -33t33 -87v-421q0 -13 -13 -13z" />
    <glyph glyph-name="Cacute" unicode="&#x106;" horiz-adv-x="430" 
d="M327 207h43q15 0 15 -15v-66q0 -58 -35.5 -94t-94.5 -36h-70q-59 0 -94.5 36t-35.5 94v448q0 58 35.5 94t94.5 36h70q59 0 94.5 -36t35.5 -94v-66q0 -15 -15 -15h-43q-15 0 -15 15v70q0 24 -15 38.5t-39 14.5h-76q-24 0 -39 -14.5t-15 -38.5v-456q0 -24 15 -38.5
t39 -14.5h76q24 0 39 14.5t15 38.5v70q0 15 15 15zM189 750l42 74q7 10 17 10h61q12 0 4 -8l-70 -78q-8 -8 -20 -8h-28q-11 0 -6 10z" />
    <glyph glyph-name="cacute" unicode="&#x107;" horiz-adv-x="388" 
d="M170 62h62q22 0 36 14t14 36v46q0 15 15 15h40q15 0 15 -15v-42q0 -54 -33 -87t-87 -33h-62q-54 0 -87 33t-33 87v318q0 54 33 87t87 33h62q54 0 87 -33t33 -87v-42q0 -15 -15 -15h-40q-15 0 -15 15v46q0 22 -14 36t-36 14h-62q-22 0 -36 -14t-14 -36v-326q0 -22 14 -36
t36 -14zM170 600l42 74q7 10 17 10h61q12 0 4 -8l-70 -78q-8 -8 -20 -8h-28q-11 0 -6 10z" />
    <glyph glyph-name="Ccircumflex" unicode="&#x108;" horiz-adv-x="430" 
d="M327 207h43q15 0 15 -15v-66q0 -58 -35.5 -94t-94.5 -36h-70q-59 0 -94.5 36t-35.5 94v448q0 58 35.5 94t94.5 36h70q59 0 94.5 -36t35.5 -94v-66q0 -15 -15 -15h-43q-15 0 -15 15v70q0 24 -15 38.5t-39 14.5h-76q-24 0 -39 -14.5t-15 -38.5v-456q0 -24 15 -38.5
t39 -14.5h76q24 0 39 14.5t15 38.5v70q0 15 15 15zM258 828l57 -76q7 -9 -5 -9h-38q-11 0 -18 10l-33 46l-35 -46q-8 -10 -19 -10h-36q-12 0 -5 9l58 76q6 9 18 9h37q11 0 19 -9z" />
    <glyph glyph-name="ccircumflex" unicode="&#x109;" horiz-adv-x="388" 
d="M170 62h62q22 0 36 14t14 36v46q0 15 15 15h40q15 0 15 -15v-42q0 -54 -33 -87t-87 -33h-62q-54 0 -87 33t-33 87v318q0 54 33 87t87 33h62q54 0 87 -33t33 -87v-42q0 -15 -15 -15h-40q-15 0 -15 15v46q0 22 -14 36t-36 14h-62q-22 0 -36 -14t-14 -36v-326q0 -22 14 -36
t36 -14zM239 678l57 -76q7 -9 -5 -9h-38q-11 0 -18 10l-33 46l-35 -46q-8 -10 -19 -10h-36q-12 0 -5 9l58 76q6 9 18 9h37q12 0 19 -9z" />
    <glyph glyph-name="Cdotaccent" unicode="&#x10a;" horiz-adv-x="430" 
d="M327 207h43q15 0 15 -15v-66q0 -58 -35.5 -94t-94.5 -36h-70q-59 0 -94.5 36t-35.5 94v448q0 58 35.5 94t94.5 36h70q59 0 94.5 -36t35.5 -94v-66q0 -15 -15 -15h-43q-15 0 -15 15v70q0 24 -15 38.5t-39 14.5h-76q-24 0 -39 -14.5t-15 -38.5v-456q0 -24 15 -38.5
t39 -14.5h76q24 0 39 14.5t15 38.5v70q0 15 15 15zM181 769v30q0 23 23 23h33q22 0 22 -23v-30q0 -22 -22 -22h-33q-23 0 -23 22z" />
    <glyph glyph-name="cdotaccent" unicode="&#x10b;" horiz-adv-x="388" 
d="M170 62h62q22 0 36 14t14 36v46q0 15 15 15h40q15 0 15 -15v-42q0 -54 -33 -87t-87 -33h-62q-54 0 -87 33t-33 87v318q0 54 33 87t87 33h62q54 0 87 -33t33 -87v-42q0 -15 -15 -15h-40q-15 0 -15 15v46q0 22 -14 36t-36 14h-62q-22 0 -36 -14t-14 -36v-326q0 -22 14 -36
t36 -14zM162 619v30q0 23 23 23h33q22 0 22 -23v-30q0 -22 -22 -22h-33q-23 0 -23 22z" />
    <glyph glyph-name="Ccaron" unicode="&#x10c;" horiz-adv-x="430" 
d="M327 207h43q15 0 15 -15v-66q0 -58 -35.5 -94t-94.5 -36h-70q-59 0 -94.5 36t-35.5 94v448q0 58 35.5 94t94.5 36h70q59 0 94.5 -36t35.5 -94v-66q0 -15 -15 -15h-43q-15 0 -15 15v70q0 24 -15 38.5t-39 14.5h-76q-24 0 -39 -14.5t-15 -38.5v-456q0 -24 15 -38.5
t39 -14.5h76q24 0 39 14.5t15 38.5v70q0 15 15 15zM315 828l-57 -75q-8 -10 -19 -10h-37q-11 0 -18 10l-58 75q-6 9 5 9h36q10 0 19 -9l35 -47l33 47q7 9 18 9h38q11 0 5 -9z" />
    <glyph glyph-name="ccaron" unicode="&#x10d;" horiz-adv-x="388" 
d="M170 62h62q22 0 36 14t14 36v46q0 15 15 15h40q15 0 15 -15v-42q0 -54 -33 -87t-87 -33h-62q-54 0 -87 33t-33 87v318q0 54 33 87t87 33h62q54 0 87 -33t33 -87v-42q0 -15 -15 -15h-40q-15 0 -15 15v46q0 22 -14 36t-36 14h-62q-22 0 -36 -14t-14 -36v-326q0 -22 14 -36
t36 -14zM296 678l-57 -75q-8 -10 -19 -10h-37q-11 0 -18 10l-58 75q-6 9 5 9h36q10 0 19 -9l35 -47l33 47q7 9 18 9h38q11 0 5 -9z" />
    <glyph glyph-name="Dcaron" unicode="&#x10e;" horiz-adv-x="448" 
d="M267 627h-129v-554h129q24 0 38.5 15t14.5 39v446q0 24 -14.5 39t-38.5 15zM65 15v670q0 15 15 15h183q59 0 94.5 -36t35.5 -94v-440q0 -58 -35.5 -94t-94.5 -36h-183q-15 0 -15 15zM171 828l35 -47l34 47q7 9 18 9h38q11 0 5 -9l-58 -75q-7 -10 -19 -10h-36
q-11 0 -19 10l-57 75q-6 9 4 9h37q11 0 18 -9z" />
    <glyph glyph-name="dcaron" unicode="&#x10f;" horiz-adv-x="471" 
d="M293 117v316q-78 59 -120 59q-21 0 -37 -14.5t-16 -39.5v-326q0 -25 16 -39.5t37 -14.5q42 0 120 59zM308 700h40q15 0 15 -15v-670q0 -15 -15 -15h-40q-15 0 -15 15v30q-78 -53 -136 -53q-45 0 -76 33.5t-31 87.5v324q0 54 31 87.5t76 33.5q58 0 136 -53v180q0 15 15 15
zM405 584l14 100q2 16 18 16h32q15 0 12 -15l-27 -101q-3 -13 -16 -13h-22q-13 0 -11 13z" />
    <glyph glyph-name="Dcroat" unicode="&#x110;" horiz-adv-x="448" 
d="M224 327h-86v-254h129q24 0 38.5 15t14.5 39v446q0 24 -14.5 39t-38.5 15h-129v-240h86q15 0 15 -15v-30q0 -15 -15 -15zM12 342v30q0 15 15 15h38v298q0 15 15 15h183q59 0 94.5 -36t35.5 -94v-440q0 -58 -35.5 -94t-94.5 -36h-183q-15 0 -15 15v312h-38q-15 0 -15 15z
" />
    <glyph glyph-name="dcroat" unicode="&#x111;" horiz-adv-x="423" 
d="M293 117v316q-78 59 -120 59q-21 0 -37 -14.5t-16 -39.5v-326q0 -25 16 -39.5t37 -14.5q42 0 120 59zM183 605v29q0 12 12 12h98v39q0 15 15 15h40q15 0 15 -15v-39h45q12 0 12 -12v-29q0 -12 -12 -12h-45v-578q0 -15 -15 -15h-40q-15 0 -15 15v30q-78 -53 -136 -53
q-45 0 -76 33.5t-31 87.5v324q0 54 31 87.5t76 33.5q58 0 136 -53v88h-98q-12 0 -12 12z" />
    <glyph glyph-name="Emacron" unicode="&#x112;" horiz-adv-x="372" 
d="M327 627h-189v-268h145q15 0 15 -15v-43q0 -15 -15 -15h-145v-213h189q15 0 15 -15v-43q0 -15 -15 -15h-247q-15 0 -15 15v670q0 15 15 15h247q15 0 15 -15v-43q0 -15 -15 -15zM115 770v27q0 11 12 11h153q11 0 11 -11v-27q0 -12 -11 -12h-153q-12 0 -12 12z" />
    <glyph glyph-name="emacron" unicode="&#x113;" horiz-adv-x="402" 
d="M235 488h-65q-22 0 -36 -14t-14 -36v-128h165v128q0 22 -13.5 36t-36.5 14zM340 243h-220v-130q0 -23 14 -37t36 -14h65q23 0 36.5 14t13.5 36v33q0 15 15 15h40q15 0 15 -15v-29q0 -54 -33 -87t-87 -33h-65q-54 0 -87 33t-33 87v318q0 54 33 87t87 33h65q54 0 87 -32.5
t33 -86.5v-177q0 -15 -15 -15zM114 620v27q0 11 12 11h153q12 0 12 -11v-27q0 -12 -12 -12h-153q-12 0 -12 12z" />
    <glyph glyph-name="Ebreve" unicode="&#x114;" horiz-adv-x="372" 
d="M327 627h-189v-268h145q15 0 15 -15v-43q0 -15 -15 -15h-145v-213h189q15 0 15 -15v-43q0 -15 -15 -15h-247q-15 0 -15 15v670q0 15 15 15h247q15 0 15 -15v-43q0 -15 -15 -15zM296 820l-1 -10q-1 -31 -20.5 -50.5t-51.5 -19.5h-33q-31 0 -51 19t-22 51v10q0 11 11 11h23
q11 0 13 -11l2 -15q2 -20 21 -20h38q19 0 21 20l2 15q2 11 14 11h22q12 0 12 -11z" />
    <glyph glyph-name="ebreve" unicode="&#x115;" horiz-adv-x="402" 
d="M235 488h-65q-22 0 -36 -14t-14 -36v-128h165v128q0 22 -13.5 36t-36.5 14zM340 243h-220v-130q0 -23 14 -37t36 -14h65q23 0 36.5 14t13.5 36v33q0 15 15 15h40q15 0 15 -15v-29q0 -54 -33 -87t-87 -33h-65q-54 0 -87 33t-33 87v318q0 54 33 87t87 33h65q54 0 87 -32.5
t33 -86.5v-177q0 -15 -15 -15zM295 670l-1 -10q-1 -31 -20.5 -50.5t-51.5 -19.5h-33q-32 0 -51.5 19.5t-20.5 50.5l-1 10q0 11 11 11h23q11 0 13 -11l2 -15q2 -20 21 -20h39q19 0 21 20l2 15q2 11 13 11h23q11 0 11 -11z" />
    <glyph glyph-name="Edotaccent" unicode="&#x116;" horiz-adv-x="372" 
d="M327 627h-189v-268h145q15 0 15 -15v-43q0 -15 -15 -15h-145v-213h189q15 0 15 -15v-43q0 -15 -15 -15h-247q-15 0 -15 15v670q0 15 15 15h247q15 0 15 -15v-43q0 -15 -15 -15zM164 769v30q0 23 23 23h33q22 0 22 -23v-30q0 -22 -22 -22h-33q-23 0 -23 22z" />
    <glyph glyph-name="edotaccent" unicode="&#x117;" horiz-adv-x="402" 
d="M235 488h-65q-22 0 -36 -14t-14 -36v-128h165v128q0 22 -13.5 36t-36.5 14zM340 243h-220v-130q0 -23 14 -37t36 -14h65q23 0 36.5 14t13.5 36v33q0 15 15 15h40q15 0 15 -15v-29q0 -54 -33 -87t-87 -33h-65q-54 0 -87 33t-33 87v318q0 54 33 87t87 33h65q54 0 87 -32.5
t33 -86.5v-177q0 -15 -15 -15zM163 619v30q0 23 23 23h33q23 0 23 -23v-30q0 -22 -23 -22h-33q-23 0 -23 22z" />
    <glyph glyph-name="Eogonek" unicode="&#x118;" horiz-adv-x="372" 
d="M272 0h-192q-15 0 -15 15v670q0 15 15 15h247q15 0 15 -15v-43q0 -15 -15 -15h-189v-268h145q15 0 15 -15v-43q0 -15 -15 -15h-145v-213h189q15 0 15 -15v-43q0 -15 -15 -15h-12q-29 -40 -33 -69q-2 -17 13 -17h40q12 0 12 -12v-16q0 -12 -12 -12h-53q-19 0 -30.5 11.5
t-11.5 30.5q0 45 32 84z" />
    <glyph glyph-name="eogonek" unicode="&#x119;" horiz-adv-x="402" 
d="M235 488h-65q-22 0 -36 -14t-14 -36v-128h165v128q0 22 -13.5 36t-36.5 14zM222 -4h-52q-54 0 -87 33t-33 87v318q0 54 33 87t87 33h65q54 0 87 -32.5t33 -86.5v-177q0 -15 -15 -15h-220v-130q0 -23 14 -37t36 -14h65q23 0 36.5 14t13.5 36v33q0 15 15 15h40q15 0 15 -15
v-29q0 -46 -23.5 -77t-64.5 -40q-27 -36 -32 -68q-2 -17 13 -17h40q12 0 12 -12v-16q0 -12 -12 -12h-53q-19 0 -30.5 12t-11.5 31q0 40 29 79z" />
    <glyph glyph-name="Ecaron" unicode="&#x11a;" horiz-adv-x="372" 
d="M327 627h-189v-268h145q15 0 15 -15v-43q0 -15 -15 -15h-145v-213h189q15 0 15 -15v-43q0 -15 -15 -15h-247q-15 0 -15 15v670q0 15 15 15h247q15 0 15 -15v-43q0 -15 -15 -15zM298 828l-57 -75q-8 -10 -19 -10h-37q-11 0 -18 10l-58 75q-6 9 5 9h36q10 0 19 -9l35 -47
l33 47q7 9 18 9h38q11 0 5 -9z" />
    <glyph glyph-name="ecaron" unicode="&#x11b;" horiz-adv-x="402" 
d="M235 488h-65q-22 0 -36 -14t-14 -36v-128h165v128q0 22 -13.5 36t-36.5 14zM340 243h-220v-130q0 -23 14 -37t36 -14h65q23 0 36.5 14t13.5 36v33q0 15 15 15h40q15 0 15 -15v-29q0 -54 -33 -87t-87 -33h-65q-54 0 -87 33t-33 87v318q0 54 33 87t87 33h65q54 0 87 -32.5
t33 -86.5v-177q0 -15 -15 -15zM297 678l-57 -75q-7 -10 -19 -10h-36q-12 0 -19 10l-58 75q-6 9 5 9h36q12 0 19 -9l35 -47l33 47q7 9 18 9h39q10 0 4 -9z" />
    <glyph glyph-name="Gcircumflex" unicode="&#x11c;" horiz-adv-x="437" 
d="M215 304v44q0 15 15 15h147q15 0 15 -15v-222q0 -58 -36 -94t-94 -36h-77q-59 0 -94.5 36t-35.5 94v448q0 58 35.5 94t94.5 36h77q58 0 94 -36t36 -94v-66q0 -15 -15 -15h-44q-15 0 -15 15v70q0 24 -14.5 38.5t-38.5 14.5h-83q-24 0 -39 -14.5t-15 -38.5v-456
q0 -24 15 -38.5t39 -14.5h83q24 0 38.5 14.5t14.5 38.5v167h-88q-15 0 -15 15zM261 828l57 -76q7 -9 -5 -9h-38q-11 0 -18 10l-33 46l-35 -46q-8 -10 -19 -10h-36q-12 0 -5 9l58 76q6 9 18 9h37q12 0 19 -9z" />
    <glyph glyph-name="gcircumflex" unicode="&#x11d;" horiz-adv-x="423" 
d="M293 117v316q-78 59 -120 59q-21 0 -37 -14.5t-16 -39.5v-326q0 -25 16 -39.5t37 -14.5q42 0 120 59zM293 505v30q0 15 15 15h40q15 0 15 -15v-548q0 -74 -51.5 -109.5t-127.5 -35.5q-29 0 -71.5 7.5t-42.5 24.5v37q0 11 14 11q6 0 10 -1q52 -12 83 -12q46 0 81 20.5
t35 64.5v50q-80 -52 -136 -52q-45 0 -76 33.5t-31 87.5v324q0 54 31 87.5t76 33.5q55 0 136 -53zM247 678l58 -76q7 -9 -5 -9h-38q-11 0 -18 10l-34 46l-35 -46q-7 -10 -18 -10h-37q-11 0 -4 9l57 76q7 9 19 9h36q13 0 19 -9z" />
    <glyph glyph-name="Gbreve" unicode="&#x11e;" horiz-adv-x="437" 
d="M215 304v44q0 15 15 15h147q15 0 15 -15v-222q0 -58 -36 -94t-94 -36h-77q-59 0 -94.5 36t-35.5 94v448q0 58 35.5 94t94.5 36h77q58 0 94 -36t36 -94v-66q0 -15 -15 -15h-44q-15 0 -15 15v70q0 24 -14.5 38.5t-38.5 14.5h-83q-24 0 -39 -14.5t-15 -38.5v-456
q0 -24 15 -38.5t39 -14.5h83q24 0 38.5 14.5t14.5 38.5v167h-88q-15 0 -15 15zM316 820l-1 -10q-1 -31 -20.5 -50.5t-51.5 -19.5h-33q-31 0 -51 19t-22 51v10q0 11 11 11h23q11 0 13 -11l2 -15q2 -20 21 -20h38q19 0 21 20l2 15q2 11 14 11h22q12 0 12 -11z" />
    <glyph glyph-name="gbreve" unicode="&#x11f;" horiz-adv-x="423" 
d="M293 117v316q-78 59 -120 59q-21 0 -37 -14.5t-16 -39.5v-326q0 -25 16 -39.5t37 -14.5q42 0 120 59zM293 505v30q0 15 15 15h40q15 0 15 -15v-548q0 -74 -51.5 -109.5t-127.5 -35.5q-29 0 -71.5 7.5t-42.5 24.5v37q0 11 14 11q6 0 10 -1q52 -12 83 -12q46 0 81 20.5
t35 64.5v50q-80 -52 -136 -52q-45 0 -76 33.5t-31 87.5v324q0 54 31 87.5t76 33.5q55 0 136 -53zM302 670v-10q-2 -32 -22 -51t-51 -19h-33q-32 0 -51.5 19.5t-20.5 50.5l-1 10q0 11 12 11h22q12 0 14 -11l2 -15q2 -20 21 -20h38q19 0 21 20l2 15q2 11 13 11h23q11 0 11 -11
z" />
    <glyph glyph-name="Gdotaccent" unicode="&#x120;" horiz-adv-x="437" 
d="M215 304v44q0 15 15 15h147q15 0 15 -15v-222q0 -58 -36 -94t-94 -36h-77q-59 0 -94.5 36t-35.5 94v448q0 58 35.5 94t94.5 36h77q58 0 94 -36t36 -94v-66q0 -15 -15 -15h-44q-15 0 -15 15v70q0 24 -14.5 38.5t-38.5 14.5h-83q-24 0 -39 -14.5t-15 -38.5v-456
q0 -24 15 -38.5t39 -14.5h83q24 0 38.5 14.5t14.5 38.5v167h-88q-15 0 -15 15zM184 769v30q0 23 23 23h33q22 0 22 -23v-30q0 -22 -22 -22h-33q-23 0 -23 22z" />
    <glyph glyph-name="gdotaccent" unicode="&#x121;" horiz-adv-x="423" 
d="M293 117v316q-78 59 -120 59q-21 0 -37 -14.5t-16 -39.5v-326q0 -25 16 -39.5t37 -14.5q42 0 120 59zM293 505v30q0 15 15 15h40q15 0 15 -15v-548q0 -74 -51.5 -109.5t-127.5 -35.5q-29 0 -71.5 7.5t-42.5 24.5v37q0 11 14 11q6 0 10 -1q52 -12 83 -12q46 0 81 20.5
t35 64.5v50q-80 -52 -136 -52q-45 0 -76 33.5t-31 87.5v324q0 54 31 87.5t76 33.5q55 0 136 -53zM171 619v30q0 23 22 23h33q23 0 23 -23v-30q0 -22 -23 -22h-33q-22 0 -22 22z" />
    <glyph glyph-name="Gcommaaccent" unicode="&#x122;" horiz-adv-x="437" 
d="M215 304v44q0 15 15 15h147q15 0 15 -15v-222q0 -58 -36 -94t-94 -36h-77q-59 0 -94.5 36t-35.5 94v448q0 58 35.5 94t94.5 36h77q58 0 94 -36t36 -94v-66q0 -15 -15 -15h-44q-15 0 -15 15v70q0 24 -14.5 38.5t-38.5 14.5h-83q-24 0 -39 -14.5t-15 -38.5v-456
q0 -24 15 -38.5t39 -14.5h83q24 0 38.5 14.5t14.5 38.5v167h-88q-15 0 -15 15zM188 -139l12 87q2 16 18 16h25q17 0 12 -15l-24 -88q-2 -13 -15 -13h-17q-13 0 -11 13z" />
    <glyph glyph-name="gcommaaccent" unicode="&#x123;" horiz-adv-x="423" 
d="M293 117v316q-78 59 -120 59q-21 0 -37 -14.5t-16 -39.5v-326q0 -25 16 -39.5t37 -14.5q42 0 120 59zM293 505v30q0 15 15 15h40q15 0 15 -15v-548q0 -74 -51.5 -109.5t-127.5 -35.5q-29 0 -71.5 7.5t-42.5 24.5v37q0 11 14 11q6 0 10 -1q52 -12 83 -12q46 0 81 20.5
t35 64.5v50q-80 -52 -136 -52q-45 0 -76 33.5t-31 87.5v324q0 54 31 87.5t76 33.5q55 0 136 -53zM250 696l-12 -87q-2 -16 -18 -16h-25q-7 0 -11 4.5t-2 10.5l24 88q3 13 16 13h17q13 0 11 -13z" />
    <glyph glyph-name="Hcircumflex" unicode="&#x124;" horiz-adv-x="458" 
d="M65 15v670q0 15 15 15h43q15 0 15 -15v-326h182v326q0 15 15 15h43q15 0 15 -15v-670q0 -15 -15 -15h-43q-15 0 -15 15v271h-182v-271q0 -15 -15 -15h-43q-15 0 -15 15zM267 828l57 -76q7 -9 -5 -9h-38q-11 0 -18 10l-33 46l-35 -46q-8 -10 -19 -10h-36q-12 0 -5 9l58 76
q6 9 18 9h37q12 0 19 -9z" />
    <glyph glyph-name="hcircumflex" unicode="&#x125;" horiz-adv-x="432" 
d="M75 700h40q15 0 15 -15v-180q78 53 135 53q45 0 76 -34t31 -87v-422q0 -15 -15 -15h-40q-15 0 -15 15v423q0 26 -16 40t-38 14q-40 0 -118 -59v-414q0 -19 -15 -19h-40q-15 0 -15 19v666q0 15 15 15zM135 828l57 -76q7 -9 -5 -9h-38q-11 0 -18 10l-33 46l-35 -46
q-8 -10 -19 -10h-36q-12 0 -5 9l58 76q6 9 18 9h37q11 0 19 -9z" />
    <glyph glyph-name="Hbar" unicode="&#x126;" horiz-adv-x="458" 
d="M320 523h-182v-164h182v164zM12 538v30q0 15 15 15h38v102q0 15 15 15h43q15 0 15 -15v-102h182v102q0 15 15 15h43q15 0 15 -15v-102h39q15 0 15 -15v-30q0 -15 -15 -15h-39v-508q0 -15 -15 -15h-43q-15 0 -15 15v271h-182v-271q0 -15 -15 -15h-43q-15 0 -15 15v508h-38
q-15 0 -15 15z" />
    <glyph glyph-name="hbar" unicode="&#x127;" horiz-adv-x="432" 
d="M3 604v30q0 12 12 12h45v39q0 15 15 15h40q15 0 15 -15v-39h98q12 0 12 -12v-30q0 -11 -12 -11h-98v-88q78 53 135 53q45 0 76 -34t31 -87v-422q0 -15 -15 -15h-40q-15 0 -15 15v423q0 26 -16 40t-38 14q-40 0 -118 -59v-414q0 -19 -15 -19h-40q-15 0 -15 19v574h-45
q-12 0 -12 11z" />
    <glyph glyph-name="Itilde" unicode="&#x128;" horiz-adv-x="290" 
d="M32 15v40q0 15 15 15h61v560h-61q-15 0 -15 15v40q0 15 15 15h196q15 0 15 -15v-40q0 -15 -15 -15h-61v-560h61q15 0 15 -15v-40q0 -15 -15 -15h-196q-15 0 -15 15zM53 758v29q0 16 20.5 26.5t38.5 10.5q15 0 26 -7l26 -13q8 -4 17 -4q13 0 43 19q4 2 5 2q4 0 4 -7v-29
q0 -16 -20 -26t-38 -10q-14 0 -26 6l-26 14q-8 4 -17 4q-14 0 -43 -20q-2 -2 -5 -2q-5 0 -5 7z" />
    <glyph glyph-name="itilde" unicode="&#x129;" horiz-adv-x="190" 
d="M60 15v520q0 15 15 15h40q15 0 15 -15v-520q0 -15 -15 -15h-40q-15 0 -15 15zM4 608v29q0 16 20 26.5t38 10.5q15 0 26 -7l26 -13q8 -4 17 -4q16 0 43 19q4 2 5 2q5 0 5 -7v-29q0 -16 -20.5 -26t-37.5 -10q-14 0 -27 6l-26 14q-7 4 -16 4q-13 0 -44 -20q-2 -2 -5 -2
q-4 0 -4 7z" />
    <glyph glyph-name="Imacron" unicode="&#x12a;" horiz-adv-x="290" 
d="M182 630v-560h61q15 0 15 -15v-40q0 -15 -15 -15h-196q-15 0 -15 15v40q0 15 15 15h61v560h-61q-15 0 -15 15v40q0 15 15 15h196q15 0 15 -15v-40q0 -15 -15 -15h-61zM221 758h-153q-11 0 -11 12v27q0 11 11 11h153q12 0 12 -11v-27q0 -12 -12 -12z" />
    <glyph glyph-name="imacron" unicode="&#x12b;" horiz-adv-x="190" 
d="M60 15v520q0 15 15 15h40q15 0 15 -15v-520q0 -15 -15 -15h-40q-15 0 -15 15zM7 620v27q0 11 12 11h153q11 0 11 -11v-27q0 -12 -11 -12h-153q-12 0 -12 12z" />
    <glyph glyph-name="Ibreve" unicode="&#x12c;" horiz-adv-x="290" 
d="M32 15v40q0 15 15 15h61v560h-61q-15 0 -15 15v40q0 15 15 15h196q15 0 15 -15v-40q0 -15 -15 -15h-61v-560h61q15 0 15 -15v-40q0 -15 -15 -15h-196q-15 0 -15 15zM237 820v-10q-2 -32 -22 -51t-51 -19h-33q-32 0 -51.5 19.5t-20.5 50.5l-1 10q0 11 12 11h22
q12 0 14 -11l2 -15q2 -20 21 -20h38q19 0 21 20l2 15q2 11 13 11h23q11 0 11 -11z" />
    <glyph glyph-name="ibreve" unicode="&#x12d;" horiz-adv-x="190" 
d="M60 15v520q0 15 15 15h40q15 0 15 -15v-520q0 -15 -15 -15h-40q-15 0 -15 15zM188 670l-1 -10q-1 -31 -20.5 -50.5t-51.5 -19.5h-33q-31 0 -51 19t-22 51v10q0 11 11 11h23q11 0 13 -11l2 -15q2 -20 21 -20h38q19 0 21 20l2 15q2 11 14 11h22q12 0 12 -11z" />
    <glyph glyph-name="Iogonek" unicode="&#x12e;" horiz-adv-x="290" 
d="M131 0h-84q-15 0 -15 15v40q0 15 15 15h61v560h-61q-15 0 -15 15v40q0 15 15 15h196q15 0 15 -15v-40q0 -15 -15 -15h-61v-560h61q15 0 15 -15v-40q0 -15 -15 -15h-70q-29 -40 -33 -70q-2 -17 13 -17h40q12 0 12 -11v-17q0 -12 -12 -12h-53q-19 0 -30.5 11.5t-11.5 31.5
q0 46 33 84z" />
    <glyph glyph-name="iogonek" unicode="&#x12f;" horiz-adv-x="190" 
d="M43 -84q0 44 33 84h-2q-13 0 -13 13v522q0 15 15 15h40q15 0 15 -15v-522q0 -11 -12 -13q-27 -38 -33 -70q-3 -17 12 -17h41q11 0 11 -11v-17q0 -12 -11 -12h-53q-20 0 -31.5 11.5t-11.5 31.5zM53 648v36q0 22 22 22h40q23 0 23 -22v-36q0 -23 -23 -23h-40q-22 0 -22 23z
" />
    <glyph glyph-name="Idotaccent" unicode="&#x130;" horiz-adv-x="290" 
d="M243 630h-61v-560h61q15 0 15 -15v-40q0 -15 -15 -15h-196q-15 0 -15 15v40q0 15 15 15h61v560h-61q-15 0 -15 15v40q0 15 15 15h196q15 0 15 -15v-40q0 -15 -15 -15zM184 799v-30q0 -22 -23 -22h-33q-22 0 -22 22v30q0 23 22 23h33q23 0 23 -23z" />
    <glyph glyph-name="dotlessi" unicode="&#x131;" horiz-adv-x="190" 
d="M60 15v520q0 15 15 15h40q15 0 15 -15v-520q0 -15 -15 -15h-40q-15 0 -15 15z" />
    <glyph glyph-name="IJ" unicode="&#x132;" horiz-adv-x="682" 
d="M32 15v40q0 15 15 15h61v560h-61q-15 0 -15 15v40q0 15 15 15h196q15 0 15 -15v-40q0 -15 -15 -15h-61v-560h61q15 0 15 -15v-40q0 -15 -15 -15h-196q-15 0 -15 15zM493 -4h-55q-58 0 -94 36t-36 94v42q0 15 15 15h44q15 0 15 -15v-46q0 -24 14.5 -38.5t38.5 -14.5h62
q24 0 38.5 14.5t14.5 38.5v508h-85q-15 0 -15 15v40q0 15 15 15h143q15 0 15 -15v-559q0 -58 -35.5 -94t-94.5 -36z" />
    <glyph glyph-name="ij" unicode="&#x133;" horiz-adv-x="398" 
d="M61 15v520q0 15 15 15h40q15 0 15 -15v-520q0 -15 -15 -15h-40q-15 0 -15 15zM53 648v36q0 22 22 22h40q23 0 23 -22v-36q0 -23 -23 -23h-40q-22 0 -22 23zM185 -83h31q22 0 36 13.5t14 36.5v568q0 15 15 15h40q15 0 15 -15v-565q0 -54 -33 -87t-87 -33h-31q-15 0 -15 15
v37q0 15 15 15zM259 648v35q0 23 22 23h40q23 0 23 -23v-35q0 -23 -23 -23h-40q-22 0 -22 23z" />
    <glyph glyph-name="Jcircumflex" unicode="&#x134;" horiz-adv-x="390" 
d="M203 -4h-55q-58 0 -94 36t-36 94v42q0 15 15 15h44q15 0 15 -15v-46q0 -24 14.5 -38.5t38.5 -14.5h62q24 0 38.5 14.5t14.5 38.5v508h-92q-15 0 -15 15v40q0 15 15 15h150q15 0 15 -15v-559q0 -58 -35.5 -94t-94.5 -36zM291 828l57 -76q7 -9 -4 -9h-38q-12 0 -19 10
l-33 46l-35 -46q-7 -10 -18 -10h-37q-10 0 -5 9l58 76q7 9 19 9h36q10 0 19 -9z" />
    <glyph glyph-name="jcircumflex" unicode="&#x135;" horiz-adv-x="208" 
d="M-5 -83h31q22 0 36 13.5t14 36.5v568q0 15 15 15h40q15 0 15 -15v-565q0 -54 -33 -87t-87 -33h-31q-15 0 -15 15v37q0 15 15 15zM148 678l57 -76q7 -9 -5 -9h-38q-11 0 -18 10l-33 46l-35 -46q-8 -10 -19 -10h-36q-12 0 -5 9l58 76q6 9 18 9h37q11 0 19 -9z" />
    <glyph glyph-name="Kcommaaccent" unicode="&#x136;" horiz-adv-x="415" 
d="M65 15v670q0 15 15 15h43q15 0 15 -15v-670q0 -15 -15 -15h-43q-15 0 -15 15zM323 700h52q14 0 8 -14l-160 -324l177 -349q6 -13 -9 -13h-51q-16 0 -22 13l-176 349l160 324q5 14 21 14zM173 -139l12 87q2 16 18 16h26q15 0 12 -15l-24 -88q-3 -13 -16 -13h-17
q-13 0 -11 13z" />
    <glyph glyph-name="kcommaaccent" unicode="&#x137;" horiz-adv-x="366" 
d="M60 15v670q0 15 15 15h40q15 0 15 -15v-670q0 -15 -15 -15h-40q-15 0 -15 15zM344 537l-138 -256l147 -268q7 -13 -9 -13h-43q-15 0 -22 13l-147 268l138 256q6 13 21 13h44q15 0 9 -13zM162 -139l12 87q2 16 18 16h26q15 0 12 -15l-24 -88q-3 -13 -16 -13h-17
q-13 0 -11 13z" />
    <glyph glyph-name="Lacute" unicode="&#x139;" horiz-adv-x="348" 
d="M80 700h43q15 0 15 -15v-611h180q15 0 15 -15v-44q0 -15 -15 -15h-238q-15 0 -15 15v670q0 15 15 15zM78 750l42 74q7 10 17 10h61q12 0 4 -8l-70 -78q-8 -8 -20 -8h-28q-11 0 -6 10z" />
    <glyph glyph-name="lacute" unicode="&#x13a;" horiz-adv-x="190" 
d="M60 15v670q0 15 15 15h40q15 0 15 -15v-670q0 -15 -15 -15h-40q-15 0 -15 15zM64 750l42 74q7 10 17 10h61q12 0 4 -8l-70 -78q-8 -8 -20 -8h-28q-11 0 -6 10z" />
    <glyph glyph-name="Lcommaaccent" unicode="&#x13b;" horiz-adv-x="348" 
d="M138 685v-611h180q15 0 15 -15v-44q0 -15 -15 -15h-238q-15 0 -15 15v670q0 15 15 15h43q15 0 15 -15zM168 -152h-17q-13 0 -11 13l12 87q2 16 18 16h26q15 0 12 -15l-24 -88q-3 -13 -16 -13z" />
    <glyph glyph-name="lcommaaccent" unicode="&#x13c;" horiz-adv-x="190" 
d="M60 15v670q0 15 15 15h40q15 0 15 -15v-670q0 -15 -15 -15h-40q-15 0 -15 15zM56 -139l12 87q2 16 18 16h26q15 0 12 -15l-24 -88q-2 -13 -16 -13h-17q-13 0 -11 13z" />
    <glyph glyph-name="Lcaron" unicode="&#x13d;" horiz-adv-x="348" 
d="M138 685v-611h180q15 0 15 -15v-44q0 -15 -15 -15h-238q-15 0 -15 15v670q0 15 15 15h43q15 0 15 -15zM260 571h-22q-13 0 -11 13l14 100q2 16 18 16h32q16 0 13 -15l-28 -101q-3 -13 -16 -13z" />
    <glyph glyph-name="lcaron" unicode="&#x13e;" horiz-adv-x="238" 
d="M60 15v670q0 15 15 15h40q15 0 15 -15v-670q0 -15 -15 -15h-40q-15 0 -15 15zM186 684l-14 -100q-2 -13 11 -13h22q14 0 17 13l27 101q3 15 -13 15h-32q-16 0 -18 -16z" />
    <glyph glyph-name="Ldot" unicode="&#x13f;" horiz-adv-x="348" 
d="M138 685v-611h180q15 0 15 -15v-44q0 -15 -15 -15h-238q-15 0 -15 15v670q0 15 15 15h43q15 0 15 -15zM299 303h-46q-22 0 -22 23v48q0 23 22 23h46q22 0 22 -23v-48q0 -23 -22 -23z" />
    <glyph glyph-name="ldot" unicode="&#x140;" horiz-adv-x="327" 
d="M60 15v670q0 15 15 15h40q15 0 15 -15v-670q0 -15 -15 -15h-40q-15 0 -15 15zM213 326v48q0 23 23 23h45q22 0 22 -23v-48q0 -23 -22 -23h-45q-23 0 -23 23z" />
    <glyph glyph-name="Lslash" unicode="&#x141;" horiz-adv-x="359" 
d="M19 238l-15 27q-9 12 5 20l67 39v361q0 15 15 15h43q15 0 15 -15v-319l73 43q4 3 8 3q8 0 13 -8l15 -26q8 -12 -5 -21l-104 -60v-223h180q15 0 15 -15v-44q0 -15 -15 -15h-238q-15 0 -15 15v239l-36 -21q-3 -2 -8 -2q-9 0 -13 7z" />
    <glyph glyph-name="lslash" unicode="&#x142;" horiz-adv-x="225" 
d="M17 240l-16 27q-7 12 6 20l69 42v356q0 15 15 15h40q15 0 15 -15v-314l42 26q6 2 9 2q7 0 12 -8l16 -26q6 -12 -6 -20l-73 -44v-286q0 -15 -15 -15h-40q-15 0 -15 15v243l-39 -23q-3 -3 -8 -3q-7 0 -12 8z" />
    <glyph glyph-name="Nacute" unicode="&#x143;" horiz-adv-x="466" 
d="M138 473v-458q0 -15 -15 -15h-43q-15 0 -15 15v670q0 15 15 15h30q14 0 21 -14l188 -463q4 -11 12 -41h2q-6 26 -6 43v460q0 15 15 15h44q15 0 15 -15v-670q0 -15 -15 -15h-30q-16 0 -21 14l-188 460q-5 12 -12 42l-2 -1q5 -20 5 -42zM202 750l42 74q7 10 17 10h61
q12 0 4 -8l-70 -78q-8 -8 -20 -8h-28q-11 0 -6 10z" />
    <glyph glyph-name="nacute" unicode="&#x144;" horiz-adv-x="432" 
d="M75 550h40q15 0 15 -15v-30q78 53 135 53q45 0 76 -34t31 -87v-422q0 -15 -15 -15h-40q-15 0 -15 15v423q0 26 -16 40t-38 14q-40 0 -118 -59v-418q0 -15 -15 -15h-40q-15 0 -15 15v520q0 15 15 15zM186 600l42 74q5 10 17 10h61q12 0 4 -8l-70 -78q-8 -8 -20 -8h-29
q-12 0 -5 10z" />
    <glyph glyph-name="Ncommaaccent" unicode="&#x145;" horiz-adv-x="466" 
d="M138 473v-458q0 -15 -15 -15h-43q-15 0 -15 15v670q0 15 15 15h30q14 0 21 -14l188 -463q4 -11 12 -41h2q-6 26 -6 43v460q0 15 15 15h44q15 0 15 -15v-670q0 -15 -15 -15h-30q-16 0 -21 14l-188 460q-5 12 -12 42l-2 -1q5 -20 5 -42zM199 -139l12 87q2 16 18 16h25
q17 0 12 -15l-23 -88q-3 -13 -16 -13h-17q-13 0 -11 13z" />
    <glyph glyph-name="ncommaaccent" unicode="&#x146;" horiz-adv-x="432" 
d="M75 550h40q15 0 15 -15v-30q78 53 135 53q45 0 76 -34t31 -87v-422q0 -15 -15 -15h-40q-15 0 -15 15v423q0 26 -16 40t-38 14q-40 0 -118 -59v-418q0 -15 -15 -15h-40q-15 0 -15 15v520q0 15 15 15zM182 -139l12 87q2 16 18 16h26q15 0 12 -15l-24 -88q-3 -13 -16 -13
h-17q-13 0 -11 13z" />
    <glyph glyph-name="Ncaron" unicode="&#x147;" horiz-adv-x="466" 
d="M138 473v-458q0 -15 -15 -15h-43q-15 0 -15 15v670q0 15 15 15h30q14 0 21 -14l188 -463q4 -11 12 -41h2q-6 26 -6 43v460q0 15 15 15h44q15 0 15 -15v-670q0 -15 -15 -15h-30q-16 0 -21 14l-188 460q-5 12 -12 42l-2 -1q5 -20 5 -42zM328 828l-57 -75q-8 -10 -19 -10
h-37q-11 0 -18 10l-58 75q-6 9 5 9h36q10 0 19 -9l35 -47l33 47q7 9 18 9h38q11 0 5 -9z" />
    <glyph glyph-name="ncaron" unicode="&#x148;" horiz-adv-x="432" 
d="M75 550h40q15 0 15 -15v-30q78 53 135 53q45 0 76 -34t31 -87v-422q0 -15 -15 -15h-40q-15 0 -15 15v423q0 26 -16 40t-38 14q-40 0 -118 -59v-418q0 -15 -15 -15h-40q-15 0 -15 15v520q0 15 15 15zM312 678l-58 -75q-7 -10 -19 -10h-36q-11 0 -19 10l-57 75q-6 9 4 9h37
q11 0 18 -9l35 -47l34 47q7 9 18 9h38q11 0 5 -9z" />
    <glyph glyph-name="Eng" unicode="&#x14a;" horiz-adv-x="466" 
d="M271 -150h-60q-15 0 -15 15v43q0 15 15 15h63q24 0 38.5 15t14.5 39v56l-180 441q-5 12 -12 42l-2 -1q5 -20 5 -42v-458q0 -15 -15 -15h-43q-15 0 -15 15v670q0 15 15 15h30q14 0 21 -14l188 -463q4 -11 12 -41h2q-6 26 -6 43v460q0 15 15 15h44q15 0 15 -15v-705
q0 -58 -35.5 -94t-94.5 -36z" />
    <glyph glyph-name="eng" unicode="&#x14b;" horiz-adv-x="425" 
d="M75 550h40q15 0 15 -15v-30q78 53 135 53q45 0 76 -34t31 -87v-467q0 -54 -33 -87t-87 -33h-31q-15 0 -15 15v37q0 15 15 15h31q22 0 36 13.5t14 36.5v471q0 26 -16 40t-38 14q-40 0 -118 -59v-418q0 -15 -15 -15h-40q-15 0 -15 15v520q0 15 15 15z" />
    <glyph glyph-name="Omacron" unicode="&#x14c;" horiz-adv-x="455" 
d="M128 578v-456q0 -24 15 -38.5t39 -14.5h91q24 0 39 14.5t15 38.5v456q0 24 -15 38.5t-39 14.5h-91q-24 0 -39 -14.5t-15 -38.5zM55 126v448q0 58 35.5 94t94.5 36h85q58 0 94 -36t36 -94v-448q0 -58 -36 -94t-94 -36h-85q-59 0 -94.5 36t-35.5 94zM139 770v27q0 11 12 11
h153q12 0 12 -11v-27q0 -12 -12 -12h-153q-12 0 -12 12z" />
    <glyph glyph-name="omacron" unicode="&#x14d;" horiz-adv-x="415" 
d="M120 438v-326q0 -22 14 -36t36 -14h75q23 0 36.5 14t13.5 36v326q0 22 -13.5 36t-36.5 14h-75q-22 0 -36 -14t-14 -36zM50 116v318q0 54 33 87t87 33h75q54 0 87 -33t33 -87v-318q0 -54 -33 -87t-87 -33h-75q-54 0 -87 33t-33 87zM119 620v27q0 11 12 11h153q12 0 12 -11
v-27q0 -12 -12 -12h-153q-12 0 -12 12z" />
    <glyph glyph-name="Obreve" unicode="&#x14e;" horiz-adv-x="455" 
d="M128 578v-456q0 -24 15 -38.5t39 -14.5h91q24 0 39 14.5t15 38.5v456q0 24 -15 38.5t-39 14.5h-91q-24 0 -39 -14.5t-15 -38.5zM55 126v448q0 58 35.5 94t94.5 36h85q58 0 94 -36t36 -94v-448q0 -58 -36 -94t-94 -36h-85q-59 0 -94.5 36t-35.5 94zM320 820l-1 -10
q-1 -31 -20.5 -50.5t-51.5 -19.5h-33q-32 0 -51.5 19.5t-20.5 50.5l-1 10q0 11 11 11h23q11 0 13 -11l2 -15q2 -20 21 -20h39q19 0 21 20l2 15q2 11 13 11h23q11 0 11 -11z" />
    <glyph glyph-name="obreve" unicode="&#x14f;" horiz-adv-x="415" 
d="M120 438v-326q0 -22 14 -36t36 -14h75q23 0 36.5 14t13.5 36v326q0 22 -13.5 36t-36.5 14h-75q-22 0 -36 -14t-14 -36zM50 116v318q0 54 33 87t87 33h75q54 0 87 -33t33 -87v-318q0 -54 -33 -87t-87 -33h-75q-54 0 -87 33t-33 87zM300 670l-1 -10q-1 -31 -20.5 -50.5
t-51.5 -19.5h-33q-32 0 -51.5 19.5t-20.5 50.5l-1 10q0 11 11 11h23q11 0 13 -11l2 -15q2 -20 21 -20h39q19 0 21 20l2 15q2 11 13 11h23q11 0 11 -11z" />
    <glyph glyph-name="Ohungarumlaut" unicode="&#x150;" horiz-adv-x="455" 
d="M128 578v-456q0 -24 15 -38.5t39 -14.5h91q24 0 39 14.5t15 38.5v456q0 24 -15 38.5t-39 14.5h-91q-24 0 -39 -14.5t-15 -38.5zM55 126v448q0 58 35.5 94t94.5 36h85q58 0 94 -36t36 -94v-448q0 -58 -36 -94t-94 -36h-85q-59 0 -94.5 36t-35.5 94zM257 750l45 74
q5 10 17 10h51q13 0 4 -9l-64 -76q-7 -9 -19 -9h-29q-12 0 -5 10zM151 750l43 74q5 10 17 10h51q13 0 4 -9l-61 -76q-7 -9 -19 -9h-29q-11 0 -6 10z" />
    <glyph glyph-name="ohungarumlaut" unicode="&#x151;" horiz-adv-x="415" 
d="M120 438v-326q0 -22 14 -36t36 -14h75q23 0 36.5 14t13.5 36v326q0 22 -13.5 36t-36.5 14h-75q-22 0 -36 -14t-14 -36zM50 116v318q0 54 33 87t87 33h75q54 0 87 -33t33 -87v-318q0 -54 -33 -87t-87 -33h-75q-54 0 -87 33t-33 87zM237 600l45 74q5 10 17 10h51q13 0 4 -9
l-64 -76q-7 -9 -19 -9h-29q-12 0 -5 10zM131 600l43 74q5 10 17 10h51q13 0 4 -9l-61 -76q-7 -9 -19 -9h-29q-11 0 -6 10z" />
    <glyph glyph-name="OE" unicode="&#x152;" horiz-adv-x="633" 
d="M128 578v-456q0 -24 15 -38.5t39 -14.5h91q24 0 39 14.5t15 38.5v456q0 24 -15 38.5t-39 14.5h-91q-24 0 -39 -14.5t-15 -38.5zM342 700h246q15 0 15 -15v-43q0 -15 -15 -15h-188v-268h145q15 0 15 -15v-43q0 -15 -15 -15h-145v-213h188q15 0 15 -15v-43q0 -15 -15 -15
h-246q-10 0 -13 7q-28 -11 -59 -11h-85q-59 0 -94.5 36t-35.5 94v448q0 58 35.5 94t94.5 36h85q31 0 59 -11q3 7 13 7z" />
    <glyph glyph-name="oe" unicode="&#x153;" horiz-adv-x="647" 
d="M295 112v326q0 22 -13.5 36t-36.5 14h-75q-22 0 -36 -14t-14 -36v-326q0 -22 14 -36t36 -14h75q23 0 36.5 14t13.5 36zM480 488h-65q-23 0 -36.5 -14t-13.5 -36v-128h165v128q0 22 -14 36t-36 14zM585 243h-220v-130q0 -23 14 -37t36 -14h65q22 0 36 14t14 36v33
q0 15 15 15h40q15 0 15 -15v-29q0 -54 -33 -87t-87 -33h-65q-52 0 -85 31q-33 -31 -85 -31h-75q-54 0 -87 33t-33 87v318q0 54 33 87t87 33h75q52 0 85 -31q33 31 85 31h65q54 0 87 -32.5t33 -86.5v-177q0 -15 -15 -15z" />
    <glyph glyph-name="Racute" unicode="&#x154;" horiz-adv-x="428" 
d="M250 627h-112v-271h112q24 0 38.5 14.5t14.5 38.5v164q0 24 -14.5 39t-38.5 15zM315 14l-77 268h-100v-267q0 -15 -15 -15h-43q-15 0 -15 15v670q0 15 15 15h166q58 0 94 -36t36 -94v-158q0 -84 -67 -116l81 -282q5 -14 -11 -14h-45q-16 0 -19 14zM164 750l42 74
q7 10 17 10h61q12 0 4 -8l-70 -78q-8 -8 -20 -8h-28q-11 0 -6 10z" />
    <glyph glyph-name="racute" unicode="&#x155;" horiz-adv-x="274" 
d="M75 550h40q15 0 15 -15v-29q74 51 118 51q13 0 13 -14l1 -47q0 -11 -12 -11q-48 0 -120 -59v-411q0 -15 -15 -15h-40q-15 0 -15 15v520q0 15 15 15zM124 600l43 74q5 10 16 10h62q11 0 3 -8l-70 -78q-6 -8 -19 -8h-29q-11 0 -6 10z" />
    <glyph glyph-name="Rcommaaccent" unicode="&#x156;" horiz-adv-x="428" 
d="M250 627h-112v-271h112q24 0 38.5 14.5t14.5 38.5v164q0 24 -14.5 39t-38.5 15zM315 14l-77 268h-100v-267q0 -15 -15 -15h-43q-15 0 -15 15v670q0 15 15 15h166q58 0 94 -36t36 -94v-158q0 -84 -67 -116l81 -282q5 -14 -11 -14h-45q-16 0 -19 14zM180 -139l12 87
q2 16 18 16h25q17 0 12 -15l-23 -88q-3 -13 -16 -13h-17q-13 0 -11 13z" />
    <glyph glyph-name="rcommaaccent" unicode="&#x157;" horiz-adv-x="274" 
d="M75 550h40q15 0 15 -15v-29q74 51 118 51q13 0 13 -14l1 -47q0 -11 -12 -11q-48 0 -120 -59v-411q0 -15 -15 -15h-40q-15 0 -15 15v520q0 15 15 15zM52 -139l13 87q0 16 17 16h26q15 0 12 -15l-23 -88q-3 -13 -17 -13h-17q-11 0 -11 13z" />
    <glyph glyph-name="Rcaron" unicode="&#x158;" horiz-adv-x="428" 
d="M250 627h-112v-271h112q24 0 38.5 14.5t14.5 38.5v164q0 24 -14.5 39t-38.5 15zM315 14l-77 268h-100v-267q0 -15 -15 -15h-43q-15 0 -15 15v670q0 15 15 15h166q58 0 94 -36t36 -94v-158q0 -84 -67 -116l81 -282q5 -14 -11 -14h-45q-16 0 -19 14zM290 828l-57 -75
q-8 -10 -19 -10h-37q-11 0 -18 10l-58 75q-6 9 5 9h36q10 0 19 -9l35 -47l33 47q7 9 18 9h38q11 0 5 -9z" />
    <glyph glyph-name="rcaron" unicode="&#x159;" horiz-adv-x="274" 
d="M75 550h40q15 0 15 -15v-29q74 51 118 51q13 0 13 -14l1 -47q0 -11 -12 -11q-48 0 -120 -59v-411q0 -15 -15 -15h-40q-15 0 -15 15v520q0 15 15 15zM250 678l-57 -75q-7 -10 -19 -10h-36q-12 0 -19 10l-58 75q-6 9 5 9h36q12 0 19 -9l35 -47l33 47q7 9 18 9h39q10 0 4 -9
z" />
    <glyph glyph-name="Sacute" unicode="&#x15a;" horiz-adv-x="400" 
d="M43 510v64q0 58 35.5 94t94.5 36h58q59 0 94.5 -36t35.5 -94v-66q0 -15 -15 -15h-43q-15 0 -15 15v70q0 24 -14.5 38.5t-38.5 14.5h-65q-24 0 -39 -14.5t-15 -38.5v-68q0 -28 21 -47l181 -161q46 -41 46 -102v-75q0 -59 -36 -94.5t-94 -35.5h-69q-59 0 -94.5 35.5
t-35.5 94.5v66q0 15 15 15h43q15 0 15 -15v-69q0 -24 14.5 -38.5t38.5 -14.5h76q24 0 38.5 14.5t14.5 38.5v78q0 29 -21 47l-180 161q-46 41 -46 102zM168 750l43 74q5 10 16 10h62q11 0 3 -8l-70 -78q-6 -8 -19 -8h-29q-11 0 -6 10z" />
    <glyph glyph-name="sacute" unicode="&#x15b;" horiz-adv-x="385" 
d="M345 156v-40q0 -54 -32.5 -87t-87.5 -33h-65q-54 0 -87 33t-33 87v42q0 15 15 15h40q15 0 15 -15v-36q0 -60 53 -60h59q53 0 53 60v31q0 30 -25 47l-153 106q-23 16 -37.5 43t-14.5 56v29q0 54 32.5 87t87.5 33h55q54 0 87 -33t33 -87v-42q0 -15 -15 -15h-40
q-15 0 -15 15v36q0 60 -53 60h-49q-53 0 -53 -60v-21q0 -29 25 -46l153 -106q23 -17 37.5 -44t14.5 -55zM161 600l43 74q5 10 16 10h62q11 0 3 -8l-70 -78q-6 -8 -19 -8h-29q-11 0 -6 10z" />
    <glyph glyph-name="Scircumflex" unicode="&#x15c;" horiz-adv-x="400" 
d="M43 510v64q0 58 35.5 94t94.5 36h58q59 0 94.5 -36t35.5 -94v-66q0 -15 -15 -15h-43q-15 0 -15 15v70q0 24 -14.5 38.5t-38.5 14.5h-65q-24 0 -39 -14.5t-15 -38.5v-68q0 -28 21 -47l181 -161q46 -41 46 -102v-75q0 -59 -36 -94.5t-94 -35.5h-69q-59 0 -94.5 35.5
t-35.5 94.5v66q0 15 15 15h43q15 0 15 -15v-69q0 -24 14.5 -38.5t38.5 -14.5h76q24 0 38.5 14.5t14.5 38.5v78q0 29 -21 47l-180 161q-46 41 -46 102zM237 828l57 -76q7 -9 -4 -9h-39q-11 0 -18 10l-33 46l-35 -46q-7 -10 -19 -10h-36q-12 0 -5 9l58 76q6 9 19 9h36
q13 0 19 -9z" />
    <glyph glyph-name="scircumflex" unicode="&#x15d;" horiz-adv-x="385" 
d="M345 156v-40q0 -54 -32.5 -87t-87.5 -33h-65q-54 0 -87 33t-33 87v42q0 15 15 15h40q15 0 15 -15v-36q0 -60 53 -60h59q53 0 53 60v31q0 30 -25 47l-153 106q-23 16 -37.5 43t-14.5 56v29q0 54 32.5 87t87.5 33h55q54 0 87 -33t33 -87v-42q0 -15 -15 -15h-40
q-15 0 -15 15v36q0 60 -53 60h-49q-53 0 -53 -60v-21q0 -29 25 -46l153 -106q23 -17 37.5 -44t14.5 -55zM230 678l57 -76q7 -9 -4 -9h-39q-11 0 -18 10l-33 46l-35 -46q-7 -10 -19 -10h-36q-12 0 -5 9l58 76q6 9 19 9h36q13 0 19 -9z" />
    <glyph glyph-name="Scedilla" unicode="&#x15e;" horiz-adv-x="400" 
d="M262 -76v-22q0 -20 -12.5 -32.5t-32.5 -12.5h-60q-12 0 -12 12v13q0 12 12 12h50q15 0 15 15v8q0 15 -15 15h-25q-21 0 -18 21l8 42h-7q-59 0 -94.5 35.5t-35.5 94.5v66q0 15 15 15h43q15 0 15 -15v-69q0 -24 14.5 -38.5t38.5 -14.5h76q24 0 38.5 14.5t14.5 38.5v78
q0 29 -21 47l-180 161q-46 41 -46 102v64q0 58 35.5 94t94.5 36h58q59 0 94.5 -36t35.5 -94v-66q0 -15 -15 -15h-43q-15 0 -15 15v70q0 24 -14.5 38.5t-38.5 14.5h-65q-24 0 -39 -14.5t-15 -38.5v-68q0 -28 21 -47l181 -161q46 -41 46 -102v-75q0 -59 -36 -94.5t-94 -35.5
h-19l-5 -26h7q20 0 32.5 -12.5t12.5 -32.5z" />
    <glyph glyph-name="scedilla" unicode="&#x15f;" horiz-adv-x="385" 
d="M255 -76v-22q0 -20 -12.5 -32.5t-32.5 -12.5h-60q-12 0 -12 12v13q0 12 12 12h50q15 0 15 15v8q0 15 -15 15h-25q-21 0 -18 21l8 43h-5q-54 0 -87 33t-33 87v42q0 15 15 15h40q15 0 15 -15v-36q0 -60 53 -60h59q53 0 53 60v31q0 30 -25 47l-153 106q-23 16 -37.5 43
t-14.5 56v29q0 54 32.5 87t87.5 33h55q54 0 87 -33t33 -87v-42q0 -15 -15 -15h-40q-15 0 -15 15v36q0 60 -53 60h-49q-53 0 -53 -60v-21q0 -29 25 -46l153 -106q23 -17 37.5 -44t14.5 -55v-40q0 -54 -32.5 -87t-87.5 -33h-16l-5 -27h6q20 0 32.5 -12.5t12.5 -32.5z" />
    <glyph glyph-name="Scaron" unicode="&#x160;" horiz-adv-x="400" 
d="M43 510v64q0 58 35.5 94t94.5 36h58q59 0 94.5 -36t35.5 -94v-66q0 -15 -15 -15h-43q-15 0 -15 15v70q0 24 -14.5 38.5t-38.5 14.5h-65q-24 0 -39 -14.5t-15 -38.5v-68q0 -28 21 -47l181 -161q46 -41 46 -102v-75q0 -59 -36 -94.5t-94 -35.5h-69q-59 0 -94.5 35.5
t-35.5 94.5v66q0 15 15 15h43q15 0 15 -15v-69q0 -24 14.5 -38.5t38.5 -14.5h76q24 0 38.5 14.5t14.5 38.5v78q0 29 -21 47l-180 161q-46 41 -46 102zM294 828l-57 -75q-7 -10 -19 -10h-36q-12 0 -19 10l-58 75q-6 9 5 9h36q12 0 19 -9l35 -47l33 47q7 9 18 9h39q10 0 4 -9z
" />
    <glyph glyph-name="scaron" unicode="&#x161;" horiz-adv-x="385" 
d="M345 156v-40q0 -54 -32.5 -87t-87.5 -33h-65q-54 0 -87 33t-33 87v42q0 15 15 15h40q15 0 15 -15v-36q0 -60 53 -60h59q53 0 53 60v31q0 30 -25 47l-153 106q-23 16 -37.5 43t-14.5 56v29q0 54 32.5 87t87.5 33h55q54 0 87 -33t33 -87v-42q0 -15 -15 -15h-40
q-15 0 -15 15v36q0 60 -53 60h-49q-53 0 -53 -60v-21q0 -29 25 -46l153 -106q23 -17 37.5 -44t14.5 -55zM287 678l-57 -75q-7 -10 -19 -10h-36q-12 0 -19 10l-58 75q-6 9 5 9h36q12 0 19 -9l35 -47l33 47q7 9 18 9h39q10 0 4 -9z" />
    <glyph glyph-name="Tcommaaccent" unicode="&#x162;" horiz-adv-x="373" 
d="M363 685v-43q0 -15 -15 -15h-125v-612q0 -15 -15 -15h-43q-15 0 -15 15v612h-125q-15 0 -15 15v43q0 15 15 15h323q15 0 15 -15zM175 -36h26q15 0 13 -15l-24 -88q-3 -13 -17 -13h-17q-12 0 -10 13l12 87q2 16 17 16z" />
    <glyph glyph-name="tcommaaccent" unicode="&#x163;" horiz-adv-x="276" 
d="M13 498v37q0 15 15 15h59v85q0 15 15 15h40q15 0 15 -15v-85h80q15 0 15 -15v-37q0 -15 -15 -15h-80v-371q0 -22 13.5 -36t36.5 -14h30q15 0 15 -15v-36q0 -15 -15 -15h-30q-54 0 -87 33t-33 87v367h-59q-15 0 -15 15zM130 -139l12 87q3 16 18 16h26q17 0 12 -15l-24 -88
q-3 -13 -16 -13h-17q-13 0 -11 13z" />
    <glyph glyph-name="Tcaron" unicode="&#x164;" horiz-adv-x="373" 
d="M223 627v-612q0 -15 -15 -15h-43q-15 0 -15 15v612h-125q-15 0 -15 15v43q0 15 15 15h323q15 0 15 -15v-43q0 -15 -15 -15h-125zM281 828l-57 -75q-7 -10 -19 -10h-36q-12 0 -19 10l-58 75q-6 9 5 9h36q12 0 19 -9l35 -47l33 47q7 9 18 9h39q10 0 4 -9z" />
    <glyph glyph-name="tcaron" unicode="&#x165;" horiz-adv-x="276" 
d="M13 498v37q0 15 15 15h59v85q0 15 15 15h40q15 0 15 -15v-85h80q15 0 15 -15v-37q0 -15 -15 -15h-80v-371q0 -22 13.5 -36t36.5 -14h30q15 0 15 -15v-36q0 -15 -15 -15h-30q-54 0 -87 33t-33 87v367h-59q-15 0 -15 15zM207 605l14 101q2 15 18 15h32q15 0 12 -15
l-27 -101q-3 -13 -16 -13h-22q-13 0 -11 13z" />
    <glyph glyph-name="Tbar" unicode="&#x166;" horiz-adv-x="373" 
d="M348 627h-125v-237h72q15 0 15 -15v-30q0 -15 -15 -15h-72v-315q0 -15 -15 -15h-43q-15 0 -15 15v315h-72q-15 0 -15 15v30q0 15 15 15h72v237h-125q-15 0 -15 15v43q0 15 15 15h323q15 0 15 -15v-43q0 -15 -15 -15z" />
    <glyph glyph-name="tbar" unicode="&#x167;" horiz-adv-x="276" 
d="M22 322v30q0 11 11 11h54v120h-59q-15 0 -15 15v37q0 15 15 15h59v85q0 15 15 15h40q15 0 15 -15v-85h80q15 0 15 -15v-37q0 -15 -15 -15h-80v-120h75q11 0 11 -11v-30q0 -12 -11 -12h-75v-198q0 -22 13.5 -36t36.5 -14h30q15 0 15 -15v-36q0 -15 -15 -15h-30
q-54 0 -87 33t-33 87v194h-54q-11 0 -11 12z" />
    <glyph glyph-name="Utilde" unicode="&#x168;" horiz-adv-x="447" 
d="M333 700h44q15 0 15 -15v-559q0 -58 -36 -94t-94 -36h-77q-59 0 -94.5 36t-35.5 94v559q0 15 15 15h43q15 0 15 -15v-563q0 -24 15 -38.5t39 -14.5h83q24 0 38.5 14.5t14.5 38.5v563q0 15 15 15zM132 758v29q0 16 20 26.5t38 10.5q15 0 26 -7l26 -13q8 -4 17 -4
q16 0 43 19q4 2 5 2q5 0 5 -7v-29q0 -16 -20.5 -26t-37.5 -10q-14 0 -27 6l-26 14q-7 4 -16 4q-13 0 -44 -20q-2 -2 -5 -2q-4 0 -4 7z" />
    <glyph glyph-name="utilde" unicode="&#x169;" horiz-adv-x="437" 
d="M362 0h-40q-15 0 -15 15v34q-81 -57 -140 -57q-45 0 -76 33.5t-31 87.5v422q0 15 15 15h40q15 0 15 -15v-423q0 -25 16 -39.5t37 -14.5q44 0 124 64v413q0 15 15 15h40q15 0 15 -15v-520q0 -15 -15 -15zM127 608v29q0 16 20 26.5t38 10.5q15 0 26 -7l26 -13q8 -4 17 -4
q16 0 43 19q4 2 5 2q5 0 5 -7v-29q0 -16 -20.5 -26t-37.5 -10q-13 0 -27 6l-26 14q-7 4 -16 4q-13 0 -44 -20q-2 -2 -5 -2q-4 0 -4 7z" />
    <glyph glyph-name="Umacron" unicode="&#x16a;" horiz-adv-x="447" 
d="M333 700h44q15 0 15 -15v-559q0 -58 -36 -94t-94 -36h-77q-59 0 -94.5 36t-35.5 94v559q0 15 15 15h43q15 0 15 -15v-563q0 -24 15 -38.5t39 -14.5h83q24 0 38.5 14.5t14.5 38.5v563q0 15 15 15zM135 770v27q0 11 12 11h153q11 0 11 -11v-27q0 -12 -11 -12h-153
q-12 0 -12 12z" />
    <glyph glyph-name="umacron" unicode="&#x16b;" horiz-adv-x="437" 
d="M362 0h-40q-15 0 -15 15v34q-81 -57 -140 -57q-45 0 -76 33.5t-31 87.5v422q0 15 15 15h40q15 0 15 -15v-423q0 -25 16 -39.5t37 -14.5q44 0 124 64v413q0 15 15 15h40q15 0 15 -15v-520q0 -15 -15 -15zM130 620v27q0 11 12 11h153q11 0 11 -11v-27q0 -12 -11 -12h-153
q-12 0 -12 12z" />
    <glyph glyph-name="Ubreve" unicode="&#x16c;" horiz-adv-x="447" 
d="M333 700h44q15 0 15 -15v-559q0 -58 -36 -94t-94 -36h-77q-59 0 -94.5 36t-35.5 94v559q0 15 15 15h43q15 0 15 -15v-563q0 -24 15 -38.5t39 -14.5h83q24 0 38.5 14.5t14.5 38.5v563q0 15 15 15zM316 820l-1 -10q-1 -31 -20.5 -50.5t-51.5 -19.5h-33q-31 0 -51 19t-22 51
v10q0 11 11 11h23q11 0 13 -11l2 -15q2 -20 21 -20h38q19 0 21 20l2 15q2 11 14 11h22q12 0 12 -11z" />
    <glyph glyph-name="ubreve" unicode="&#x16d;" horiz-adv-x="437" 
d="M362 0h-40q-15 0 -15 15v34q-81 -57 -140 -57q-45 0 -76 33.5t-31 87.5v422q0 15 15 15h40q15 0 15 -15v-423q0 -25 16 -39.5t37 -14.5q44 0 124 64v413q0 15 15 15h40q15 0 15 -15v-520q0 -15 -15 -15zM311 670l-1 -10q-1 -31 -20.5 -50.5t-51.5 -19.5h-33q-31 0 -51 19
t-22 51v10q0 11 11 11h23q11 0 13 -11l2 -15q2 -20 21 -20h38q19 0 21 20l2 15q2 11 14 11h22q12 0 12 -11z" />
    <glyph glyph-name="Uring" unicode="&#x16e;" horiz-adv-x="447" 
d="M333 700h44q15 0 15 -15v-559q0 -58 -36 -94t-94 -36h-77q-59 0 -94.5 36t-35.5 94v559q0 15 15 15h43q15 0 15 -15v-563q0 -24 15 -38.5t39 -14.5h83q24 0 38.5 14.5t14.5 38.5v563q0 15 15 15zM153 805q0 29 20.5 49.5t49.5 20.5t49.5 -20.5t20.5 -49.5t-20.5 -49.5
t-49.5 -20.5t-49.5 20.5t-20.5 49.5zM191 805q0 -13 9.5 -23t22.5 -10t23 10t10 23t-10 23t-23 10t-22.5 -10t-9.5 -23z" />
    <glyph glyph-name="uring" unicode="&#x16f;" horiz-adv-x="437" 
d="M186 655q0 -13 9.5 -23t22.5 -10q14 0 23.5 10t9.5 23t-9.5 23t-23.5 10q-13 0 -22.5 -10t-9.5 -23zM362 0h-40q-15 0 -15 15v34q-81 -57 -140 -57q-45 0 -76 33.5t-31 87.5v422q0 15 15 15h40q15 0 15 -15v-423q0 -25 16 -39.5t37 -14.5q44 0 124 64v413q0 15 15 15h40
q15 0 15 -15v-520q0 -15 -15 -15zM148 655q0 29 20.5 49.5t49.5 20.5t49.5 -20.5t20.5 -49.5t-20.5 -49.5t-49.5 -20.5q-28 0 -49 20.5t-21 49.5z" />
    <glyph glyph-name="Uhungarumlaut" unicode="&#x170;" horiz-adv-x="447" 
d="M333 700h44q15 0 15 -15v-559q0 -58 -36 -94t-94 -36h-77q-59 0 -94.5 36t-35.5 94v559q0 15 15 15h43q15 0 15 -15v-563q0 -24 15 -38.5t39 -14.5h83q24 0 38.5 14.5t14.5 38.5v563q0 15 15 15zM252 750l45 74q7 10 18 10h51q13 0 4 -9l-64 -76q-9 -9 -19 -9h-29
q-11 0 -6 10zM147 750l42 74q7 10 17 10h52q11 0 4 -9l-61 -76q-9 -9 -19 -9h-29q-11 0 -6 10z" />
    <glyph glyph-name="uhungarumlaut" unicode="&#x171;" horiz-adv-x="437" 
d="M362 0h-40q-15 0 -15 15v34q-81 -57 -140 -57q-45 0 -76 33.5t-31 87.5v422q0 15 15 15h40q15 0 15 -15v-423q0 -25 16 -39.5t37 -14.5q44 0 124 64v413q0 15 15 15h40q15 0 15 -15v-520q0 -15 -15 -15zM142 600l42 74q7 10 17 10h52q11 0 4 -9l-61 -76q-9 -9 -19 -9h-29
q-11 0 -6 10zM247 600l45 74q7 10 18 10h51q13 0 4 -9l-64 -76q-9 -9 -19 -9h-29q-11 0 -6 10z" />
    <glyph glyph-name="Uogonek" unicode="&#x172;" horiz-adv-x="447" 
d="M300 0q-27 -35 -30 -66q-3 -17 12 -17h41q11 0 11 -11v-17q0 -12 -11 -12h-53q-20 0 -31.5 11.5t-11.5 31.5q0 39 27 76h-69q-59 0 -94.5 36t-35.5 94v559q0 15 15 15h43q15 0 15 -15v-563q0 -24 15 -38.5t39 -14.5h83q24 0 38.5 14.5t14.5 38.5v563q0 15 15 15h44
q15 0 15 -15v-559q0 -48 -25 -81.5t-67 -44.5z" />
    <glyph glyph-name="uogonek" unicode="&#x173;" horiz-adv-x="437" 
d="M321 0h-1q-13 0 -13 13v36q-81 -57 -140 -57q-45 0 -76 33.5t-31 87.5v422q0 15 15 15h40q15 0 15 -15v-423q0 -25 16 -39.5t37 -14.5q44 0 124 64v413q0 15 15 15h40q15 0 15 -15v-522q0 -13 -13 -13q-30 -38 -34 -70q-3 -17 13 -17h41q11 0 11 -11v-17q0 -12 -11 -12
h-54q-19 0 -30.5 12t-11.5 31q0 46 33 84z" />
    <glyph glyph-name="Wcircumflex" unicode="&#x174;" horiz-adv-x="595" 
d="M333 685l80 -488q2 -13 2 -43h2q0 24 3 43l86 488q2 15 17 15h45q15 0 12 -15l-129 -670q-3 -15 -18 -15h-32q-15 0 -17 15l-83 475q-2 12 -2 43h-2q0 -25 -3 -43l-83 -475q-2 -15 -17 -15h-32q-15 0 -17 15l-130 670q-2 15 12 15h45q15 0 18 -15l85 -488q2 -13 2 -43h2
q0 24 3 43l80 488q3 15 18 15h35q15 0 18 -15zM335 828l58 -76q7 -9 -5 -9h-38q-11 0 -18 10l-34 46l-35 -46q-7 -10 -18 -10h-37q-11 0 -4 9l57 76q7 9 19 9h36q13 0 19 -9z" />
    <glyph glyph-name="wcircumflex" unicode="&#x175;" horiz-adv-x="549" 
d="M270 384l-72 -369q-3 -15 -18 -15h-38q-15 0 -18 15l-112 520q-3 15 12 15h42q15 0 18 -15l74 -385q3 -20 3 -45h2q0 32 3 45l73 385q2 15 17 15h37q15 0 18 -15l73 -385q3 -19 3 -45h2q0 32 3 45l73 385q3 15 18 15h42q15 0 12 -15l-112 -520q-3 -15 -19 -15h-37
q-15 0 -18 15l-72 369q-3 20 -3 44h-2q0 -27 -4 -44zM312 678l57 -76q7 -9 -4 -9h-39q-11 0 -18 10l-33 46l-35 -46q-7 -10 -19 -10h-36q-12 0 -5 9l58 76q6 9 19 9h36q13 0 19 -9z" />
    <glyph glyph-name="Ycircumflex" unicode="&#x176;" horiz-adv-x="398" 
d="M382 686l-146 -409v-262q0 -15 -15 -15h-44q-15 0 -15 15v262l-146 409q-5 14 10 14h46q15 0 20 -14l100 -280q6 -18 6 -42h2q0 24 6 42l100 280q5 14 20 14h46q15 0 10 -14zM237 828l57 -76q7 -9 -5 -9h-38q-11 0 -18 10l-33 46l-35 -46q-8 -10 -19 -10h-36q-12 0 -5 9
l58 76q6 9 18 9h37q12 0 19 -9z" />
    <glyph glyph-name="ycircumflex" unicode="&#x177;" horiz-adv-x="359" 
d="M112 -135l34 135l-134 535q-3 15 12 15h42q15 0 18 -15l90 -375q4 -19 4 -45h2q0 26 4 45l91 375q3 15 18 15h42q15 0 12 -15l-168 -670q-3 -15 -19 -15h-37q-16 0 -11 15zM216 678l58 -76q7 -9 -5 -9h-38q-11 0 -18 10l-34 46l-35 -46q-7 -10 -18 -10h-37q-11 0 -4 9
l57 76q8 9 19 9h36q13 0 19 -9z" />
    <glyph glyph-name="Ydieresis" unicode="&#x178;" horiz-adv-x="398" 
d="M382 686l-146 -409v-262q0 -15 -15 -15h-44q-15 0 -15 15v262l-146 409q-5 14 10 14h46q15 0 20 -14l100 -280q6 -18 6 -42h2q0 24 6 42l100 280q5 14 20 14h46q15 0 10 -14zM225 769v23q0 23 23 23h23q22 0 22 -23v-23q0 -22 -22 -22h-23q-23 0 -23 22zM106 769v23
q0 23 23 23h23q23 0 23 -23v-23q0 -22 -23 -22h-23q-23 0 -23 22z" />
    <glyph glyph-name="Zacute" unicode="&#x179;" horiz-adv-x="371" 
d="M336 58v-43q0 -15 -15 -15h-274q-15 0 -15 15v43q0 17 6 29l221 540h-208q-15 0 -15 15v43q0 15 15 15h273q15 0 15 -15v-43q0 -17 -6 -29l-222 -540h210q15 0 15 -15zM154 750l43 74q5 10 16 10h62q11 0 3 -8l-70 -78q-6 -8 -19 -8h-29q-11 0 -6 10z" />
    <glyph glyph-name="zacute" unicode="&#x17a;" horiz-adv-x="342" 
d="M37 80l198 403h-187q-15 0 -15 15v37q0 15 15 15h250q15 0 15 -15v-37q0 -17 -7 -28l-197 -403h191q15 0 15 -15v-37q0 -15 -15 -15h-255q-15 0 -15 15v37q0 14 7 28zM142 600l42 74q5 10 17 10h61q12 0 4 -8l-70 -78q-8 -8 -20 -8h-29q-12 0 -5 10z" />
    <glyph glyph-name="Zdotaccent" unicode="&#x17b;" horiz-adv-x="371" 
d="M336 58v-43q0 -15 -15 -15h-274q-15 0 -15 15v43q0 17 6 29l221 540h-208q-15 0 -15 15v43q0 15 15 15h273q15 0 15 -15v-43q0 -17 -6 -29l-222 -540h210q15 0 15 -15zM146 769v30q0 23 23 23h33q23 0 23 -23v-30q0 -22 -23 -22h-33q-23 0 -23 22z" />
    <glyph glyph-name="zdotaccent" unicode="&#x17c;" horiz-adv-x="342" 
d="M37 80l198 403h-187q-15 0 -15 15v37q0 15 15 15h250q15 0 15 -15v-37q0 -17 -7 -28l-197 -403h191q15 0 15 -15v-37q0 -15 -15 -15h-255q-15 0 -15 15v37q0 14 7 28zM134 619v30q0 23 22 23h33q23 0 23 -23v-30q0 -22 -23 -22h-33q-22 0 -22 22z" />
    <glyph glyph-name="Zcaron" unicode="&#x17d;" horiz-adv-x="371" 
d="M336 58v-43q0 -15 -15 -15h-274q-15 0 -15 15v43q0 17 6 29l221 540h-208q-15 0 -15 15v43q0 15 15 15h273q15 0 15 -15v-43q0 -17 -6 -29l-222 -540h210q15 0 15 -15zM280 828l-57 -75q-7 -10 -19 -10h-36q-12 0 -19 10l-58 75q-6 9 5 9h36q12 0 19 -9l35 -47l33 47
q7 9 18 9h39q10 0 4 -9z" />
    <glyph glyph-name="zcaron" unicode="&#x17e;" horiz-adv-x="342" 
d="M37 80l198 403h-187q-15 0 -15 15v37q0 15 15 15h250q15 0 15 -15v-37q0 -17 -7 -28l-197 -403h191q15 0 15 -15v-37q0 -15 -15 -15h-255q-15 0 -15 15v37q0 14 7 28zM268 678l-58 -75q-7 -10 -19 -10h-36q-11 0 -19 10l-57 75q-6 9 4 9h37q11 0 18 -9l35 -47l34 47
q7 9 18 9h38q11 0 5 -9z" />
    <glyph glyph-name="uni018F" unicode="&#x18f;" horiz-adv-x="438" 
d="M177 69h80q24 0 38.5 14.5t14.5 38.5v178h-187v-178q0 -24 15 -38.5t39 -14.5zM65 373h245v204q0 24 -14.5 39t-38.5 15h-80q-24 0 -39 -14.5t-15 -38.5v-56q0 -15 -15 -15h-43q-15 0 -15 15v52q0 58 36 94t94 36h73q59 0 94.5 -36t35.5 -94v-448q0 -58 -35.5 -94
t-94.5 -36h-73q-59 0 -94.5 35.5t-35.5 93.5v233q0 15 15 15z" />
    <glyph glyph-name="florin" unicode="&#x192;" horiz-adv-x="275" 
d="M16 398l7 37q2 15 17 15h61l22 130q10 54 49 87t93 33h30q7 0 10.5 -4t1.5 -11l-6 -37q-3 -15 -18 -15h-30q-22 0 -38 -13.5t-21 -36.5l-23 -133h78q15 0 13 -15l-7 -37q-3 -15 -18 -15h-78l-91 -518q-3 -15 -18 -15h-40q-15 0 -12 15l91 518h-61q-15 0 -12 15z" />
    <glyph glyph-name="uni01DD" unicode="&#x1dd;" horiz-adv-x="402" 
d="M167 62h65q22 0 36 14t14 36v128h-165v-128q0 -22 13.5 -36t36.5 -14zM62 307h220v130q0 23 -14 37t-36 14h-65q-23 0 -36.5 -14t-13.5 -36v-33q0 -15 -15 -15h-40q-15 0 -15 15v29q0 54 33 87t87 33h65q54 0 87 -33t33 -87v-318q0 -54 -33 -87t-87 -33h-65
q-54 0 -87 32.5t-33 86.5v177q0 15 15 15z" />
    <glyph glyph-name="Aringacute" unicode="&#x1fa;" horiz-adv-x="424" 
d="M134 201h156l-73 318q-3 13 -3 43h-4q0 -30 -3 -43zM179 748q0 -13 10 -22.5t23 -9.5t23 9.5t10 22.5q0 14 -9.5 23.5t-23.5 9.5t-23.5 -9.5t-9.5 -23.5zM273 782q9 -15 9 -34q0 -39 -36 -63l162 -670q3 -15 -11 -15h-45q-16 0 -19 15l-26 113h-190l-26 -113
q-3 -15 -18 -15h-46q-16 0 -11 15l163 672q-37 20 -37 61q0 29 20.5 49.5t49.5 20.5q16 0 26 -5l28 49q7 10 17 10h62q9 0 3 -9z" />
    <glyph glyph-name="aringacute" unicode="&#x1fb;" 
d="M283 114v141q-67 16 -103 16q-27 0 -45 -16.5t-18 -43.5v-101q0 -25 16 -38.5t37 -13.5q43 0 113 56zM175 642q0 -14 9.5 -23.5t23.5 -9.5q13 0 22.5 10t9.5 23t-9.5 22.5t-22.5 9.5t-23 -9.5t-10 -22.5zM283 15v27q-72 -50 -130 -50q-45 0 -75.5 33t-30.5 86v99
q0 55 33.5 88t89.5 33q45 0 113 -13v110q0 60 -53 60h-55q-53 0 -53 -60v-20q0 -15 -15 -15h-40q-15 0 -15 15v26q0 54 33 87t87 33h61q54 0 87 -33t33 -87v-419q0 -15 -15 -15h-40q-15 0 -15 15zM227 709l32 57q7 10 17 10h62q12 0 3 -9l-70 -77q-2 -2 -8 -6q15 -18 15 -42
q0 -29 -20.5 -49.5t-49.5 -20.5t-49.5 20.5t-20.5 49.5t20.5 49.5t49.5 20.5q10 0 19 -3z" />
    <glyph glyph-name="AEacute" unicode="&#x1fc;" horiz-adv-x="612" 
d="M165 201h140v350q0 11 5 43l-2 1q-4 -29 -10 -42zM305 128h-167l-43 -113q-5 -15 -19 -15h-49q-16 0 -11 14l259 672q5 14 19 14h273q15 0 15 -15v-43q0 -15 -15 -15h-188v-268h145q15 0 15 -15v-43q0 -15 -15 -15h-145v-213h188q15 0 15 -15v-43q0 -15 -15 -15h-247
q-15 0 -15 15v113zM312 750l42 74q7 10 17 10h61q12 0 4 -8l-70 -78q-8 -8 -20 -8h-28q-11 0 -6 10z" />
    <glyph glyph-name="aeacute" unicode="&#x1fd;" horiz-adv-x="635" 
d="M283 116v139q-67 16 -103 16q-27 0 -45 -16.5t-18 -43.5v-101q0 -25 16 -38.5t37 -13.5q47 0 113 58zM468 488h-65q-23 0 -36.5 -14t-13.5 -36v-128h165v128q0 22 -14 36t-36 14zM573 243h-220v-130q0 -23 14 -37t36 -14h65q22 0 36 14t14 36v33q0 15 15 15h40
q15 0 15 -15v-29q0 -54 -33 -87t-87 -33h-65q-73 0 -103 55q-84 -59 -145 -59q-45 0 -76.5 33t-31.5 86v99q0 55 33.5 88t89.5 33q45 0 113 -13v110q0 60 -53 60h-55q-53 0 -53 -60v-20q0 -15 -15 -15h-40q-15 0 -15 15v26q0 54 33 87t87 33h61q52 0 85 -31q33 31 85 31h65
q54 0 87 -32.5t33 -86.5v-177q0 -15 -15 -15zM287 600l42 74q5 10 17 10h61q12 0 4 -8l-70 -78q-8 -8 -20 -8h-29q-12 0 -5 10z" />
    <glyph glyph-name="Oslashacute" unicode="&#x1fe;" horiz-adv-x="455" 
d="M131 103l160 526q-10 2 -18 2h-91q-24 0 -39 -14.5t-15 -38.5v-456q0 -10 3 -19zM324 597l-160 -526q10 -2 18 -2h91q24 0 39 14.5t15 38.5v456q0 10 -3 19zM91 -30l15 49q-51 35 -51 107v448q0 58 35.5 94t94.5 36h85q20 0 42 -5l14 43q3 8 10 8q2 0 3 -1l18 -5
q11 -3 7 -14l-15 -49q51 -35 51 -107v-448q0 -58 -36 -94t-94 -36h-85q-20 0 -42 5l-14 -44q-3 -7 -13 -7l-18 6q-11 3 -7 14zM196 750l43 74q5 10 16 10h62q11 0 3 -8l-70 -78q-6 -8 -19 -8h-29q-11 0 -6 10z" />
    <glyph glyph-name="oslashacute" unicode="&#x1ff;" horiz-adv-x="415" 
d="M126 87l134 399q-10 2 -15 2h-75q-22 0 -36 -14t-14 -36v-326q0 -14 6 -25zM289 463l-134 -399q8 -2 15 -2h75q23 0 36.5 14t13.5 36v326q0 14 -6 25zM86 -32l15 46q-51 32 -51 102v318q0 54 33 87t87 33h75q21 0 37 -4l14 43q4 7 9 7q3 0 4 -1l14 -4q8 -3 6 -13l-15 -46
q51 -32 51 -102v-318q0 -54 -33 -87t-87 -33h-75q-21 0 -37 4l-14 -43q-3 -7 -10 -7q-2 0 -3 1l-14 4q-9 3 -6 13zM176 600l43 74q5 10 16 10h62q11 0 3 -8l-70 -78q-6 -8 -19 -8h-29q-11 0 -6 10z" />
    <glyph glyph-name="Scommaaccent" unicode="&#x218;" horiz-adv-x="400" 
d="M43 510v64q0 58 35.5 94t94.5 36h58q59 0 94.5 -36t35.5 -94v-66q0 -15 -15 -15h-43q-15 0 -15 15v70q0 24 -14.5 38.5t-38.5 14.5h-65q-24 0 -39 -14.5t-15 -38.5v-68q0 -28 21 -47l181 -161q46 -41 46 -102v-75q0 -59 -36 -94.5t-94 -35.5h-69q-59 0 -94.5 35.5
t-35.5 94.5v66q0 15 15 15h43q15 0 15 -15v-69q0 -24 14.5 -38.5t38.5 -14.5h76q24 0 38.5 14.5t14.5 38.5v78q0 29 -21 47l-180 161q-46 41 -46 102zM166 -139l12 87q2 16 18 16h26q15 0 12 -15l-23 -88q-3 -13 -17 -13h-17q-13 0 -11 13z" />
    <glyph glyph-name="scommaaccent" unicode="&#x219;" horiz-adv-x="385" 
d="M345 156v-40q0 -54 -32.5 -87t-87.5 -33h-65q-54 0 -87 33t-33 87v42q0 15 15 15h40q15 0 15 -15v-36q0 -60 53 -60h59q53 0 53 60v31q0 30 -25 47l-153 106q-23 16 -37.5 43t-14.5 56v29q0 54 32.5 87t87.5 33h55q54 0 87 -33t33 -87v-42q0 -15 -15 -15h-40
q-15 0 -15 15v36q0 60 -53 60h-49q-53 0 -53 -60v-21q0 -29 25 -46l153 -106q23 -17 37.5 -44t14.5 -55zM161 -139l13 87q0 16 17 16h26q15 0 12 -15l-23 -88q-3 -13 -17 -13h-17q-11 0 -11 13z" />
    <glyph glyph-name="uni021A" unicode="&#x21a;" horiz-adv-x="373" 
d="M363 685v-43q0 -15 -15 -15h-125v-612q0 -15 -15 -15h-43q-15 0 -15 15v612h-125q-15 0 -15 15v43q0 15 15 15h323q15 0 15 -15zM175 -36h26q15 0 13 -15l-24 -88q-3 -13 -17 -13h-17q-12 0 -10 13l12 87q2 16 17 16z" />
    <glyph glyph-name="uni021B" unicode="&#x21b;" horiz-adv-x="276" 
d="M13 498v37q0 15 15 15h59v85q0 15 15 15h40q15 0 15 -15v-85h80q15 0 15 -15v-37q0 -15 -15 -15h-80v-371q0 -22 13.5 -36t36.5 -14h30q15 0 15 -15v-36q0 -15 -15 -15h-30q-54 0 -87 33t-33 87v367h-59q-15 0 -15 15zM130 -139l12 87q3 16 18 16h26q17 0 12 -15l-24 -88
q-3 -13 -16 -13h-17q-13 0 -11 13z" />
    <glyph glyph-name="dotlessj" unicode="&#x237;" horiz-adv-x="208" 
d="M-5 -83h31q22 0 36 13.5t14 36.5v568q0 15 15 15h40q15 0 15 -15v-565q0 -54 -33 -87t-87 -33h-31q-15 0 -15 15v37q0 15 15 15z" />
    <glyph glyph-name="uni0259" unicode="&#x259;" horiz-adv-x="402" 
d="M167 62h65q22 0 36 14t14 36v128h-165v-128q0 -22 13.5 -36t36.5 -14zM62 307h220v130q0 23 -14 37t-36 14h-65q-23 0 -36.5 -14t-13.5 -36v-33q0 -15 -15 -15h-40q-15 0 -15 15v29q0 54 33 87t87 33h65q54 0 87 -33t33 -87v-318q0 -54 -33 -87t-87 -33h-65
q-54 0 -87 32.5t-33 86.5v177q0 15 15 15z" />
    <glyph glyph-name="circumflex" unicode="&#x2c6;" horiz-adv-x="253" 
d="M163 785l58 -76q6 -9 -5 -9h-38q-11 0 -18 10l-33 46l-35 -47q-9 -9 -19 -9h-36q-11 0 -5 9l58 76q7 9 18 9h37q11 0 18 -9z" />
    <glyph glyph-name="caron" unicode="&#x2c7;" horiz-adv-x="253" 
d="M221 785l-58 -76q-7 -9 -18 -9h-37q-11 0 -18 9l-58 76q-6 9 5 9h36q10 0 19 -9l35 -47l33 46q7 10 18 10h38q11 0 5 -9z" />
    <glyph glyph-name="breve" unicode="&#x2d8;" horiz-adv-x="239" 
d="M209 776l-1 -9q-1 -31 -20.5 -50.5t-51.5 -19.5h-33q-31 0 -51 19t-22 51v9q0 12 11 12h23q11 0 13 -12l2 -15q2 -19 21 -19h39q8 0 14 5.5t6 13.5l3 15q2 12 13 12h23q11 0 11 -12z" />
    <glyph glyph-name="dotaccent" unicode="&#x2d9;" horiz-adv-x="138" 
d="M30 726v30q0 22 23 22h33q22 0 22 -22v-30q0 -23 -22 -23h-33q-23 0 -23 23z" />
    <glyph glyph-name="ring" unicode="&#x2da;" horiz-adv-x="227" 
d="M43 762q0 28 20.5 49t49.5 21t49.5 -20.5t20.5 -49.5t-20.5 -49.5t-49.5 -20.5t-49.5 20.5t-20.5 49.5zM81 762q0 -13 9.5 -23t22.5 -10t23 9.5t10 23.5q0 13 -10 22.5t-23 9.5t-22.5 -9.5t-9.5 -22.5z" />
    <glyph glyph-name="ogonek" unicode="&#x2db;" horiz-adv-x="190" 
d="M67 5h42q-32 -42 -37 -74q-2 -17 13 -17h41q11 0 11 -12v-16q0 -12 -11 -12h-54q-19 0 -30.5 11.5t-11.5 30.5q0 49 37 89z" />
    <glyph glyph-name="tilde" unicode="&#x2dc;" horiz-adv-x="243" 
d="M30 714v30q0 16 20.5 26t37.5 10q14 0 27 -6l25 -13q10 -5 17 -5q14 0 43 20q4 2 5 2q5 0 5 -7v-30q0 -16 -20 -25.5t-38 -9.5q-14 0 -27 6l-25 13q-10 5 -17 5q-13 0 -43 -21q-4 -2 -6 -2q-4 0 -4 7z" />
    <glyph glyph-name="hungarumlaut" unicode="&#x2dd;" horiz-adv-x="287" 
d="M137 706l45 75q5 10 17 10h51q13 0 4 -9l-64 -76q-6 -9 -19 -9h-29q-12 0 -5 9zM31 707l43 74q5 10 17 10h51q13 0 4 -9l-61 -76q-6 -9 -19 -9h-29q-11 0 -6 10z" />
    <glyph glyph-name="uni0400" unicode="&#x400;" horiz-adv-x="372" 
d="M327 627h-189v-268h145q15 0 15 -15v-43q0 -15 -15 -15h-145v-213h189q15 0 15 -15v-43q0 -15 -15 -15h-247q-15 0 -15 15v670q0 15 15 15h247q15 0 15 -15v-43q0 -15 -15 -15zM192 824l43 -74q5 -10 -6 -10h-29q-13 0 -19 8l-70 78q-8 8 3 8h62q11 0 16 -10z" />
    <glyph glyph-name="afii10023" unicode="&#x401;" horiz-adv-x="372" 
d="M327 627h-189v-268h145q15 0 15 -15v-43q0 -15 -15 -15h-145v-213h189q15 0 15 -15v-43q0 -15 -15 -15h-247q-15 0 -15 15v670q0 15 15 15h247q15 0 15 -15v-43q0 -15 -15 -15zM110 769v23q0 23 23 23h23q23 0 23 -23v-23q0 -22 -23 -22h-23q-23 0 -23 22zM229 769v23
q0 23 23 23h23q22 0 22 -23v-23q0 -22 -22 -22h-23q-23 0 -23 22z" />
    <glyph glyph-name="afii10051" unicode="&#x402;" horiz-adv-x="520" 
d="M340 -3h-30q-15 0 -15 15v43q0 15 15 15h33q24 0 39 14.5t15 38.5v161q0 24 -15 38.5t-39 14.5h-120v-322q0 -15 -15 -15h-43q-15 0 -15 15v612h-125q-15 0 -15 15v43q0 15 15 15h323q15 0 15 -15v-43q0 -15 -15 -15h-125v-216h117q58 0 94 -35.5t36 -94.5v-154
q0 -59 -36 -94.5t-94 -35.5z" />
    <glyph glyph-name="afii10052" unicode="&#x403;" horiz-adv-x="346" 
d="M65 15v670q0 15 15 15h241q15 0 15 -15v-43q0 -15 -15 -15h-183v-612q0 -15 -15 -15h-43q-15 0 -15 15zM163 750l42 74q5 10 17 10h61q12 0 4 -8l-70 -78q-8 -8 -20 -8h-29q-12 0 -5 10z" />
    <glyph glyph-name="afii10053" unicode="&#x404;" horiz-adv-x="430" 
d="M274 315h-146v-193q0 -24 15 -38.5t39 -14.5h76q24 0 39 14.5t15 38.5v70q0 15 15 15h43q15 0 15 -15v-66q0 -58 -35.5 -94t-94.5 -36h-70q-59 0 -94.5 36t-35.5 94v448q0 58 35.5 94t94.5 36h70q59 0 94.5 -36t35.5 -94v-66q0 -15 -15 -15h-43q-15 0 -15 15v70
q0 24 -15 38.5t-39 14.5h-76q-24 0 -39 -14.5t-15 -38.5v-193h146q15 0 15 -15v-40q0 -15 -15 -15z" />
    <glyph glyph-name="afii10054" unicode="&#x405;" horiz-adv-x="400" 
d="M43 510v64q0 58 35.5 94t94.5 36h58q59 0 94.5 -36t35.5 -94v-66q0 -15 -15 -15h-43q-15 0 -15 15v70q0 24 -14.5 38.5t-38.5 14.5h-65q-24 0 -39 -14.5t-15 -38.5v-68q0 -28 21 -47l181 -161q46 -41 46 -102v-75q0 -59 -36 -94.5t-94 -35.5h-69q-59 0 -94.5 35.5
t-35.5 94.5v66q0 15 15 15h43q15 0 15 -15v-69q0 -24 14.5 -38.5t38.5 -14.5h76q24 0 38.5 14.5t14.5 38.5v78q0 29 -21 47l-180 161q-46 41 -46 102z" />
    <glyph glyph-name="afii10055" unicode="&#x406;" horiz-adv-x="290" 
d="M32 15v40q0 15 15 15h61v560h-61q-15 0 -15 15v40q0 15 15 15h196q15 0 15 -15v-40q0 -15 -15 -15h-61v-560h61q15 0 15 -15v-40q0 -15 -15 -15h-196q-15 0 -15 15z" />
    <glyph glyph-name="afii10056" unicode="&#x407;" horiz-adv-x="290" 
d="M32 15v40q0 15 15 15h61v560h-61q-15 0 -15 15v40q0 15 15 15h196q15 0 15 -15v-40q0 -15 -15 -15h-61v-560h61q15 0 15 -15v-40q0 -15 -15 -15h-196q-15 0 -15 15zM52 769v23q0 23 23 23h23q22 0 22 -23v-23q0 -22 -22 -22h-23q-23 0 -23 22zM171 769v23q0 23 22 23h23
q23 0 23 -23v-23q0 -22 -23 -22h-23q-22 0 -22 22z" />
    <glyph glyph-name="afii10057" unicode="&#x408;" horiz-adv-x="392" 
d="M260 122v508h-85q-15 0 -15 15v40q0 15 15 15h143q15 0 15 -15v-559q0 -58 -35.5 -94t-94.5 -36h-55q-58 0 -94 36t-36 94v42q0 15 15 15h44q15 0 15 -15v-46q0 -24 14.5 -38.5t38.5 -14.5h62q24 0 38.5 14.5t14.5 38.5z" />
    <glyph glyph-name="afii10058" unicode="&#x409;" horiz-adv-x="684" 
d="M519 341h-115v-268h115q24 0 38.5 15t14.5 39v161q0 24 -14.5 38.5t-38.5 14.5zM404 685v-271h112q58 0 94 -36t36 -94v-154q0 -58 -36 -94t-94 -36h-170q-15 0 -15 15v612h-137l-34 -511q-8 -120 -108 -120h-25q-15 0 -15 15v40q0 15 15 15h11q44 0 49 60l37 559
q2 15 15 15h250q15 0 15 -15z" />
    <glyph glyph-name="afii10059" unicode="&#x40a;" horiz-adv-x="673" 
d="M508 324h-115v-251h115q24 0 38.5 15t14.5 39v144q0 24 -14.5 38.5t-38.5 14.5zM393 685v-287h112q59 0 94.5 -36t35.5 -94v-138q0 -58 -35.5 -94t-94.5 -36h-170q-15 0 -15 15v309h-182v-309q0 -15 -15 -15h-43q-15 0 -15 15v670q0 15 15 15h43q15 0 15 -15v-287h182
v287q0 15 15 15h43q15 0 15 -15z" />
    <glyph glyph-name="afii10060" unicode="&#x40b;" horiz-adv-x="517" 
d="M452 15v269q0 24 -15 38.5t-39 14.5h-135v-322q0 -15 -15 -15h-43q-15 0 -15 15v612h-124q-16 0 -16 15v43q0 15 15 15h323q15 0 15 -15v-43q0 -15 -15 -15h-125v-216h132q59 0 94.5 -35.5t35.5 -94.5v-266q0 -15 -15 -15h-43q-15 0 -15 15z" />
    <glyph glyph-name="afii10061" unicode="&#x40c;" horiz-adv-x="415" 
d="M65 15v670q0 15 15 15h43q15 0 15 -15v-670q0 -15 -15 -15h-43q-15 0 -15 15zM323 700h52q14 0 8 -14l-160 -324l177 -349q6 -13 -9 -13h-51q-16 0 -22 13l-176 349l160 324q5 14 21 14zM195 750l42 74q7 10 17 10h61q12 0 4 -8l-70 -78q-8 -8 -20 -8h-28q-11 0 -6 10z
" />
    <glyph glyph-name="uni040D" unicode="&#x40d;" horiz-adv-x="466" 
d="M327 15v458q0 18 6 42l-2 1q-7 -30 -12 -42l-188 -460q-7 -14 -21 -14h-30q-15 0 -15 15v670q0 15 15 15h43q15 0 15 -15v-460q0 -21 -5 -43h2q8 30 12 41l188 463q5 14 21 14h30q15 0 15 -15v-670q0 -15 -15 -15h-44q-15 0 -15 15zM222 824l43 -74q5 -10 -6 -10h-29
q-13 0 -19 8l-70 78q-8 8 3 8h62q11 0 16 -10z" />
    <glyph glyph-name="afii10062" unicode="&#x40e;" horiz-adv-x="402" 
d="M212 285l103 400q2 15 16 15h45q14 0 14 -15l-151 -569q-16 -61 -38 -90.5t-70 -29.5h-43q-15 0 -15 15v40q0 15 15 15h28q21 0 30 11.5t17 38.5l6 23l-157 547q-4 14 11 14h46q15 0 19 -14l113 -401q4 -17 4 -43h3q0 30 4 43zM152 826l3 -21q0 -9 6 -14.5t14 -5.5h57
q19 0 21 20l3 21q0 12 13 12h29q13 0 11 -12l-1 -19q-1 -31 -20.5 -50.5t-51.5 -19.5h-65q-31 0 -50.5 19t-21.5 51v19q-2 12 11 12h29q11 0 13 -12z" />
    <glyph glyph-name="afii10145" unicode="&#x40f;" horiz-adv-x="455" 
d="M375 0h-111v-115q0 -15 -15 -15h-43q-15 0 -15 15v115h-111q-15 0 -15 15v670q0 15 15 15h43q15 0 15 -15v-612h179v612q0 15 15 15h43q15 0 15 -15v-670q0 -15 -15 -15z" />
    <glyph glyph-name="afii10017" unicode="&#x410;" horiz-adv-x="424" 
d="M134 201h156l-73 318q-4 17 -4 43h-2q0 -26 -4 -43zM307 128h-190l-26 -113q-3 -15 -18 -15h-46q-16 0 -11 15l162 670q3 15 19 15h30q14 0 19 -15l162 -670q3 -15 -11 -15h-45q-16 0 -19 15z" />
    <glyph glyph-name="afii10018" unicode="&#x411;" horiz-adv-x="410" 
d="M138 341v-268h115q24 0 38.5 15t14.5 39v161q0 24 -14.5 38.5t-38.5 14.5h-115zM80 700h248q15 0 15 -15v-43q0 -15 -15 -15h-190v-213h112q58 0 94 -36t36 -94v-154q0 -58 -36 -94t-94 -36h-170q-15 0 -15 15v670q0 15 15 15z" />
    <glyph glyph-name="afii10019" unicode="&#x412;" horiz-adv-x="431" 
d="M138 323v-250h126q24 0 39 15t15 39v142q0 24 -15 39t-39 15h-126zM138 627v-232h106q24 0 38.5 15t14.5 39v124q0 24 -14.5 39t-38.5 15h-106zM65 15v670q0 15 15 15h161q59 0 94.5 -36t35.5 -94v-101q0 -69 -48 -104q68 -32 68 -116v-119q0 -58 -35.5 -94t-94.5 -36
h-181q-15 0 -15 15z" />
    <glyph glyph-name="afii10020" unicode="&#x413;" horiz-adv-x="346" 
d="M123 0h-43q-15 0 -15 15v670q0 15 15 15h241q15 0 15 -15v-43q0 -15 -15 -15h-183v-612q0 -15 -15 -15z" />
    <glyph glyph-name="afii10021" unicode="&#x414;" horiz-adv-x="492" 
d="M155 73h187v554h-137l-33 -487q-3 -42 -17 -67zM12 -115v173q0 15 11 15h39q33 8 36 59l37 553q2 15 15 15h251q15 0 15 -15v-612h50q15 0 15 -15v-173q0 -15 -15 -15h-44q-15 0 -15 15v115h-322v-115q0 -15 -15 -15h-43q-15 0 -15 15z" />
    <glyph glyph-name="afii10022" unicode="&#x415;" horiz-adv-x="372" 
d="M327 627h-189v-268h145q15 0 15 -15v-43q0 -15 -15 -15h-145v-213h189q15 0 15 -15v-43q0 -15 -15 -15h-247q-15 0 -15 15v670q0 15 15 15h247q15 0 15 -15v-43q0 -15 -15 -15z" />
    <glyph glyph-name="afii10024" unicode="&#x416;" horiz-adv-x="593" 
d="M37 700h50q16 0 21 -14l152 -319v318q0 15 15 15h43q15 0 15 -15v-318l151 319q6 14 21 14h51q14 0 8 -14l-153 -324l167 -348q5 -14 -9 -14h-50q-16 0 -22 14l-164 343v-342q0 -15 -15 -15h-43q-15 0 -15 15v342l-165 -343q-6 -14 -21 -14h-50q-15 0 -9 14l167 348
l-154 324q-6 14 9 14z" />
    <glyph glyph-name="afii10025" unicode="&#x417;" horiz-adv-x="404" 
d="M160 398h73q24 0 39 14.5t15 38.5v126q0 24 -15 38.5t-39 14.5h-71q-24 0 -39 -14.5t-15 -38.5v-70q0 -15 -15 -15h-43q-15 0 -15 15v66q0 59 35.5 94.5t94.5 35.5h65q58 0 94 -35.5t36 -93.5v-103q0 -74 -55 -109q59 -33 59 -111v-125q0 -58 -36 -93.5t-94 -35.5h-74
q-58 0 -94 35.5t-36 94.5v66q0 15 15 15h43q15 0 15 -15v-70q0 -24 15 -38.5t39 -14.5h80q24 0 39 14.5t14 38.5v149q0 24 -14.5 38.5t-37.5 14.5h-78q-15 0 -15 15v43q0 15 15 15z" />
    <glyph glyph-name="afii10026" unicode="&#x418;" horiz-adv-x="466" 
d="M327 15v458q0 18 6 42l-2 1q-7 -30 -12 -42l-188 -460q-7 -14 -21 -14h-30q-15 0 -15 15v670q0 15 15 15h43q15 0 15 -15v-460q0 -21 -5 -43h2q8 30 12 41l188 463q5 14 21 14h30q15 0 15 -15v-670q0 -15 -15 -15h-44q-15 0 -15 15z" />
    <glyph glyph-name="afii10027" unicode="&#x419;" horiz-adv-x="466" 
d="M327 15v458q0 3 6 42l-3 1q-8 -35 -11 -42l-188 -460q-7 -14 -21 -14h-30q-15 0 -15 15v670q0 15 15 15h43q15 0 15 -15v-460q0 -17 -6 -43l4 -1q4 25 11 42l188 463q5 14 21 14h30q15 0 15 -15v-670q0 -15 -15 -15h-44q-15 0 -15 15zM341 826v-19q-2 -32 -21.5 -51
t-50.5 -19h-65q-32 0 -51.5 19.5t-20.5 50.5l-1 19q-2 12 11 12h29q13 0 13 -12l3 -21q2 -20 21 -20h57q8 0 14 5.5t6 14.5l3 21q2 12 13 12h29q13 0 11 -12z" />
    <glyph glyph-name="afii10028" unicode="&#x41a;" horiz-adv-x="415" 
d="M65 15v670q0 15 15 15h43q15 0 15 -15v-670q0 -15 -15 -15h-43q-15 0 -15 15zM323 700h52q14 0 8 -14l-160 -324l177 -349q6 -13 -9 -13h-51q-16 0 -22 13l-176 349l160 324q5 14 21 14z" />
    <glyph glyph-name="afii10029" unicode="&#x41b;" horiz-adv-x="469" 
d="M389 0h-44q-14 0 -14 15v612h-137l-34 -511q-8 -120 -108 -120h-25q-15 0 -15 15v40q0 15 15 15h11q44 0 49 60l37 559q2 15 15 15h250q15 0 15 -15v-670q0 -15 -15 -15z" />
    <glyph glyph-name="afii10030" unicode="&#x41c;" horiz-adv-x="554" 
d="M135 503v-488q0 -15 -15 -15h-40q-15 0 -15 15v670q0 15 15 15h50q15 0 20 -14l120 -365q6 -18 6 -42h2q0 27 5 42l121 365q5 14 20 14h50q15 0 15 -15v-670q0 -15 -15 -15h-40q-15 0 -15 15v488q0 18 4 42l-2 1q-4 -28 -9 -42l-107 -328q-5 -15 -20 -15h-17
q-16 0 -19 15l-107 328q-1 3 -10 42l-2 -1q5 -20 5 -42z" />
    <glyph glyph-name="afii10031" unicode="&#x41d;" horiz-adv-x="458" 
d="M65 15v670q0 15 15 15h43q15 0 15 -15v-326h182v326q0 15 15 15h43q15 0 15 -15v-670q0 -15 -15 -15h-43q-15 0 -15 15v271h-182v-271q0 -15 -15 -15h-43q-15 0 -15 15z" />
    <glyph glyph-name="afii10032" unicode="&#x41e;" horiz-adv-x="455" 
d="M128 578v-456q0 -24 15 -38.5t39 -14.5h91q24 0 39 14.5t15 38.5v456q0 24 -15 38.5t-39 14.5h-91q-24 0 -39 -14.5t-15 -38.5zM55 126v448q0 58 35.5 94t94.5 36h85q58 0 94 -36t36 -94v-448q0 -58 -36 -94t-94 -36h-85q-59 0 -94.5 36t-35.5 94z" />
    <glyph glyph-name="afii10033" unicode="&#x41f;" horiz-adv-x="460" 
d="M395 685v-670q0 -15 -15 -15h-43q-15 0 -15 15v612h-184v-612q0 -15 -15 -15h-43q-15 0 -15 15v670q0 15 15 15h300q15 0 15 -15z" />
    <glyph glyph-name="afii10034" unicode="&#x420;" horiz-adv-x="408" 
d="M250 627h-112v-278h112q24 0 38.5 14.5t14.5 38.5v171q0 24 -14.5 39t-38.5 15zM246 276h-108v-261q0 -15 -15 -15h-43q-15 0 -15 15v670q0 15 15 15h166q58 0 94 -36t36 -94v-164q0 -58 -36 -94t-94 -36z" />
    <glyph glyph-name="afii10035" unicode="&#x421;" horiz-adv-x="430" 
d="M327 207h43q15 0 15 -15v-66q0 -58 -35.5 -94t-94.5 -36h-70q-59 0 -94.5 36t-35.5 94v448q0 58 35.5 94t94.5 36h70q59 0 94.5 -36t35.5 -94v-66q0 -15 -15 -15h-43q-15 0 -15 15v70q0 24 -15 38.5t-39 14.5h-76q-24 0 -39 -14.5t-15 -38.5v-456q0 -24 15 -38.5
t39 -14.5h76q24 0 39 14.5t15 38.5v70q0 15 15 15z" />
    <glyph glyph-name="afii10036" unicode="&#x422;" horiz-adv-x="373" 
d="M208 0h-43q-15 0 -15 15v612h-125q-15 0 -15 15v43q0 15 15 15h323q15 0 15 -15v-43q0 -15 -15 -15h-125v-612q0 -15 -15 -15z" />
    <glyph glyph-name="afii10037" unicode="&#x423;" horiz-adv-x="402" 
d="M212 285l103 400q2 15 16 15h45q14 0 14 -15l-151 -569q-16 -61 -38 -90.5t-70 -29.5h-43q-15 0 -15 15v40q0 15 15 15h28q21 0 30 11.5t17 38.5l6 23l-157 547q-4 14 11 14h46q15 0 19 -14l113 -401q4 -17 4 -43h3q0 30 4 43z" />
    <glyph glyph-name="afii10038" unicode="&#x424;" horiz-adv-x="540" 
d="M233 139v422h-68q-24 0 -38.5 -14.5t-14.5 -38.5v-316q0 -24 14.5 -38.5t38.5 -14.5h68zM307 561v-422h68q24 0 39 14.5t15 38.5v316q0 24 -15 38.5t-39 14.5h-68zM233 11v55h-65q-58 0 -94 36t-36 94v308q0 58 36 94t94 36h65v55q0 15 15 15h44q15 0 15 -15v-55h65
q58 0 94 -36t36 -94v-308q0 -58 -36 -94t-94 -36h-65v-55q0 -15 -15 -15h-44q-15 0 -15 15z" />
    <glyph glyph-name="afii10039" unicode="&#x425;" horiz-adv-x="392" 
d="M307 700h49q15 0 10 -14l-130 -321l143 -351q5 -14 -10 -14h-49q-14 0 -21 14l-95 238q-7 17 -7 42h-2q0 -25 -7 -42l-96 -238q-5 -14 -20 -14h-50q-14 0 -9 14l143 351l-130 321q-5 14 9 14h50q15 0 20 -14l83 -207q7 -17 7 -42h2q0 25 7 42l83 207q5 14 20 14z" />
    <glyph glyph-name="afii10040" unicode="&#x426;" horiz-adv-x="473" 
d="M390 73h57q15 0 15 -15v-173q0 -15 -15 -15h-44q-15 0 -15 15v115h-308q-15 0 -15 15v670q0 15 15 15h43q15 0 15 -15v-612h179v612q0 15 15 15h43q15 0 15 -15v-612z" />
    <glyph glyph-name="afii10041" unicode="&#x427;" horiz-adv-x="427" 
d="M347 0h-44q-15 0 -15 15v274h-116q-58 0 -94 35.5t-36 94.5v266q0 15 15 15h43q15 0 15 -15v-269q0 -24 14.5 -38.5t38.5 -14.5h120v322q0 15 15 15h44q15 0 15 -15v-670q0 -15 -15 -15z" />
    <glyph glyph-name="afii10042" unicode="&#x428;" horiz-adv-x="660" 
d="M595 684v-669q0 -15 -15 -15h-500q-15 0 -15 15v670q0 15 15 15h43q15 0 15 -15v-612h155v612q0 15 15 15h44q15 0 15 -16v-611h155v612q0 15 15 15h43q15 0 15 -16z" />
    <glyph glyph-name="afii10043" unicode="&#x429;" horiz-adv-x="682" 
d="M595 73h60q15 0 15 -15v-173q0 -15 -15 -15h-43q-15 0 -15 15v115h-517q-15 0 -15 15v670q0 15 15 15h43q15 0 15 -15v-612h155v612q0 15 15 15h44q15 0 15 -16v-611h155v612q0 15 15 15h43q15 0 15 -16v-611z" />
    <glyph glyph-name="afii10044" unicode="&#x42a;" horiz-adv-x="495" 
d="M215 341v-268h115q24 0 38.5 15t14.5 39v161q0 24 -14.5 38.5t-38.5 14.5h-115zM10 642v43q0 15 15 15h175q15 0 15 -15v-271h111q58 0 94 -36t36 -94v-154q0 -58 -36 -94t-94 -36h-169q-15 0 -15 15v612h-117q-15 0 -15 15z" />
    <glyph glyph-name="afii10045" unicode="&#x42b;" horiz-adv-x="600" 
d="M138 341v-268h115q24 0 38.5 15t14.5 39v161q0 24 -14.5 38.5t-38.5 14.5h-115zM138 685v-271h112q58 0 94 -36t36 -94v-154q0 -58 -36 -94t-94 -36h-170q-15 0 -15 15v670q0 15 15 15h43q15 0 15 -15zM535 685v-670q0 -15 -15 -15h-44q-15 0 -15 15v670q0 15 15 15h44
q15 0 15 -15z" />
    <glyph glyph-name="afii10046" unicode="&#x42c;" horiz-adv-x="418" 
d="M138 341v-268h115q24 0 38.5 15t14.5 39v161q0 24 -14.5 38.5t-38.5 14.5h-115zM138 685v-271h112q58 0 94 -36t36 -94v-154q0 -58 -36 -94t-94 -36h-170q-15 0 -15 15v670q0 15 15 15h43q15 0 15 -15z" />
    <glyph glyph-name="afii10047" unicode="&#x42d;" horiz-adv-x="430" 
d="M302 315h-136q-15 0 -15 15v40q0 15 15 15h136v193q0 24 -15 38.5t-39 14.5h-76q-24 0 -39 -14.5t-15 -38.5v-70q0 -15 -15 -15h-43q-15 0 -15 15v66q0 58 35.5 94t94.5 36h70q59 0 94.5 -36t35.5 -94v-448q0 -58 -35.5 -94t-94.5 -36h-70q-59 0 -94.5 36t-35.5 94v66
q0 15 15 15h43q15 0 15 -15v-70q0 -24 15 -38.5t39 -14.5h76q24 0 39 14.5t15 38.5v193z" />
    <glyph glyph-name="afii10048" unicode="&#x42e;" horiz-adv-x="620" 
d="M313 578v-456q0 -24 15 -38.5t39 -14.5h71q24 0 39 14.5t15 38.5v456q0 24 -15 38.5t-39 14.5h-71q-24 0 -39 -14.5t-15 -38.5zM240 126v160h-102v-271q0 -15 -15 -15h-43q-15 0 -15 15v670q0 15 15 15h43q15 0 15 -15v-326h102v215q0 58 36 94t94 36h65q59 0 94.5 -36
t35.5 -94v-448q0 -58 -35.5 -94t-94.5 -36h-65q-58 0 -94 36t-36 94z" />
    <glyph glyph-name="afii10049" unicode="&#x42f;" horiz-adv-x="428" 
d="M290 359v268h-115q-24 0 -39 -15t-15 -39l1 -161q0 -24 14.5 -38.5t38.5 -14.5h115zM213 286l-97 -272q-5 -14 -19 -14h-47q-14 0 -11 14l98 277q-41 11 -65 44.5t-24 80.5v154q0 58 36 94t94 36h170q15 0 15 -15v-670q0 -15 -15 -15h-43q-15 0 -15 15v271h-77z" />
    <glyph glyph-name="afii10065" unicode="&#x430;" 
d="M283 114v141q-67 16 -103 16q-27 0 -45 -16.5t-18 -43.5v-101q0 -25 16 -38.5t37 -13.5q43 0 113 56zM283 15v27q-72 -50 -130 -50q-45 0 -75.5 33t-30.5 86v99q0 55 33.5 88t89.5 33q45 0 113 -13v110q0 60 -53 60h-55q-53 0 -53 -60v-20q0 -15 -15 -15h-40
q-15 0 -15 15v26q0 54 33 87t87 33h61q54 0 87 -33t33 -87v-419q0 -15 -15 -15h-40q-15 0 -15 15z" />
    <glyph glyph-name="afii10066" unicode="&#x431;" horiz-adv-x="422" 
d="M127 432v-310q0 -60 54 -60h67q26 0 40 16t14 44v310q0 25 -16 39t-38 14q-43 0 -121 -53zM57 116v426q0 62 29 94.5t102 47.5q73 14 138 23h9q18 0 18 -13v-38q0 -14 -25 -18q-79 -11 -127 -21q-43 -9 -58.5 -26t-15.5 -48v-39q83 48 137 48q45 0 76.5 -33.5t31.5 -86.5
v-316q0 -54 -33 -87t-87 -33h-74q-55 0 -88 33t-33 87z" />
    <glyph glyph-name="afii10067" unicode="&#x432;" horiz-adv-x="409" 
d="M244 250h-114v-183h114q27 0 42 15.5t15 42.5v65q0 27 -15 43.5t-42 16.5zM224 483h-94v-166h94q27 0 42 16.5t15 43.5v50q0 26 -15 41t-42 15zM304 289q67 -29 67 -109v-63q0 -53 -33 -85t-87 -32h-176q-15 0 -15 15v520q0 15 15 15h156q54 0 87 -32t33 -84v-47
q0 -64 -47 -98z" />
    <glyph glyph-name="afii10068" unicode="&#x433;" horiz-adv-x="312" 
d="M285 483h-155v-468q0 -15 -15 -15h-40q-15 0 -15 15v520q0 15 15 15h210q15 0 15 -15v-37q0 -15 -15 -15z" />
    <glyph glyph-name="afii10069" unicode="&#x434;" horiz-adv-x="472" 
d="M151 67h172v416h-135l-24 -364q-3 -32 -13 -52zM12 -108v160q0 15 15 15h45q20 16 22 59l28 409q0 15 15 15h241q15 0 15 -15v-468h53q15 0 15 -15v-160q0 -15 -15 -15h-40q-15 0 -15 15v108h-309v-108q0 -15 -15 -15h-40q-15 0 -15 15z" />
    <glyph glyph-name="afii10070" unicode="&#x435;" horiz-adv-x="402" 
d="M235 488h-65q-22 0 -36 -14t-14 -36v-128h165v128q0 22 -13.5 36t-36.5 14zM340 243h-220v-130q0 -23 14 -37t36 -14h65q23 0 36.5 14t13.5 36v33q0 15 15 15h40q15 0 15 -15v-29q0 -54 -33 -87t-87 -33h-65q-54 0 -87 33t-33 87v318q0 54 33 87t87 33h65q54 0 87 -32.5
t33 -86.5v-177q0 -15 -15 -15z" />
    <glyph glyph-name="afii10072" unicode="&#x436;" horiz-adv-x="540" 
d="M96 537l134 -256l-142 -268q-6 -13 -22 -13h-44q-16 0 -9 13l142 268l-133 256q-6 13 9 13h44q15 0 21 -13zM235 15v520q0 15 15 15h40q15 0 15 -15v-520q0 -15 -15 -15h-40q-15 0 -15 15zM518 537l-133 -256l141 -268q6 -13 -8 -13h-44q-16 0 -22 13l-142 268l133 256
q7 13 22 13h43q16 0 10 -13z" />
    <glyph glyph-name="afii10073" unicode="&#x437;" horiz-adv-x="388" 
d="M161 318h50q27 0 43.5 16.5t16.5 43.5v53q0 25 -16.5 40.5t-43.5 15.5h-39q-27 0 -43.5 -16.5t-16.5 -43.5v-36q0 -15 -15 -15h-40q-15 0 -15 15v42q0 54 33 87t87 33h59q54 0 87 -31.5t33 -83.5v-49q0 -70 -52 -102q60 -28 60 -106v-67q0 -53 -33 -85t-87 -32h-72
q-54 0 -87 33t-33 87v42q0 15 15 15h40q15 0 15 -15v-36q0 -27 16.5 -43.5t43.5 -16.5h52q27 0 43.5 16t16.5 42v71q0 27 -16.5 43.5t-43.5 16.5h-58q-15 0 -15 15v36q0 15 15 15z" />
    <glyph glyph-name="afii10074" unicode="&#x438;" horiz-adv-x="440" 
d="M107 0h-32q-15 0 -15 15v520q0 15 15 15h40q15 0 15 -15v-356q0 -17 -6 -43h2q5 22 13 41l173 359q6 14 22 14h31q15 0 15 -15v-520q0 -15 -15 -15h-40q-15 0 -15 15v355q0 17 6 43h-2q-8 -30 -13 -41l-173 -358q-6 -14 -21 -14z" />
    <glyph glyph-name="afii10075" unicode="&#x439;" horiz-adv-x="440" 
d="M107 0h-32q-15 0 -15 15v520q0 15 15 15h40q15 0 15 -15v-356q0 -6 -6 -42l3 -1q6 27 12 41l173 359q6 14 22 14h31q15 0 15 -15v-520q0 -15 -15 -15h-40q-15 0 -15 15v355q0 13 7 43l-3 1q-7 -30 -13 -42l-173 -358q-6 -14 -21 -14zM326 686l-1 -19q-1 -31 -20.5 -50.5
t-51.5 -19.5h-65q-32 0 -51.5 19.5t-20.5 50.5l-1 19q0 12 11 12h30q11 0 13 -12l2 -21q2 -20 21 -20h57q19 0 21 20l2 21q2 12 13 12h30q11 0 11 -12z" />
    <glyph glyph-name="afii10076" unicode="&#x43a;" horiz-adv-x="379" 
d="M60 15v520q0 15 15 15h40q15 0 15 -15v-520q0 -15 -15 -15h-40q-15 0 -15 15zM357 537l-145 -256l153 -268q7 -13 -8 -13h-47q-16 0 -22 13l-153 268l145 256q6 13 21 13h46q17 0 10 -13z" />
    <glyph glyph-name="afii10077" unicode="&#x43b;" horiz-adv-x="439" 
d="M45 -4h-18q-15 0 -15 15v36q0 15 15 15h8q45 0 48 60l28 413q0 15 15 15h238q15 0 15 -15v-520q0 -15 -15 -15h-40q-15 0 -15 15v468h-132l-24 -367q-8 -120 -108 -120z" />
    <glyph glyph-name="afii10078" unicode="&#x43c;" horiz-adv-x="539" 
d="M411 550h53q15 0 15 -15v-520q0 -15 -15 -15h-40q-15 0 -15 15v376q0 11 5 43l-2 1q-3 -22 -10 -42l-107 -281q-5 -14 -20 -14h-11q-15 0 -20 14l-107 281q-7 20 -10 42l-2 -1q5 -22 5 -43v-376q0 -15 -15 -15h-40q-15 0 -15 15v520q0 15 15 15h53q14 0 21 -14l114 -299
q6 -19 6 -42h2q0 23 6 42l114 299q5 14 20 14z" />
    <glyph glyph-name="afii10079" unicode="&#x43d;" horiz-adv-x="437" 
d="M307 247h-177v-232q0 -15 -15 -15h-40q-15 0 -15 15v520q0 15 15 15h40q15 0 15 -15v-222h177v222q0 15 15 15h40q15 0 15 -15v-520q0 -15 -15 -15h-40q-15 0 -15 15v232z" />
    <glyph glyph-name="afii10080" unicode="&#x43e;" horiz-adv-x="415" 
d="M120 438v-326q0 -22 14 -36t36 -14h75q23 0 36.5 14t13.5 36v326q0 22 -13.5 36t-36.5 14h-75q-22 0 -36 -14t-14 -36zM50 116v318q0 54 33 87t87 33h75q54 0 87 -33t33 -87v-318q0 -54 -33 -87t-87 -33h-75q-54 0 -87 33t-33 87z" />
    <glyph glyph-name="afii10081" unicode="&#x43f;" horiz-adv-x="432" 
d="M357 0h-40q-15 0 -15 15v468h-172v-468q0 -15 -15 -15h-40q-15 0 -15 15v520q0 15 15 15h282q15 0 15 -15v-520q0 -15 -15 -15z" />
    <glyph glyph-name="afii10082" unicode="&#x440;" horiz-adv-x="423" 
d="M130 433v-316q78 -59 120 -59q21 0 37 14.5t16 39.5v326q0 25 -16 39.5t-37 14.5q-42 0 -120 -59zM115 -150h-40q-15 0 -15 15v670q0 15 15 15h40q15 0 15 -15v-30q81 53 137 53q45 0 75.5 -33.5t30.5 -87.5v-324q0 -54 -30.5 -87.5t-75.5 -33.5q-56 0 -137 53v-180
q0 -15 -15 -15z" />
    <glyph glyph-name="afii10083" unicode="&#x441;" horiz-adv-x="388" 
d="M170 62h62q22 0 36 14t14 36v46q0 15 15 15h40q15 0 15 -15v-42q0 -54 -33 -87t-87 -33h-62q-54 0 -87 33t-33 87v318q0 54 33 87t87 33h62q54 0 87 -33t33 -87v-42q0 -15 -15 -15h-40q-15 0 -15 15v46q0 22 -14 36t-36 14h-62q-22 0 -36 -14t-14 -36v-326q0 -22 14 -36
t36 -14z" />
    <glyph glyph-name="afii10084" unicode="&#x442;" horiz-adv-x="340" 
d="M328 535v-37q0 -15 -15 -15h-108v-468q0 -15 -15 -15h-40q-15 0 -15 15v468h-108q-15 0 -15 15v37q0 15 15 15h286q15 0 15 -15z" />
    <glyph glyph-name="afii10085" unicode="&#x443;" horiz-adv-x="359" 
d="M112 -135l34 135l-134 535q-3 15 12 15h42q15 0 18 -15l90 -375q4 -19 4 -45h2q0 26 4 45l91 375q3 15 18 15h42q15 0 12 -15l-168 -670q-3 -15 -19 -15h-37q-16 0 -11 15z" />
    <glyph glyph-name="afii10086" unicode="&#x444;" horiz-adv-x="604" 
d="M267 102v346q-59 44 -94 44q-21 0 -37 -14.5t-16 -39.5v-326q0 -25 16 -39.5t37 -14.5q35 0 94 44zM337 448v-346q59 -44 94 -44q21 0 37 14.5t16 39.5v326q0 25 -16 39.5t-37 14.5q-35 0 -94 -44zM267 -135v168q-65 -41 -110 -41t-76 33.5t-31 87.5v324q0 54 31 87.5
t76 33.5t110 -41v168q0 15 15 15h40q15 0 15 -15v-167q63 40 110 40q45 0 76 -33.5t31 -87.5v-324q0 -54 -31 -87.5t-76 -33.5q-47 0 -110 40v-167q0 -15 -15 -15h-40q-15 0 -15 15z" />
    <glyph glyph-name="afii10087" unicode="&#x445;" horiz-adv-x="365" 
d="M188 370l83 167q7 13 21 13h44q14 0 9 -13l-125 -256l127 -267q5 -14 -9 -14h-43q-16 0 -22 14l-85 178q-4 8 -4 22h-2q0 -14 -4 -22l-88 -179q-6 -13 -21 -13h-44q-14 0 -9 13l130 268l-122 255q-6 14 9 14h44q15 0 21 -14l80 -166q4 -9 4 -22h2q0 13 4 22z" />
    <glyph glyph-name="afii10088" unicode="&#x446;" horiz-adv-x="451" 
d="M60 15v520q0 15 15 15h40q15 0 15 -15v-468h174v468q0 15 15 15h40q15 0 15 -15v-468h51q15 0 15 -15v-160q0 -15 -15 -15h-40q-15 0 -15 15v108h-295q-15 0 -15 15z" />
    <glyph glyph-name="afii10089" unicode="&#x447;" horiz-adv-x="412" 
d="M337 0h-40q-15 0 -15 15v222q-75 -42 -130 -42q-47 0 -78.5 34t-31.5 88v218q0 15 15 15h40q15 0 15 -15v-212q0 -26 16 -40t39 -14q43 0 115 42v224q0 15 15 15h40q15 0 15 -15v-520q0 -15 -15 -15z" />
    <glyph glyph-name="afii10090" unicode="&#x448;" horiz-adv-x="603" 
d="M60 15v520q0 15 15 15h40q15 0 15 -15v-468h137v468q0 15 15 15h40q15 0 15 -15v-468h136v468q0 15 15 15h40q15 0 15 -15v-520q0 -15 -15 -15h-454q-14 0 -14 15z" />
    <glyph glyph-name="afii10091" unicode="&#x449;" horiz-adv-x="621" 
d="M594 67q15 0 15 -15v-160q0 -15 -15 -15h-40q-15 0 -15 15v108h-465q-14 0 -14 15v520q0 15 15 15h40q15 0 15 -15v-468h137v468q0 15 15 15h40q15 0 15 -15v-468h136v468q0 15 15 15h40q15 0 15 -15v-468h51z" />
    <glyph glyph-name="afii10092" unicode="&#x44a;" horiz-adv-x="462" 
d="M296 265h-98v-198h98q27 0 43.5 16.5t16.5 43.5v78q0 27 -16.5 43.5t-43.5 16.5zM198 535v-203h108q54 0 87 -33t33 -87v-92q0 -54 -33 -87t-87 -33h-163q-15 0 -15 15v468h-101q-15 0 -15 15v37q0 15 15 15h156q15 0 15 -15z" />
    <glyph glyph-name="afii10093" unicode="&#x44b;" horiz-adv-x="564" 
d="M227 265h-97v-198h97q27 0 43.5 16.5t16.5 43.5v78q0 27 -16.5 43.5t-43.5 16.5zM60 15v520q0 15 15 15h40q15 0 15 -15v-203h107q54 0 87 -33t33 -87v-92q0 -54 -33 -87t-87 -33h-162q-15 0 -15 15zM489 0h-40q-15 0 -15 15v520q0 15 15 15h40q15 0 15 -15v-520
q0 -15 -15 -15z" />
    <glyph glyph-name="afii10094" unicode="&#x44c;" horiz-adv-x="394" 
d="M227 265h-97v-198h97q27 0 43.5 16.5t16.5 43.5v78q0 27 -16.5 43.5t-43.5 16.5zM237 0h-162q-15 0 -15 15v520q0 15 15 15h40q15 0 15 -15v-203h107q54 0 87 -33t33 -87v-92q0 -54 -33 -87t-87 -33z" />
    <glyph glyph-name="afii10095" unicode="&#x44d;" horiz-adv-x="388" 
d="M268 247h-112q-15 0 -15 15v36q0 15 15 15h112v125q0 22 -14 36t-36 14h-61q-23 0 -36.5 -14t-13.5 -36v-46q0 -15 -15 -15h-40q-15 0 -15 15v42q0 54 33 87t87 33h61q54 0 87 -33t33 -87v-318q0 -54 -33 -87t-87 -33h-61q-54 0 -87 33t-33 87v42q0 15 15 15h40
q15 0 15 -15v-46q0 -22 13.5 -36t36.5 -14h61q22 0 36 14t14 36v135z" />
    <glyph glyph-name="afii10096" unicode="&#x44e;" horiz-adv-x="590" 
d="M298 428v-306q0 -27 16.5 -43.5t43.5 -16.5h52q27 0 43.5 16.5t16.5 43.5v306q0 27 -16.5 43.5t-43.5 16.5h-52q-27 0 -43.5 -16.5t-16.5 -43.5zM228 116v131h-98v-232q0 -15 -15 -15h-40q-15 0 -15 15v520q0 15 15 15h40q15 0 15 -15v-222h98v121q0 54 33 87t87 33h72
q54 0 87 -33t33 -87v-318q0 -54 -33 -87t-87 -33h-72q-54 0 -87 33t-33 87z" />
    <glyph glyph-name="afii10097" unicode="&#x44f;" horiz-adv-x="409" 
d="M175 285h104v198h-104q-27 0 -43.5 -16t-16.5 -42v-80q0 -27 16.5 -43.5t43.5 -16.5zM41 14l84 210q-37 11 -58.5 41t-21.5 73v94q0 53 33 85.5t87 32.5h169q15 0 15 -15v-520q0 -15 -15 -15h-40q-15 0 -15 15v203h-86l-81 -204q-5 -14 -18 -14h-44q-15 0 -9 14z" />
    <glyph glyph-name="uni0450" unicode="&#x450;" horiz-adv-x="402" 
d="M235 488h-65q-22 0 -36 -14t-14 -36v-128h165v128q0 22 -13.5 36t-36.5 14zM340 243h-220v-130q0 -23 14 -37t36 -14h65q23 0 36.5 14t13.5 36v33q0 15 15 15h40q15 0 15 -15v-29q0 -54 -33 -87t-87 -33h-65q-54 0 -87 33t-33 87v318q0 54 33 87t87 33h65q54 0 87 -32.5
t33 -86.5v-177q0 -15 -15 -15zM192 674l42 -74q5 -10 -6 -10h-28q-12 0 -20 8l-70 78q-8 8 4 8h61q10 0 17 -10z" />
    <glyph glyph-name="afii10071" unicode="&#x451;" horiz-adv-x="402" 
d="M235 488h-65q-22 0 -36 -14t-14 -36v-128h165v128q0 22 -13.5 36t-36.5 14zM340 243h-220v-130q0 -23 14 -37t36 -14h65q23 0 36.5 14t13.5 36v33q0 15 15 15h40q15 0 15 -15v-29q0 -54 -33 -87t-87 -33h-65q-54 0 -87 33t-33 87v318q0 54 33 87t87 33h65q54 0 87 -32.5
t33 -86.5v-177q0 -15 -15 -15zM110 619v23q0 23 22 23h23q23 0 23 -23v-23q0 -22 -23 -22h-23q-22 0 -22 22zM228 619v23q0 23 23 23h23q23 0 23 -23v-23q0 -22 -23 -22h-23q-23 0 -23 22z" />
    <glyph glyph-name="afii10099" unicode="&#x452;" horiz-adv-x="422" 
d="M115 0h-40q-15 0 -15 19v574h-45q-12 0 -12 11v30q0 12 12 12h45v39q0 15 15 15h40q15 0 15 -15v-39h98q12 0 12 -12v-30q0 -11 -12 -11h-98v-88q75 53 135 53q41 0 74 -34.5t33 -86.5v-467q0 -54 -33 -87t-87 -33h-31q-15 0 -15 15v37q0 15 15 15h31q22 0 36 13.5
t14 36.5v471q0 26 -16 40t-38 14q-47 0 -118 -59v-414q0 -19 -15 -19z" />
    <glyph glyph-name="afii10100" unicode="&#x453;" horiz-adv-x="312" 
d="M285 483h-155v-468q0 -15 -15 -15h-40q-15 0 -15 15v520q0 15 15 15h210q15 0 15 -15v-37q0 -15 -15 -15zM142 600l42 74q7 10 17 10h61q12 0 4 -8l-70 -78q-8 -8 -20 -8h-28q-11 0 -6 10z" />
    <glyph glyph-name="afii10101" unicode="&#x454;" horiz-adv-x="388" 
d="M242 247h-122v-135q0 -22 14 -36t36 -14h62q22 0 36 14t14 36v46q0 15 15 15h40q15 0 15 -15v-42q0 -54 -33 -87t-87 -33h-62q-54 0 -87 33t-33 87v318q0 54 33 87t87 33h62q54 0 87 -33t33 -87v-42q0 -15 -15 -15h-40q-15 0 -15 15v46q0 22 -14 36t-36 14h-62
q-22 0 -36 -14t-14 -36v-125h122q15 0 15 -15v-36q0 -15 -15 -15z" />
    <glyph glyph-name="afii10102" unicode="&#x455;" horiz-adv-x="385" 
d="M345 156v-40q0 -54 -32.5 -87t-87.5 -33h-65q-54 0 -87 33t-33 87v42q0 15 15 15h40q15 0 15 -15v-36q0 -60 53 -60h59q53 0 53 60v31q0 30 -25 47l-153 106q-23 16 -37.5 43t-14.5 56v29q0 54 32.5 87t87.5 33h55q54 0 87 -33t33 -87v-42q0 -15 -15 -15h-40
q-15 0 -15 15v36q0 60 -53 60h-49q-53 0 -53 -60v-21q0 -29 25 -46l153 -106q23 -17 37.5 -44t14.5 -55z" />
    <glyph glyph-name="afii10103" unicode="&#x456;" horiz-adv-x="190" 
d="M61 15v520q0 15 15 15h40q15 0 15 -15v-520q0 -15 -15 -15h-40q-15 0 -15 15zM53 648v36q0 22 22 22h40q23 0 23 -22v-36q0 -23 -23 -23h-40q-22 0 -22 23z" />
    <glyph glyph-name="afii10104" unicode="&#x457;" horiz-adv-x="190" 
d="M60 15v520q0 15 15 15h40q15 0 15 -15v-520q0 -15 -15 -15h-40q-15 0 -15 15zM121 619v23q0 23 23 23h23q22 0 22 -23v-23q0 -22 -22 -22h-23q-23 0 -23 22zM2 619v23q0 23 23 23h23q23 0 23 -23v-23q0 -22 -23 -22h-23q-23 0 -23 22z" />
    <glyph glyph-name="afii10105" unicode="&#x458;" horiz-adv-x="208" 
d="M-5 -83h31q22 0 36 13.5t14 36.5v568q0 15 15 15h40q15 0 15 -15v-565q0 -54 -33 -87t-87 -33h-31q-15 0 -15 15v37q0 15 15 15zM68 648v35q0 23 23 23h40q22 0 22 -23v-35q0 -23 -22 -23h-40q-23 0 -23 23z" />
    <glyph glyph-name="afii10106" unicode="&#x459;" horiz-adv-x="643" 
d="M536 127v78q0 27 -16.5 43.5t-43.5 16.5h-97v-198h97q27 0 43.5 16.5t16.5 43.5zM606 212v-92q0 -54 -33 -87t-87 -33h-162q-15 0 -15 15v468h-132l-24 -367q-8 -120 -108 -120h-18q-15 0 -15 15v36q0 15 15 15h8q46 0 48 60l28 413q0 15 15 15h238q15 0 15 -15v-203h107
q54 0 87 -33t33 -87z" />
    <glyph glyph-name="afii10107" unicode="&#x45a;" horiz-adv-x="642" 
d="M535 127v69q0 27 -16.5 43.5t-43.5 16.5h-98v-189h98q27 0 43.5 16.5t16.5 43.5zM377 535v-213h108q54 0 87 -33t33 -87v-82q0 -54 -33 -87t-87 -33h-163q-15 0 -15 15v241h-177v-241q0 -15 -15 -15h-40q-15 0 -15 15v520q0 15 15 15h40q15 0 15 -15v-213h177v213
q0 15 15 15h40q15 0 15 -15z" />
    <glyph glyph-name="afii10108" unicode="&#x45b;" horiz-adv-x="432" 
d="M3 604v30q0 12 12 12h45v39q0 15 15 15h40q15 0 15 -15v-39h98q12 0 12 -12v-30q0 -11 -12 -11h-98v-88q78 53 135 53q45 0 76 -34t31 -87v-422q0 -15 -15 -15h-40q-15 0 -15 15v423q0 26 -16 40t-38 14q-40 0 -118 -59v-414q0 -19 -15 -19h-40q-15 0 -15 19v574h-45
q-12 0 -12 11z" />
    <glyph glyph-name="afii10109" unicode="&#x45c;" horiz-adv-x="379" 
d="M60 15v520q0 15 15 15h40q15 0 15 -15v-520q0 -15 -15 -15h-40q-15 0 -15 15zM357 537l-145 -256l153 -268q7 -13 -8 -13h-47q-16 0 -22 13l-153 268l145 256q6 13 21 13h46q17 0 10 -13zM182 600l42 74q5 10 17 10h61q12 0 4 -8l-70 -78q-8 -8 -20 -8h-29q-12 0 -5 10z
" />
    <glyph glyph-name="uni045D" unicode="&#x45d;" horiz-adv-x="440" 
d="M107 0h-32q-15 0 -15 15v520q0 15 15 15h40q15 0 15 -15v-356q0 -17 -6 -43h2q5 22 13 41l173 359q6 14 22 14h31q15 0 15 -15v-520q0 -15 -15 -15h-40q-15 0 -15 15v355q0 17 6 43h-2q-8 -30 -13 -41l-173 -358q-6 -14 -21 -14zM209 674l43 -74q7 -10 -6 -10h-29
q-11 0 -19 9l-70 76q-8 9 3 9h62q11 0 16 -10z" />
    <glyph glyph-name="afii10110" unicode="&#x45e;" horiz-adv-x="359" 
d="M112 -135l34 135l-134 535q-3 15 12 15h42q15 0 18 -15l90 -375q4 -19 4 -45h3q0 31 3 45l91 375q3 15 18 15h42q15 0 12 -15l-168 -670q-3 -15 -19 -15h-37q-16 0 -11 15zM288 686l-1 -19q-1 -31 -20.5 -50.5t-51.5 -19.5h-65q-32 0 -51.5 19.5t-20.5 50.5l-1 19
q0 12 11 12h30q11 0 13 -12l2 -21q2 -20 21 -20h57q19 0 21 20l2 21q2 12 13 12h30q11 0 11 -12z" />
    <glyph glyph-name="afii10193" unicode="&#x45f;" horiz-adv-x="435" 
d="M60 15v520q0 15 15 15h40q15 0 15 -15v-468h174v468q0 15 15 15h40q15 0 15 -15v-520q0 -15 -15 -15h-106v-108q0 -15 -15 -15h-40q-15 0 -15 15v108h-108q-15 0 -15 15z" />
    <glyph glyph-name="afii10050" unicode="&#x490;" horiz-adv-x="339" 
d="M329 795v-153q0 -15 -15 -15h-176v-612q0 -15 -15 -15h-43q-15 0 -15 15v670q0 15 15 15h176v95q0 15 15 15h43q15 0 15 -15z" />
    <glyph glyph-name="afii10098" unicode="&#x491;" horiz-adv-x="305" 
d="M292 638v-140q0 -15 -15 -15h-147v-468q0 -15 -15 -15h-40q-15 0 -15 15v520q0 15 15 15h147v88q0 15 15 15h40q15 0 15 -15z" />
    <glyph glyph-name="uni04D8" unicode="&#x4d8;" horiz-adv-x="438" 
d="M177 69h80q24 0 38.5 14.5t14.5 38.5v178h-187v-178q0 -24 15 -38.5t39 -14.5zM65 373h245v204q0 24 -14.5 39t-38.5 15h-80q-24 0 -39 -14.5t-15 -38.5v-56q0 -15 -15 -15h-43q-15 0 -15 15v52q0 58 36 94t94 36h73q59 0 94.5 -36t35.5 -94v-448q0 -58 -35.5 -94
t-94.5 -36h-73q-59 0 -94.5 35.5t-35.5 93.5v233q0 15 15 15z" />
    <glyph glyph-name="afii10846" unicode="&#x4d9;" horiz-adv-x="402" 
d="M167 62h65q22 0 36 14t14 36v128h-165v-128q0 -22 13.5 -36t36.5 -14zM62 307h220v130q0 23 -14 37t-36 14h-65q-23 0 -36.5 -14t-13.5 -36v-33q0 -15 -15 -15h-40q-15 0 -15 15v29q0 54 33 87t87 33h65q54 0 87 -33t33 -87v-318q0 -54 -33 -87t-87 -33h-65
q-54 0 -87 32.5t-33 86.5v177q0 15 15 15z" />
    <glyph glyph-name="Wgrave" unicode="&#x1e80;" horiz-adv-x="595" 
d="M333 685l80 -488q2 -13 2 -43h2q0 24 3 43l86 488q2 15 17 15h45q15 0 12 -15l-129 -670q-3 -15 -18 -15h-32q-15 0 -17 15l-83 475q-2 12 -2 43h-2q0 -25 -3 -43l-83 -475q-2 -15 -17 -15h-32q-15 0 -17 15l-130 670q-2 15 12 15h45q15 0 18 -15l85 -488q2 -13 2 -43h2
q0 24 3 43l80 488q3 15 18 15h35q15 0 18 -15zM287 824l42 -74q7 -10 -5 -10h-29q-12 0 -20 8l-70 78q-8 8 4 8h61q12 0 17 -10z" />
    <glyph glyph-name="wgrave" unicode="&#x1e81;" horiz-adv-x="549" 
d="M270 384l-72 -369q-3 -15 -18 -15h-38q-15 0 -18 15l-112 520q-3 15 12 15h42q15 0 18 -15l74 -385q3 -20 3 -45h2q0 32 3 45l73 385q2 15 17 15h37q15 0 18 -15l73 -385q3 -19 3 -45h2q0 32 3 45l73 385q3 15 18 15h42q15 0 12 -15l-112 -520q-3 -15 -19 -15h-37
q-15 0 -18 15l-72 369q-3 20 -3 44h-2q0 -27 -4 -44zM264 674l42 -74q5 -10 -6 -10h-28q-12 0 -20 8l-70 78q-8 8 4 8h61q10 0 17 -10z" />
    <glyph glyph-name="Wacute" unicode="&#x1e82;" horiz-adv-x="595" 
d="M333 685l80 -488q2 -13 2 -43h2q0 24 3 43l86 488q2 15 17 15h45q15 0 12 -15l-129 -670q-3 -15 -18 -15h-32q-15 0 -17 15l-83 475q-2 12 -2 43h-2q0 -25 -3 -43l-83 -475q-2 -15 -17 -15h-32q-15 0 -17 15l-130 670q-2 15 12 15h45q15 0 18 -15l85 -488q2 -13 2 -43h2
q0 24 3 43l80 488q3 15 18 15h35q15 0 18 -15zM267 750l42 74q5 10 17 10h61q12 0 4 -8l-70 -78q-8 -8 -20 -8h-29q-12 0 -5 10z" />
    <glyph glyph-name="wacute" unicode="&#x1e83;" horiz-adv-x="549" 
d="M270 384l-72 -369q-3 -15 -18 -15h-38q-15 0 -18 15l-112 520q-3 15 12 15h42q15 0 18 -15l74 -385q3 -20 3 -45h2q0 32 3 45l73 385q2 15 17 15h37q15 0 18 -15l73 -385q3 -19 3 -45h2q0 32 3 45l73 385q3 15 18 15h42q15 0 12 -15l-112 -520q-3 -15 -19 -15h-37
q-15 0 -18 15l-72 369q-3 20 -3 44h-2q0 -27 -4 -44zM243 600l43 74q5 10 16 10h62q11 0 3 -8l-70 -78q-6 -8 -19 -8h-29q-11 0 -6 10z" />
    <glyph glyph-name="Wdieresis" unicode="&#x1e84;" horiz-adv-x="595" 
d="M333 685l80 -488q2 -13 2 -43h2q0 24 3 43l86 488q2 15 17 15h45q15 0 12 -15l-129 -670q-3 -15 -18 -15h-32q-15 0 -17 15l-83 475q-2 12 -2 43h-2q0 -25 -3 -43l-83 -475q-2 -15 -17 -15h-32q-15 0 -17 15l-130 670q-2 15 12 15h45q15 0 18 -15l85 -488q2 -13 2 -43h2
q0 24 3 43l80 488q3 15 18 15h35q15 0 18 -15zM324 769v23q0 23 22 23h23q23 0 23 -23v-23q0 -22 -23 -22h-23q-22 0 -22 22zM205 769v23q0 23 23 23h23q22 0 22 -23v-23q0 -22 -22 -22h-23q-23 0 -23 22z" />
    <glyph glyph-name="wdieresis" unicode="&#x1e85;" horiz-adv-x="549" 
d="M270 384l-72 -369q-3 -15 -18 -15h-38q-15 0 -18 15l-112 520q-3 15 12 15h42q15 0 18 -15l74 -385q3 -20 3 -45h2q0 32 3 45l73 385q2 15 17 15h37q15 0 18 -15l73 -385q3 -19 3 -45h2q0 32 3 45l73 385q3 15 18 15h42q15 0 12 -15l-112 -520q-3 -15 -19 -15h-37
q-15 0 -18 15l-72 369q-3 20 -3 44h-2q0 -27 -4 -44zM300 619v23q0 23 23 23h23q23 0 23 -23v-23q0 -22 -23 -22h-23q-23 0 -23 22zM182 619v23q0 23 22 23h23q23 0 23 -23v-23q0 -22 -23 -22h-23q-22 0 -22 22z" />
    <glyph glyph-name="uni1E9E" unicode="&#x1e9e;" horiz-adv-x="434" 
d="M206 443l72 187h-90q-22 0 -36 -14t-14 -36v-565q0 -15 -15 -15h-43q-15 0 -15 15v565q0 54 33 87t87 33h183q15 0 10 -14l-102 -265h20q42 0 67.5 -33t25.5 -86v-182q0 -54 -33 -87t-87 -33h-57q-15 0 -15 15v40q0 15 15 15h50q53 0 53 60v173q0 60 -53 60h-46
q-15 0 -15 15v36q0 14 5 29z" />
    <glyph glyph-name="Ygrave" unicode="&#x1ef2;" horiz-adv-x="398" 
d="M382 686l-146 -409v-262q0 -15 -15 -15h-44q-15 0 -15 15v262l-146 409q-5 14 10 14h46q15 0 20 -14l100 -280q6 -18 6 -42h2q0 24 6 42l100 280q5 14 20 14h46q15 0 10 -14zM188 824l43 -74q5 -10 -6 -10h-29q-13 0 -19 8l-70 78q-8 8 3 8h62q11 0 16 -10z" />
    <glyph glyph-name="ygrave" unicode="&#x1ef3;" horiz-adv-x="359" 
d="M112 -135l34 135l-134 535q-3 15 12 15h42q15 0 18 -15l90 -375q4 -19 4 -45h2q0 26 4 45l91 375q3 15 18 15h42q15 0 12 -15l-168 -670q-3 -15 -19 -15h-37q-16 0 -11 15zM168 674l42 -74q7 -10 -5 -10h-29q-12 0 -20 8l-70 78q-8 8 4 8h61q12 0 17 -10z" />
    <glyph glyph-name="figuredash" unicode="&#x2012;" 
d="M50 335v37q0 15 15 15h283q15 0 15 -15v-37q0 -15 -15 -15h-283q-15 0 -15 15z" />
    <glyph glyph-name="endash" unicode="&#x2013;" horiz-adv-x="460" 
d="M43 287v36q0 12 12 12h350q12 0 12 -12v-36q0 -12 -12 -12h-350q-12 0 -12 12z" />
    <glyph glyph-name="emdash" unicode="&#x2014;" horiz-adv-x="840" 
d="M43 287v36q0 12 12 12h730q12 0 12 -12v-36q0 -12 -12 -12h-730q-12 0 -12 12z" />
    <glyph glyph-name="quoteleft" unicode="&#x2018;" horiz-adv-x="179" 
d="M139 681l-16 -153q-2 -23 -25 -23h-36q-23 0 -18 22l36 154q5 19 24 19h17q20 0 18 -19z" />
    <glyph glyph-name="quoteright" unicode="&#x2019;" horiz-adv-x="179" 
d="M40 524l16 153q2 23 25 23h36q23 0 18 -22l-36 -154q-5 -19 -24 -19h-17q-20 0 -18 19z" />
    <glyph glyph-name="quotesinglbase" unicode="&#x201a;" horiz-adv-x="152" 
d="M27 -84l16 153q2 23 25 23h36q23 0 18 -22l-36 -154q-5 -19 -24 -19h-18q-19 0 -17 19z" />
    <glyph glyph-name="quotedblleft" unicode="&#x201c;" horiz-adv-x="293" 
d="M139 681l-16 -153q-3 -23 -25 -23h-37q-22 0 -17 22l36 155q4 18 23 18h18q20 0 18 -19zM253 681l-16 -153q-3 -23 -25 -23h-37q-22 0 -17 22l36 155q4 18 23 18h18q20 0 18 -19z" />
    <glyph glyph-name="quotedblright" unicode="&#x201d;" horiz-adv-x="293" 
d="M154 524l16 153q3 23 25 23h36q23 0 18 -22l-36 -155q-5 -18 -24 -18h-17q-20 0 -18 19zM40 524l16 153q3 23 25 23h36q23 0 18 -22l-36 -155q-5 -18 -24 -18h-17q-20 0 -18 19z" />
    <glyph glyph-name="quotedblbase" unicode="&#x201e;" horiz-adv-x="293" 
d="M154 -84l16 153q2 23 25 23h36q23 0 18 -22l-36 -154q-5 -19 -24 -19h-17q-20 0 -18 19zM40 -84l16 153q2 23 25 23h36q23 0 18 -22l-36 -154q-5 -19 -24 -19h-17q-20 0 -18 19z" />
    <glyph glyph-name="dagger" unicode="&#x2020;" horiz-adv-x="410" 
d="M30 553h145v185q0 12 12 12h36q12 0 12 -12v-185h145q12 0 12 -11v-34q0 -11 -12 -11h-145v-635q0 -12 -12 -12h-36q-12 0 -12 12v635h-145q-12 0 -12 11v34q0 11 12 11z" />
    <glyph glyph-name="daggerdbl" unicode="&#x2021;" horiz-adv-x="410" 
d="M175 -138v181h-145q-12 0 -12 12v33q0 12 12 12h145v400h-145q-12 0 -12 12v33q0 12 12 12h145v181q0 12 12 12h36q12 0 12 -12v-181h145q12 0 12 -12v-33q0 -12 -12 -12h-145v-400h145q12 0 12 -12v-33q0 -12 -12 -12h-145v-181q0 -12 -12 -12h-36q-12 0 -12 12z" />
    <glyph glyph-name="bullet" unicode="&#x2022;" horiz-adv-x="270" 
d="M43 248v113q0 16 9.5 25.5t25.5 9.5h114q16 0 25.5 -9.5t9.5 -25.5v-113q0 -16 -9.5 -25.5t-25.5 -9.5h-114q-16 0 -25.5 9.5t-9.5 25.5z" />
    <glyph glyph-name="ellipsis" unicode="&#x2026;" horiz-adv-x="530" 
d="M43 23v48q0 22 23 22h45q22 0 22 -22v-48q0 -23 -22 -23h-45q-23 0 -23 23zM220 23v48q0 22 23 22h44q23 0 23 -22v-48q0 -23 -23 -23h-44q-23 0 -23 23zM397 23v48q0 22 22 22h45q23 0 23 -22v-48q0 -23 -23 -23h-45q-22 0 -22 23z" />
    <glyph glyph-name="perthousand" unicode="&#x2030;" horiz-adv-x="1063" 
d="M117 36l465 663q4 5 9 5t7 -2l30 -21q9 -7 3 -16l-464 -664q-5 -5 -10 -5q-1 0 -7 2l-30 21q-9 6 -3 17zM103 588v-155q0 -25 15.5 -40.5t40.5 -15.5h23q25 0 40.5 15.5t15.5 40.5v155q0 25 -15.5 40.5t-40.5 15.5h-23q-25 0 -40.5 -15t-15.5 -41zM43 438v145q0 55 33 88
t88 33h13q54 0 87.5 -33t33.5 -88v-145q0 -54 -33.5 -87.5t-87.5 -33.5h-13q-55 0 -88 33.5t-33 87.5zM451 117v145q0 54 33 87.5t87 33.5h13q55 0 88 -33.5t33 -87.5v-145q0 -55 -33 -88t-88 -33h-13q-54 0 -87 33t-33 88zM510 267v-155q0 -25 15.5 -40.5t41.5 -15.5h22
q25 0 40.5 15t15.5 41v155q0 25 -15.5 40.5t-40.5 15.5h-22q-25 0 -41 -15.5t-16 -40.5zM765 117v145q0 54 33 87.5t88 33.5h13q54 0 87.5 -33.5t33.5 -87.5v-145q0 -55 -33.5 -88t-87.5 -33h-13q-55 0 -88 33t-33 88zM825 267v-155q0 -26 15.5 -41t40.5 -15h23
q25 0 40.5 15.5t15.5 40.5v155q0 25 -15.5 40.5t-40.5 15.5h-23q-25 0 -40.5 -15.5t-15.5 -40.5z" />
    <glyph glyph-name="guilsinglleft" unicode="&#x2039;" horiz-adv-x="265" 
d="M231 448l-147 -143l147 -142q11 -11 1 -22l-22 -21q-5 -5 -10 -5q-6 0 -11 5l-158 153q-11 11 -11 26v12q0 15 11 26l158 153q5 5 11 5q5 0 10 -5l22 -21q10 -12 -1 -21z" />
    <glyph glyph-name="guilsinglright" unicode="&#x203a;" horiz-adv-x="265" 
d="M180 305l-147 143q-10 10 0 21l21 21q7 5 11 5t11 -5l158 -153q11 -13 11 -26v-12q0 -13 -11 -26l-158 -153q-5 -5 -11 -5q-4 0 -11 5l-21 21q-9 11 0 22z" />
    <glyph glyph-name="fraction" unicode="&#x2044;" horiz-adv-x="581" 
d="M3 -10l527 754q4 6 9 6q4 0 7 -3l30 -21q9 -6 3 -16l-527 -754q-4 -5 -9 -5t-7 2l-30 21q-11 6 -3 16z" />
    <glyph glyph-name="Euro" unicode="&#x20ac;" horiz-adv-x="447" 
d="M8 272v30q0 15 15 15h49v66h-49q-15 0 -15 15v30q0 15 15 15h49v131q0 58 36 94t94 36h70q58 0 94 -36t36 -94v-66q0 -15 -15 -15h-44q-15 0 -15 15v70q0 24 -14.5 38.5t-38.5 14.5h-77q-24 0 -38.5 -14.5t-14.5 -38.5v-135h131q15 0 15 -15v-30q0 -15 -15 -15h-131v-66
h131q15 0 15 -15v-30q0 -15 -15 -15h-131v-135q0 -24 14.5 -38.5t38.5 -14.5h77q24 0 38.5 14.5t14.5 38.5v70q0 15 15 15h44q15 0 15 -15v-66q0 -58 -36 -94t-94 -36h-70q-58 0 -94 36t-36 94v131h-49q-15 0 -15 15z" />
    <glyph glyph-name="uni20B4" unicode="&#x20b4;" horiz-adv-x="410" 
d="M26 272v29q0 15 15 15h82l58 67h-140q-15 0 -15 15v29q0 15 15 15h192l36 41q23 26 23 61v36q0 23 -14.5 37t-38.5 14h-65q-24 0 -38.5 -14.5t-14.5 -38.5v-50q0 -15 -15 -15h-44q-15 0 -15 15v46q0 58 35.5 94t94.5 36h59q59 0 94.5 -34t35.5 -90v-30q0 -58 -37 -108h31
q15 0 15 -15v-29q0 -15 -15 -15h-82l-58 -67h140q15 0 15 -15v-29q0 -15 -15 -15h-192l-26 -30q-24 -27 -24 -61v-46q0 -23 15 -37t39 -14h75q24 0 39 14.5t15 38.5v50q0 15 15 15l43 -1q15 0 15 -15v-46q0 -59 -36 -94.5t-94 -35.5h-69q-58 0 -94 34t-36 90v41q0 50 29 97
h-33q-15 0 -15 15z" />
    <glyph glyph-name="afii61352" unicode="&#x2116;" horiz-adv-x="775" 
d="M537 588v-135q0 -25 15.5 -40.5t40.5 -15.5h23q25 0 40.5 15.5t15.5 40.5v135q0 25 -15.5 40.5t-40.5 15.5h-23q-25 0 -40.5 -15t-15.5 -41zM138 473v-458q0 -15 -15 -15h-43q-15 0 -15 15v670q0 15 15 15h30q14 0 21 -14l188 -463q4 -11 12 -41h2q-6 26 -6 43v460
q0 15 15 15h44q15 0 15 -15v-670q0 -15 -15 -15h-30q-16 0 -21 14l-188 460q-5 12 -12 42l-2 -1q5 -20 5 -42zM477 234v29q0 15 15 15h225q15 0 15 -15v-29q0 -15 -15 -15h-225q-15 0 -15 15zM477 458v125q0 55 33 88t88 33h13q54 0 87.5 -33t33.5 -88v-125
q0 -54 -33.5 -87.5t-87.5 -33.5h-13q-55 0 -88 33.5t-33 87.5z" />
    <glyph glyph-name="trademark" unicode="&#x2122;" horiz-adv-x="490" 
d="M185 691v-28q0 -10 -10 -10h-57v-294q0 -9 -10 -9h-27q-10 0 -10 9v294h-57q-9 0 -9 10v28q0 9 9 9h161q10 0 10 -9zM239 359v332q0 9 9 9h33q10 0 12 -10l53 -160q3 -12 3 -28h2q0 16 3 28l53 161q1 9 12 9h32q10 0 10 -9v-332q0 -9 -10 -9h-25q-10 0 -10 9v211
q0 12 4 28h-2q-1 -2 -2.5 -12t-3.5 -15l-45 -136q-2 -8 -12 -8h-10q-8 0 -12 8l-46 136q-1 4 -2.5 13.5t-2.5 13.5h-2q3 -12 3 -28v-211q0 -9 -9 -9h-26q-9 0 -9 9z" />
    <glyph glyph-name="arrowleft" unicode="&#x2190;" horiz-adv-x="558" 
d="M509 320h-377l110 -101q12 -10 0 -20l-21 -22q-5 -5 -11 -5q-5 0 -10 5l-153 144q-10 12 -10 26v6q0 14 10 26l153 145q4 4 10 4q7 0 11 -5l21 -21q12 -11 0 -21l-111 -101h378q12 0 12 -12v-36q0 -12 -12 -12z" />
    <glyph glyph-name="arrowup" unicode="&#x2191;" horiz-adv-x="558" 
d="M249 120v377l-101 -110q-5 -5 -11 -5t-10 5l-21 21q-12 10 -1 21l145 153q10 10 25 10h7q15 0 25 -10l145 -153q10 -11 0 -21l-21 -21q-5 -5 -11 -5q-5 0 -10 5l-101 111v-378q0 -12 -12 -12h-37q-11 0 -11 12z" />
    <glyph glyph-name="arrowright" unicode="&#x2192;" horiz-adv-x="558" 
d="M426 320h-378q-11 0 -11 12v36q0 12 11 12h378l-110 101q-12 10 -1 21l22 21q4 5 10 5q7 0 11 -4l152 -145q11 -11 11 -26v-6q0 -15 -11 -26l-152 -144q-5 -5 -11 -5q-5 0 -10 5l-22 22q-10 10 1 20z" />
    <glyph glyph-name="arrowdown" unicode="&#x2193;" horiz-adv-x="558" 
d="M309 581v-378l101 110q4 5 10 5t10 -4l22 -22q10 -10 0 -21l-144 -152q-11 -11 -26 -11h-6q-17 0 -26 11l-145 152q-11 11 1 21l21 22q4 4 10 4q7 0 11 -5l101 -110v378q0 11 12 11h36q12 0 12 -11z" />
    <glyph glyph-name="uni2196" unicode="&#x2196;" horiz-adv-x="558" 
d="M420 166l-267 267l7 -149q2 -15 -14 -15h-31q-15 0 -15 15l-5 209q0 16 10 26l5 5q10 10 25 10l210 -5q15 0 15 -15v-31q0 -14 -15 -14l-149 6l267 -267q8 -8 0 -16l-26 -26q-4 -4 -8 -4q-5 0 -9 4z" />
    <glyph glyph-name="uni2197" unicode="&#x2197;" horiz-adv-x="558" 
d="M95 209l267 267l-150 -7q-15 -2 -15 14v31q0 15 15 15l210 5q14 0 26 -10l4 -5q11 -9 11 -25l-5 -210q-2 -15 -16 -15h-30q-16 0 -14 15l6 149l-267 -267q-6 -4 -8 -4q-3 0 -9 4l-25 26q-9 8 0 17z" />
    <glyph glyph-name="uni2198" unicode="&#x2198;" horiz-adv-x="558" 
d="M137 534l267 -267l-7 150q0 15 15 15h30q14 0 16 -15l5 -210q0 -15 -11 -26l-4 -4q-11 -11 -26 -11l-210 5q-15 2 -15 16v30q0 16 15 14l150 -6l-267 267q-9 8 0 17l26 25q3 4 8 4t8 -4z" />
    <glyph glyph-name="uni2199" unicode="&#x2199;" horiz-adv-x="558" 
d="M463 492l-267 -267l149 7q15 0 15 -15v-30q0 -14 -15 -16l-209 -5q-16 0 -26 10l-5 5q-10 12 -10 26l5 210q0 15 15 15h31q14 0 14 -15l-7 -150l268 267q3 4 8 4t8 -4l26 -26q8 -8 0 -16z" />
    <glyph glyph-name="minus" unicode="&#x2212;" 
d="M50 335v37q0 15 15 15h283q15 0 15 -15v-37q0 -15 -15 -15h-283q-15 0 -15 15z" />
    <glyph glyph-name="approxequal" unicode="&#x2248;" 
d="M52 369v44q0 11 10 18l27 18q23 14 49 14q18 0 36 -8l81 -33q12 -5 23 -5q18 0 32 9l42 27q4 2 5 2q5 0 5 -7v-45q0 -11 -10 -18l-28 -17q-22 -14 -49 -14q-21 0 -36 7l-80 34q-9 4 -24 4q-20 0 -32 -9l-41 -27q-4 -2 -6 -2q-4 0 -4 8zM52 228v45q0 11 10 18l27 18
q20 13 49 13q21 0 36 -7l81 -33q9 -5 23 -5q18 0 32 8l42 27q2 2 5 2q5 0 5 -7v-45q0 -11 -10 -18l-28 -17q-22 -14 -49 -14q-18 0 -36 8l-80 33q-9 5 -23 5q-18 0 -33 -9l-41 -27q-2 -2 -6 -2t-4 7z" />
    <glyph glyph-name="notequal" unicode="&#x2260;" 
d="M215 463l31 83q2 8 10 8q3 0 5 -1l34 -13q11 -4 7 -15l-23 -62h69q15 0 15 -15v-36q0 -15 -15 -15h-93l-32 -87h125q15 0 15 -15v-37q0 -15 -15 -15h-150l-31 -83q-2 -8 -10 -8h-3l-1 1l-35 13q-10 5 -7 15l23 62h-69q-15 0 -15 15v37q0 15 15 15h94l32 87h-126
q-15 0 -15 15v36q0 15 15 15h150z" />
    <glyph glyph-name="lessequal" unicode="&#x2264;" 
d="M356 511l-199 -114l199 -114q11 -8 5 -21l-18 -32q-4 -7 -12 -7q-5 0 -8 2l-260 149q-13 8 -13 23t13 22l260 150q6 2 8 2q7 0 12 -8l18 -32q7 -13 -5 -20zM50 115v37q0 15 15 15h283q15 0 15 -15v-37q0 -15 -15 -15h-283q-15 0 -15 15z" />
    <glyph glyph-name="greaterequal" unicode="&#x2265;" 
d="M256 397l-198 114q-13 6 -6 20l18 32q5 8 12 8q4 0 8 -2l261 -150q12 -7 12 -22q0 -14 -12 -23l-261 -149q-2 -2 -8 -2q-8 0 -12 7l-18 32q-7 13 6 21zM363 152v-37q0 -15 -15 -15h-283q-15 0 -15 15v37q0 15 15 15h283q15 0 15 -15z" />
    <glyph glyph-name="commaaccent" horiz-adv-x="128" 
d="M30 -139l12 87q2 16 18 16h26q15 0 12 -15l-24 -88q-3 -13 -16 -13h-17q-13 0 -11 13z" />
    <glyph glyph-name="A.smcp" horiz-adv-x="362" 
d="M176 396l-57 -231h123l-56 231q-4 15 -4 39h-2q0 -24 -4 -39zM279 13l-21 85h-154l-20 -85q-3 -13 -17 -13h-42q-13 0 -10 12l135 535q5 13 18 13h26q14 0 17 -12l136 -535q3 -13 -10 -13h-42q-13 0 -16 13z" />
    <glyph glyph-name="Aacute.smcp" horiz-adv-x="362" 
d="M176 396l-57 -231h123l-56 231q-4 15 -4 39h-2q0 -24 -4 -39zM279 13l-21 85h-154l-20 -85q-3 -13 -17 -13h-42q-13 0 -10 12l135 535q5 13 18 13h26q14 0 17 -12l136 -535q3 -13 -10 -13h-42q-13 0 -16 13zM150 610l42 74q7 10 17 10h61q12 0 4 -8l-70 -78q-8 -8 -20 -8
h-28q-11 0 -6 10z" />
    <glyph glyph-name="Abreve.smcp" horiz-adv-x="362" 
d="M176 396l-57 -231h123l-56 231q-4 15 -4 39h-2q0 -24 -4 -39zM279 13l-21 85h-154l-20 -85q-3 -13 -17 -13h-42q-13 0 -10 12l135 535q5 13 18 13h26q14 0 17 -12l136 -535q3 -13 -10 -13h-42q-13 0 -16 13zM267 680v-10q-2 -32 -22 -51t-51 -19h-33q-32 0 -51.5 19.5
t-20.5 50.5l-1 10q0 11 12 11h22q13 0 13 -11l3 -15q2 -20 21 -20h38q19 0 21 20l2 15q2 11 13 11h23q11 0 11 -11z" />
    <glyph glyph-name="Acircumflex.smcp" horiz-adv-x="362" 
d="M176 396l-57 -231h123l-56 231q-4 15 -4 39h-2q0 -24 -4 -39zM279 13l-21 85h-154l-20 -85q-3 -13 -17 -13h-42q-13 0 -10 12l135 535q5 13 18 13h26q14 0 17 -12l136 -535q3 -13 -10 -13h-42q-13 0 -16 13zM219 688l57 -76q7 -9 -5 -9h-38q-11 0 -18 10l-33 46l-35 -46
q-8 -10 -19 -10h-36q-12 0 -5 9l58 76q6 9 18 9h37q12 0 19 -9z" />
    <glyph glyph-name="Agrave.smcp" horiz-adv-x="362" 
d="M176 396l-57 -231h123l-56 231q-4 15 -4 39h-2q0 -24 -4 -39zM279 13l-21 85h-154l-20 -85q-3 -13 -17 -13h-42q-13 0 -10 12l135 535q5 13 18 13h26q14 0 17 -12l136 -535q3 -13 -10 -13h-42q-13 0 -16 13zM170 684l43 -74q5 -10 -6 -10h-29q-13 0 -19 8l-70 78
q-8 8 3 8h62q11 0 16 -10z" />
    <glyph glyph-name="Adieresis.smcp" horiz-adv-x="362" 
d="M176 396l-57 -231h123l-56 231q-4 15 -4 39h-2q0 -24 -4 -39zM279 13l-21 85h-154l-20 -85q-3 -13 -17 -13h-42q-13 0 -10 12l135 535q5 13 18 13h26q14 0 17 -12l136 -535q3 -13 -10 -13h-42q-13 0 -16 13zM88 629v23q0 23 23 23h23q23 0 23 -23v-23q0 -22 -23 -22h-23
q-23 0 -23 22zM207 629v23q0 23 23 23h23q22 0 22 -23v-23q0 -22 -22 -22h-23q-23 0 -23 22z" />
    <glyph glyph-name="Amacron.smcp" horiz-adv-x="362" 
d="M176 396l-57 -231h123l-56 231q-4 15 -4 39h-2q0 -24 -4 -39zM279 13l-21 85h-154l-20 -85q-3 -13 -17 -13h-42q-13 0 -10 12l135 535q5 13 18 13h26q14 0 17 -12l136 -535q3 -13 -10 -13h-42q-13 0 -16 13zM93 630v27q0 11 12 11h153q11 0 11 -11v-27q0 -12 -11 -12
h-153q-12 0 -12 12z" />
    <glyph glyph-name="Aogonek.smcp" horiz-adv-x="362" 
d="M176 396l-57 -231h123l-56 231q-4 15 -4 39h-2q0 -24 -4 -39zM296 0h-1q-12 0 -16 11l-21 87h-154l-20 -85q-3 -13 -17 -13h-42q-13 0 -10 12l135 535q5 13 18 13h26q14 0 17 -12l136 -537q2 -9 -8 -11q-27 -44 -34 -70q-2 -17 13 -17h40q12 0 12 -11v-17q0 -12 -12 -12
h-53q-19 0 -30.5 12t-11.5 31q0 46 33 84z" />
    <glyph glyph-name="Aring.smcp" horiz-adv-x="362" 
d="M176 396l-57 -231h123l-56 231q-4 15 -4 39h-2q0 -24 -4 -39zM149 665q0 -13 9.5 -23t22.5 -10t23 10t10 23t-10 23t-23 10t-22.5 -10t-9.5 -23zM279 13l-21 85h-154l-20 -85q-3 -13 -17 -13h-42q-13 0 -10 12l135 535q5 13 18 13h26q14 0 17 -12l136 -535q3 -13 -10 -13
h-42q-13 0 -16 13zM111 665q0 29 20.5 49.5t49.5 20.5t49.5 -20.5t20.5 -49.5t-20.5 -49.5t-49.5 -20.5t-49.5 20.5t-20.5 49.5z" />
    <glyph glyph-name="Atilde.smcp" horiz-adv-x="362" 
d="M176 396l-57 -231h123l-56 231q-4 15 -4 39h-2q0 -24 -4 -39zM279 13l-21 85h-154l-20 -85q-3 -13 -17 -13h-42q-13 0 -10 12l135 535q5 13 18 13h26q14 0 17 -12l136 -535q3 -13 -10 -13h-42q-13 0 -16 13zM90 618v29q0 16 20 26.5t38 10.5q15 0 26 -7l26 -13
q8 -4 17 -4q16 0 43 19q4 2 5 2q5 0 5 -7v-29q0 -16 -20.5 -26t-37.5 -10q-14 0 -27 6l-26 14q-7 4 -16 4q-13 0 -44 -20q-2 -2 -5 -2q-4 0 -4 7z" />
    <glyph glyph-name="AE.smcp" horiz-adv-x="505" 
d="M237 404l-94 -239h102v238q0 11 5 43h-2q-4 -25 -11 -42zM477 53v-39q0 -14 -13 -14h-205q-14 0 -14 14v84h-128l-33 -85q-3 -13 -17 -13h-42q-13 0 -10 12l217 535q3 13 17 13h215q13 0 13 -14v-39q0 -14 -13 -14h-152v-202h116q13 0 13 -14v-39q0 -14 -13 -14h-116
v-157h152q13 0 13 -14z" />
    <glyph glyph-name="AEacute.smcp" horiz-adv-x="505" 
d="M237 404l-94 -239h102v238q0 11 5 43h-2q-4 -25 -11 -42zM477 53v-39q0 -14 -13 -14h-205q-14 0 -14 14v84h-128l-33 -85q-3 -13 -17 -13h-42q-13 0 -10 12l217 535q3 13 17 13h215q13 0 13 -14v-39q0 -14 -13 -14h-152v-202h116q13 0 13 -14v-39q0 -14 -13 -14h-116
v-157h152q13 0 13 -14zM250 610l43 74q5 10 16 10h62q11 0 3 -8l-70 -78q-6 -8 -19 -8h-29q-11 0 -6 10z" />
    <glyph glyph-name="B.smcp" horiz-adv-x="366" 
d="M265 105v109q0 18 -11.5 28.5t-29.5 10.5h-102v-186h102q18 0 29.5 10.5t11.5 27.5zM249 358v97q0 17 -11.5 27.5t-30.5 10.5h-85v-174h85q19 0 30.5 10.5t11.5 28.5zM331 195v-86q0 -49 -30.5 -79t-80.5 -30h-151q-14 0 -14 14v532q0 14 14 14h135q50 0 80.5 -30
t30.5 -78v-75q0 -58 -40 -86q56 -26 56 -96z" />
    <glyph glyph-name="C.smcp" horiz-adv-x="366" 
d="M260 102v54q0 13 13 13h40q13 0 13 -13v-51q0 -49 -30.5 -79t-80.5 -30h-57q-50 0 -80.5 30t-30.5 79v350q0 49 30.5 79t80.5 30h57q50 0 80.5 -30t30.5 -79v-51q0 -13 -13 -13h-40q-13 0 -13 13v54q0 17 -11.5 28t-29.5 11h-64q-19 0 -30 -11t-11 -28v-356q0 -17 11 -28
t30 -11h64q18 0 29.5 11t11.5 28z" />
    <glyph glyph-name="Cacute.smcp" horiz-adv-x="366" 
d="M260 102v54q0 13 13 13h40q13 0 13 -13v-51q0 -49 -30.5 -79t-80.5 -30h-57q-50 0 -80.5 30t-30.5 79v350q0 49 30.5 79t80.5 30h57q50 0 80.5 -30t30.5 -79v-51q0 -13 -13 -13h-40q-13 0 -13 13v54q0 17 -11.5 28t-29.5 11h-64q-19 0 -30 -11t-11 -28v-356q0 -17 11 -28
t30 -11h64q18 0 29.5 11t11.5 28zM155 610l42 74q7 10 17 10h61q12 0 4 -8l-70 -78q-8 -8 -20 -8h-28q-11 0 -6 10z" />
    <glyph glyph-name="Ccaron.smcp" horiz-adv-x="366" 
d="M260 102v54q0 13 13 13h40q13 0 13 -13v-51q0 -49 -30.5 -79t-80.5 -30h-57q-50 0 -80.5 30t-30.5 79v350q0 49 30.5 79t80.5 30h57q50 0 80.5 -30t30.5 -79v-51q0 -13 -13 -13h-40q-13 0 -13 13v54q0 17 -11.5 28t-29.5 11h-64q-19 0 -30 -11t-11 -28v-356q0 -17 11 -28
t30 -11h64q18 0 29.5 11t11.5 28zM281 688l-57 -75q-8 -10 -19 -10h-37q-11 0 -18 10l-58 75q-6 9 5 9h36q10 0 19 -9l35 -47l33 47q7 9 18 9h38q11 0 5 -9z" />
    <glyph glyph-name="Ccedilla.smcp" horiz-adv-x="366" 
d="M249 -76v-22q0 -20 -12.5 -32.5t-32.5 -12.5h-60q-11 0 -11 12v13q0 12 11 12h50q15 0 15 15v8q0 15 -15 15h-25q-22 0 -17 21l8 43h-2q-50 0 -80.5 30t-30.5 79v350q0 49 30.5 79t80.5 30h57q50 0 80.5 -30t30.5 -79v-51q0 -13 -13 -13h-40q-13 0 -13 13v54
q0 17 -11.5 28t-29.5 11h-64q-19 0 -30 -11t-11 -28v-356q0 -17 11 -28t30 -11h64q18 0 29.5 11t11.5 28v54q0 13 13 13h40q13 0 13 -13v-51q0 -49 -30.5 -79t-80.5 -30h-12l-5 -27h6q20 0 32.5 -12.5t12.5 -32.5z" />
    <glyph glyph-name="Ccircumflex.smcp" horiz-adv-x="366" 
d="M260 102v54q0 13 13 13h40q13 0 13 -13v-51q0 -49 -30.5 -79t-80.5 -30h-57q-50 0 -80.5 30t-30.5 79v350q0 49 30.5 79t80.5 30h57q50 0 80.5 -30t30.5 -79v-51q0 -13 -13 -13h-40q-13 0 -13 13v54q0 17 -11.5 28t-29.5 11h-64q-19 0 -30 -11t-11 -28v-356q0 -17 11 -28
t30 -11h64q18 0 29.5 11t11.5 28zM224 688l57 -76q7 -9 -5 -9h-38q-11 0 -18 10l-33 46l-35 -46q-8 -10 -19 -10h-36q-12 0 -5 9l58 76q6 9 18 9h37q11 0 19 -9z" />
    <glyph glyph-name="Cdotaccent.smcp" horiz-adv-x="366" 
d="M260 102v54q0 13 13 13h40q13 0 13 -13v-51q0 -49 -30.5 -79t-80.5 -30h-57q-50 0 -80.5 30t-30.5 79v350q0 49 30.5 79t80.5 30h57q50 0 80.5 -30t30.5 -79v-51q0 -13 -13 -13h-40q-13 0 -13 13v54q0 17 -11.5 28t-29.5 11h-64q-19 0 -30 -11t-11 -28v-356q0 -17 11 -28
t30 -11h64q18 0 29.5 11t11.5 28zM147 629v30q0 23 23 23h33q22 0 22 -23v-30q0 -22 -22 -22h-33q-23 0 -23 22z" />
    <glyph glyph-name="D.smcp" horiz-adv-x="379" 
d="M265 105v350q0 17 -11 27.5t-30 10.5h-102v-426h102q19 0 30 10.5t11 27.5zM332 451v-342q0 -49 -30.5 -79t-80.5 -30h-152q-14 0 -14 14v532q0 14 14 14h152q50 0 80.5 -30t30.5 -79z" />
    <glyph glyph-name="Dcaron.smcp" horiz-adv-x="379" 
d="M265 105v350q0 17 -11 27.5t-30 10.5h-102v-426h102q19 0 30 10.5t11 27.5zM332 451v-342q0 -49 -30.5 -79t-80.5 -30h-152q-14 0 -14 14v532q0 14 14 14h152q50 0 80.5 -30t30.5 -79zM272 688l-57 -75q-7 -10 -19 -10h-36q-12 0 -19 10l-58 75q-6 9 5 9h36q12 0 19 -9
l35 -47l33 47q7 9 18 9h39q10 0 4 -9z" />
    <glyph glyph-name="Dcroat.smcp" horiz-adv-x="379" 
d="M266 105v350q0 17 -11.5 27.5t-30.5 10.5h-102v-183h68q13 0 13 -13v-27q0 -13 -13 -13h-68v-190h102q19 0 30.5 10.5t11.5 27.5zM332 451v-342q0 -49 -30.5 -79t-80.5 -30h-152q-14 0 -14 14v243h-30q-14 0 -14 13v27q0 13 14 13h30v236q0 14 14 14h152q50 0 80.5 -30
t30.5 -79z" />
    <glyph glyph-name="Eth.smcp" horiz-adv-x="379" 
d="M266 105v350q0 17 -11.5 27.5t-30.5 10.5h-102v-183h68q13 0 13 -13v-27q0 -13 -13 -13h-68v-190h102q19 0 30.5 10.5t11.5 27.5zM332 451v-342q0 -49 -30.5 -79t-80.5 -30h-152q-14 0 -14 14v243h-30q-14 0 -14 13v27q0 13 14 13h30v236q0 14 14 14h152q50 0 80.5 -30
t30.5 -79z" />
    <glyph glyph-name="Thorn.smcp" horiz-adv-x="347" 
d="M122 390v-208h90q19 0 30 11t11 28v131q0 17 -11 27.5t-30 10.5h-90zM320 349v-124q0 -49 -31 -79t-81 -30h-86v-102q0 -14 -14 -14h-39q-14 0 -14 14v532q0 14 14 14h39q14 0 14 -14v-89h86q50 0 81 -29.5t31 -78.5z" />
    <glyph glyph-name="E.smcp" horiz-adv-x="314" 
d="M122 67h152q13 0 13 -14v-39q0 -14 -13 -14h-205q-14 0 -14 14v532q0 14 14 14h205q13 0 13 -14v-39q0 -14 -13 -14h-152v-202h116q13 0 13 -14v-39q0 -14 -13 -14h-116v-157z" />
    <glyph glyph-name="Eacute.smcp" horiz-adv-x="314" 
d="M122 67h152q13 0 13 -14v-39q0 -14 -13 -14h-205q-14 0 -14 14v532q0 14 14 14h205q13 0 13 -14v-39q0 -14 -13 -14h-152v-202h116q13 0 13 -14v-39q0 -14 -13 -14h-116v-157zM140 610l42 74q7 10 17 10h61q12 0 4 -8l-70 -78q-8 -8 -20 -8h-28q-11 0 -6 10z" />
    <glyph glyph-name="Ebreve.smcp" horiz-adv-x="314" 
d="M122 67h152q13 0 13 -14v-39q0 -14 -13 -14h-205q-14 0 -14 14v532q0 14 14 14h205q13 0 13 -14v-39q0 -14 -13 -14h-152v-202h116q13 0 13 -14v-39q0 -14 -13 -14h-116v-157zM257 680v-10q-2 -32 -22 -51t-51 -19h-33q-32 0 -51.5 19.5t-20.5 50.5l-1 10q0 11 12 11h22
q13 0 13 -11l3 -15q2 -20 21 -20h38q19 0 21 20l2 15q2 11 13 11h23q11 0 11 -11z" />
    <glyph glyph-name="Ecaron.smcp" horiz-adv-x="314" 
d="M122 67h152q13 0 13 -14v-39q0 -14 -13 -14h-205q-14 0 -14 14v532q0 14 14 14h205q13 0 13 -14v-39q0 -14 -13 -14h-152v-202h116q13 0 13 -14v-39q0 -14 -13 -14h-116v-157zM266 688l-57 -75q-8 -10 -19 -10h-37q-11 0 -18 10l-58 75q-6 9 5 9h36q10 0 19 -9l35 -47
l33 47q7 9 18 9h38q11 0 5 -9z" />
    <glyph glyph-name="Ecircumflex.smcp" horiz-adv-x="314" 
d="M122 67h152q13 0 13 -14v-39q0 -14 -13 -14h-205q-14 0 -14 14v532q0 14 14 14h205q13 0 13 -14v-39q0 -14 -13 -14h-152v-202h116q13 0 13 -14v-39q0 -14 -13 -14h-116v-157zM209 688l57 -76q7 -9 -5 -9h-38q-11 0 -18 10l-33 46l-35 -46q-8 -10 -19 -10h-36q-12 0 -5 9
l58 76q6 9 18 9h37q12 0 19 -9z" />
    <glyph glyph-name="Edieresis.smcp" horiz-adv-x="314" 
d="M122 67h152q13 0 13 -14v-39q0 -14 -13 -14h-205q-14 0 -14 14v532q0 14 14 14h205q13 0 13 -14v-39q0 -14 -13 -14h-152v-202h116q13 0 13 -14v-39q0 -14 -13 -14h-116v-157zM197 629v23q0 23 23 23h23q22 0 22 -23v-23q0 -22 -22 -22h-23q-23 0 -23 22zM78 629v23
q0 23 23 23h23q23 0 23 -23v-23q0 -22 -23 -22h-23q-23 0 -23 22z" />
    <glyph glyph-name="Edotaccent.smcp" horiz-adv-x="314" 
d="M122 67h152q13 0 13 -14v-39q0 -14 -13 -14h-205q-14 0 -14 14v532q0 14 14 14h205q13 0 13 -14v-39q0 -14 -13 -14h-152v-202h116q13 0 13 -14v-39q0 -14 -13 -14h-116v-157zM132 629v30q0 23 23 23h33q22 0 22 -23v-30q0 -22 -22 -22h-33q-23 0 -23 22z" />
    <glyph glyph-name="Egrave.smcp" horiz-adv-x="314" 
d="M122 67h152q13 0 13 -14v-39q0 -14 -13 -14h-205q-14 0 -14 14v532q0 14 14 14h205q13 0 13 -14v-39q0 -14 -13 -14h-152v-202h116q13 0 13 -14v-39q0 -14 -13 -14h-116v-157zM160 684l43 -74q5 -10 -6 -10h-29q-13 0 -19 8l-70 78q-8 8 3 8h62q11 0 16 -10z" />
    <glyph glyph-name="Emacron.smcp" horiz-adv-x="314" 
d="M122 67h152q13 0 13 -14v-39q0 -14 -13 -14h-205q-14 0 -14 14v532q0 14 14 14h205q13 0 13 -14v-39q0 -14 -13 -14h-152v-202h116q13 0 13 -14v-39q0 -14 -13 -14h-116v-157zM83 630v27q0 11 12 11h153q11 0 11 -11v-27q0 -12 -11 -12h-153q-12 0 -12 12z" />
    <glyph glyph-name="Eogonek.smcp" horiz-adv-x="314" 
d="M213 0h-144q-14 0 -14 14v532q0 14 14 14h205q13 0 13 -14v-39q0 -14 -13 -14h-152v-202h116q13 0 13 -14v-39q0 -14 -13 -14h-116v-157h152q13 0 13 -14v-39q0 -14 -13 -14h-19q-29 -40 -33 -69q-2 -17 13 -17h41q11 0 11 -12v-16q0 -12 -11 -12h-54q-19 0 -30.5 11.5
t-11.5 30.5q0 46 33 84z" />
    <glyph glyph-name="F.smcp" horiz-adv-x="310" 
d="M122 493v-202h116q13 0 13 -14v-39q0 -14 -13 -14h-116v-210q0 -14 -14 -14h-39q-14 0 -14 14v532q0 14 14 14h205q13 0 13 -14v-39q0 -14 -13 -14h-152z" />
    <glyph glyph-name="G.smcp" horiz-adv-x="370" 
d="M332 455v-51q0 -13 -14 -13h-40q-13 0 -13 13v54q0 17 -11.5 28t-30.5 11h-68q-19 0 -30 -11t-11 -28v-356q0 -17 11 -28t30 -11h68q19 0 30.5 11t11.5 28v125h-69q-14 0 -14 14v40q0 13 14 13h122q14 0 14 -13v-176q0 -49 -30.5 -79t-80.5 -30h-63q-50 0 -80.5 30
t-30.5 79v350q0 49 30.5 79t80.5 30h63q50 0 80.5 -30t30.5 -79z" />
    <glyph glyph-name="Gbreve.smcp" horiz-adv-x="370" 
d="M332 455v-51q0 -13 -14 -13h-40q-13 0 -13 13v54q0 17 -11.5 28t-30.5 11h-68q-19 0 -30 -11t-11 -28v-356q0 -17 11 -28t30 -11h68q19 0 30.5 11t11.5 28v125h-69q-14 0 -14 14v40q0 13 14 13h122q14 0 14 -13v-176q0 -49 -30.5 -79t-80.5 -30h-63q-50 0 -80.5 30
t-30.5 79v350q0 49 30.5 79t80.5 30h63q50 0 80.5 -30t30.5 -79zM274 676v-9q-2 -32 -22 -51t-51 -19h-33q-32 0 -51.5 19.5t-20.5 50.5l-1 9q0 12 12 12h22q13 0 13 -12l3 -15q2 -19 21 -19h38q19 0 21 19l2 15q2 12 13 12h23q11 0 11 -12z" />
    <glyph glyph-name="Gcircumflex.smcp" horiz-adv-x="370" 
d="M332 455v-51q0 -13 -14 -13h-40q-13 0 -13 13v54q0 17 -11.5 28t-30.5 11h-68q-19 0 -30 -11t-11 -28v-356q0 -17 11 -28t30 -11h68q19 0 30.5 11t11.5 28v125h-69q-14 0 -14 14v40q0 13 14 13h122q14 0 14 -13v-176q0 -49 -30.5 -79t-80.5 -30h-63q-50 0 -80.5 30
t-30.5 79v350q0 49 30.5 79t80.5 30h63q50 0 80.5 -30t30.5 -79zM226 685l57 -76q6 -9 -5 -9h-38q-11 0 -18 10l-33 46l-35 -47q-9 -9 -19 -9h-36q-11 0 -5 9l58 76q7 9 18 9h37q10 0 19 -9z" />
    <glyph glyph-name="Gcommaaccent.smcp" horiz-adv-x="370" 
d="M332 455v-51q0 -13 -14 -13h-40q-13 0 -13 13v54q0 17 -11.5 28t-30.5 11h-68q-19 0 -30 -11t-11 -28v-356q0 -17 11 -28t30 -11h68q19 0 30.5 11t11.5 28v125h-69q-14 0 -14 14v40q0 13 14 13h122q14 0 14 -13v-176q0 -49 -30.5 -79t-80.5 -30h-63q-50 0 -80.5 30
t-30.5 79v350q0 49 30.5 79t80.5 30h63q50 0 80.5 -30t30.5 -79zM144 -139l12 87q2 16 18 16h25q17 0 12 -15l-23 -88q-3 -13 -16 -13h-17q-13 0 -11 13z" />
    <glyph glyph-name="Gdotaccent.smcp" horiz-adv-x="370" 
d="M332 455v-51q0 -13 -14 -13h-40q-13 0 -13 13v54q0 17 -11.5 28t-30.5 11h-68q-19 0 -30 -11t-11 -28v-356q0 -17 11 -28t30 -11h68q19 0 30.5 11t11.5 28v125h-69q-14 0 -14 14v40q0 13 14 13h122q14 0 14 -13v-176q0 -49 -30.5 -79t-80.5 -30h-63q-50 0 -80.5 30
t-30.5 79v350q0 49 30.5 79t80.5 30h63q50 0 80.5 -30t30.5 -79zM149 626v30q0 22 23 22h33q22 0 22 -22v-30q0 -23 -22 -23h-33q-23 0 -23 23z" />
    <glyph glyph-name="H.smcp" horiz-adv-x="387" 
d="M279 560h40q13 0 13 -14v-532q0 -14 -13 -14h-40q-14 0 -14 14v210h-143v-210q0 -14 -14 -14h-39q-14 0 -14 14v532q0 14 14 14h39q14 0 14 -14v-255h143v255q0 14 14 14z" />
    <glyph glyph-name="Hbar.smcp" horiz-adv-x="387" 
d="M122 411v-120h144v120h-144zM266 224h-144v-210q0 -14 -14 -14h-39q-14 0 -14 14v397h-30q-14 0 -14 13v28q0 14 14 14h30v80q0 14 14 14h39q14 0 14 -14v-80h144v80q0 14 13 14h40q13 0 13 -14v-80h30q13 0 13 -14v-28q0 -13 -13 -13h-30v-397q0 -14 -13 -14h-40
q-13 0 -13 14v210z" />
    <glyph glyph-name="Hcircumflex.smcp" horiz-adv-x="387" 
d="M279 560h40q13 0 13 -14v-532q0 -14 -13 -14h-40q-14 0 -14 14v210h-143v-210q0 -14 -14 -14h-39q-14 0 -14 14v532q0 14 14 14h39q14 0 14 -14v-255h143v255q0 14 14 14zM231 688l57 -76q7 -9 -4 -9h-39q-11 0 -18 10l-33 46l-35 -46q-7 -10 -19 -10h-36q-12 0 -5 9
l58 76q6 9 19 9h36q13 0 19 -9z" />
    <glyph glyph-name="I.smcp" horiz-adv-x="249" 
d="M220 50v-36q0 -14 -13 -14h-164q-14 0 -14 14v36q0 13 14 13h48v434h-48q-14 0 -14 13v36q0 14 14 14h164q13 0 13 -14v-36q0 -13 -13 -13h-49v-434h49q13 0 13 -13z" />
    <glyph glyph-name="Iacute.smcp" horiz-adv-x="249" 
d="M220 50v-36q0 -14 -13 -14h-164q-14 0 -14 14v36q0 13 14 13h48v434h-48q-14 0 -14 13v36q0 14 14 14h164q13 0 13 -14v-36q0 -13 -13 -13h-49v-434h49q13 0 13 -13zM94 610l42 74q5 10 17 10h61q12 0 4 -8l-70 -78q-8 -8 -20 -8h-29q-12 0 -5 10z" />
    <glyph glyph-name="Ibreve.smcp" horiz-adv-x="249" 
d="M220 50v-36q0 -14 -13 -14h-164q-14 0 -14 14v36q0 13 14 13h48v434h-48q-14 0 -14 13v36q0 14 14 14h164q13 0 13 -14v-36q0 -13 -13 -13h-49v-434h49q13 0 13 -13zM211 680l-1 -10q-1 -31 -20.5 -50.5t-51.5 -19.5h-33q-31 0 -51 19t-22 51v10q0 11 11 11h23
q11 0 13 -11l2 -15q2 -20 21 -20h39q8 0 14 5.5t6 14.5l3 15q2 11 13 11h23q11 0 11 -11z" />
    <glyph glyph-name="Icircumflex.smcp" horiz-adv-x="249" 
d="M220 50v-36q0 -14 -13 -14h-164q-14 0 -14 14v36q0 13 14 13h48v434h-48q-14 0 -14 13v36q0 14 14 14h164q13 0 13 -14v-36q0 -13 -13 -13h-49v-434h49q13 0 13 -13zM162 688l58 -76q7 -9 -5 -9h-38q-11 0 -18 10l-34 46l-35 -46q-7 -10 -18 -10h-37q-11 0 -4 9l57 76
q7 9 19 9h36q13 0 19 -9z" />
    <glyph glyph-name="Idieresis.smcp" horiz-adv-x="249" 
d="M220 50v-36q0 -14 -13 -14h-164q-14 0 -14 14v36q0 13 14 13h48v434h-48q-14 0 -14 13v36q0 14 14 14h164q13 0 13 -14v-36q0 -13 -13 -13h-49v-434h49q13 0 13 -13zM151 629v23q0 23 22 23h23q23 0 23 -23v-23q0 -22 -23 -22h-23q-22 0 -22 22zM32 629v23q0 23 23 23h23
q22 0 22 -23v-23q0 -22 -22 -22h-23q-23 0 -23 22z" />
    <glyph glyph-name="Idotaccent.smcp" horiz-adv-x="249" 
d="M220 50v-36q0 -14 -13 -14h-164q-14 0 -14 14v36q0 13 14 13h48v434h-48q-14 0 -14 13v36q0 14 14 14h164q13 0 13 -14v-36q0 -13 -13 -13h-49v-434h49q13 0 13 -13zM86 629v30q0 23 22 23h33q23 0 23 -23v-30q0 -22 -23 -22h-33q-22 0 -22 22z" />
    <glyph glyph-name="Igrave.smcp" horiz-adv-x="249" 
d="M220 50v-36q0 -14 -13 -14h-164q-14 0 -14 14v36q0 13 14 13h48v434h-48q-14 0 -14 13v36q0 14 14 14h164q13 0 13 -14v-36q0 -13 -13 -13h-49v-434h49q13 0 13 -13zM114 684l42 -74q7 -10 -5 -10h-29q-12 0 -20 8l-70 78q-8 8 4 8h61q12 0 17 -10z" />
    <glyph glyph-name="Imacron.smcp" horiz-adv-x="249" 
d="M220 50v-36q0 -14 -13 -14h-164q-14 0 -14 14v36q0 13 14 13h48v434h-48q-14 0 -14 13v36q0 14 14 14h164q13 0 13 -14v-36q0 -13 -13 -13h-49v-434h49q13 0 13 -13zM37 630v27q0 11 11 11h153q12 0 12 -11v-27q0 -12 -12 -12h-153q-11 0 -11 12z" />
    <glyph glyph-name="Iogonek.smcp" horiz-adv-x="249" 
d="M104 0h-61q-14 0 -14 14v36q0 13 14 13h48v434h-48q-14 0 -14 13v36q0 14 14 14h164q13 0 13 -14v-36q0 -13 -13 -13h-49v-434h49q13 0 13 -13v-36q0 -14 -13 -14h-61q-29 -40 -33 -69q-2 -17 13 -17h41q11 0 11 -12v-16q0 -12 -11 -12h-54q-19 0 -30.5 11.5t-11.5 30.5
q0 46 33 84z" />
    <glyph glyph-name="Itilde.smcp" horiz-adv-x="249" 
d="M220 50v-36q0 -14 -13 -14h-164q-14 0 -14 14v36q0 13 14 13h48v434h-48q-14 0 -14 13v36q0 14 14 14h164q13 0 13 -14v-36q0 -13 -13 -13h-49v-434h49q13 0 13 -13zM33 618v29q0 16 20.5 26.5t38.5 10.5q15 0 26 -7l26 -13q8 -4 17 -4q13 0 43 19q4 2 5 2q4 0 4 -7v-29
q0 -16 -20 -26t-38 -10q-14 0 -26 6l-26 14q-8 4 -17 4q-14 0 -43 -20q-2 -2 -5 -2q-5 0 -5 7z" />
    <glyph glyph-name="IJ.smcp" horiz-adv-x="581" 
d="M220 50v-36q0 -14 -13 -14h-164q-14 0 -14 14v36q0 13 14 13h48v434h-48q-14 0 -14 13v36q0 14 14 14h164q13 0 13 -14v-36q0 -13 -13 -13h-49v-434h49q13 0 13 -13zM399 560h120q14 0 14 -14v-441q0 -49 -30.5 -79t-80.5 -30h-44q-50 0 -80.5 30t-30.5 79v32q0 14 14 14
h39q14 0 14 -14v-35q0 -17 11.5 -28t30.5 -11h49q19 0 30 11t11 28v395h-67q-14 0 -14 13v36q0 14 14 14z" />
    <glyph glyph-name="J.smcp" horiz-adv-x="331" 
d="M150 560h120q14 0 14 -14v-441q0 -49 -30.5 -79t-80.5 -30h-44q-50 0 -80.5 30t-30.5 79v32q0 14 14 14h39q14 0 14 -14v-35q0 -17 11 -28t30 -11h50q18 0 29.5 11t11.5 28v395h-67q-14 0 -14 13v36q0 14 14 14z" />
    <glyph glyph-name="Jcircumflex.smcp" horiz-adv-x="331" 
d="M150 560h120q14 0 14 -14v-441q0 -49 -30.5 -79t-80.5 -30h-44q-50 0 -80.5 30t-30.5 79v32q0 14 14 14h39q14 0 14 -14v-35q0 -17 11 -28t30 -11h50q18 0 29.5 11t11.5 28v395h-67q-14 0 -14 13v36q0 14 14 14zM247 688l57 -76q7 -9 -5 -9h-38q-11 0 -18 10l-33 46
l-35 -46q-8 -10 -19 -10h-36q-12 0 -5 9l58 76q6 9 18 9h37q12 0 19 -9z" />
    <glyph glyph-name="K.smcp" horiz-adv-x="354" 
d="M55 14v532q0 14 14 14h39q14 0 14 -14v-254l129 256q7 12 20 12h47q5 0 7.5 -3.5t-0.5 -8.5l-131 -258l145 -278q7 -12 -7 -12h-47q-13 0 -20 12l-143 276v-274q0 -14 -14 -14h-39q-14 0 -14 14z" />
    <glyph glyph-name="Kcommaaccent.smcp" horiz-adv-x="354" 
d="M55 14v532q0 14 14 14h39q14 0 14 -14v-254l129 256q7 12 20 12h47q5 0 7.5 -3.5t-0.5 -8.5l-131 -258l145 -278q7 -12 -7 -12h-47q-13 0 -20 12l-143 276v-274q0 -14 -14 -14h-39q-14 0 -14 14zM126 -139l12 87q2 16 18 16h25q17 0 12 -15l-23 -88q-3 -13 -16 -13h-17
q-13 0 -11 13z" />
    <glyph glyph-name="L.smcp" horiz-adv-x="295" 
d="M55 14v532q0 14 14 14h39q14 0 14 -14v-479h145q13 0 13 -13v-40q0 -14 -13 -14h-198q-14 0 -14 14z" />
    <glyph glyph-name="Lacute.smcp" horiz-adv-x="295" 
d="M55 14v532q0 14 14 14h39q14 0 14 -14v-479h145q13 0 13 -13v-40q0 -14 -13 -14h-198q-14 0 -14 14zM65 610l42 74q5 10 17 10h61q12 0 4 -8l-70 -78q-8 -8 -20 -8h-29q-12 0 -5 10z" />
    <glyph glyph-name="Lcaron.smcp" horiz-adv-x="295" 
d="M55 14v532q0 14 14 14h39q14 0 14 -14v-479h145q13 0 13 -13v-40q0 -14 -13 -14h-198q-14 0 -14 14zM200 457l12 87q2 16 18 16h26q15 0 12 -16l-24 -88q-3 -12 -16 -12h-17q-13 0 -11 13z" />
    <glyph glyph-name="Lcommaaccent.smcp" horiz-adv-x="295" 
d="M55 14v532q0 14 14 14h39q14 0 14 -14v-479h145q13 0 13 -13v-40q0 -14 -13 -14h-198q-14 0 -14 14zM119 -139l12 87q2 16 18 16h25q17 0 12 -15l-23 -88q-3 -13 -16 -13h-17q-13 0 -11 13z" />
    <glyph glyph-name="Ldot.smcp" horiz-adv-x="295" 
d="M55 14v532q0 14 14 14h39q14 0 14 -14v-479h145q13 0 13 -13v-40q0 -14 -13 -14h-198q-14 0 -14 14zM196 281v32q0 22 23 22h35q22 0 22 -22v-32q0 -22 -22 -22h-35q-23 0 -23 22z" />
    <glyph glyph-name="Lslash.smcp" horiz-adv-x="306" 
d="M132 237v-170h145q13 0 13 -13v-40q0 -14 -13 -14h-198q-14 0 -14 14v185l-26 -15q-6 -2 -8 -2q-7 0 -11 7l-14 24q-7 12 6 19l53 30v284q0 14 14 14h39q14 0 14 -14v-246l56 31q6 2 8 2q7 0 10 -7l14 -24q7 -12 -5 -19z" />
    <glyph glyph-name="M.smcp" horiz-adv-x="467" 
d="M55 14v532q0 14 14 14h45q13 0 18 -13l95 -274q5 -15 5 -40h3q0 25 5 40l95 274q5 13 18 13h46q13 0 13 -14v-532q0 -14 -13 -14h-37q-13 0 -13 14v366q0 7 2 22t2 17l-2 1q-5 -31 -8 -38l-84 -243q-5 -13 -18 -13h-14q-14 0 -19 12l-83 243q-3 8 -8 39l-3 -1
q4 -22 4 -39v-366q0 -14 -13 -14h-36q-14 0 -14 14z" />
    <glyph glyph-name="N.smcp" horiz-adv-x="393" 
d="M271 204v342q0 14 14 14h39q14 0 14 -14v-532q0 -14 -14 -14h-27q-14 0 -19 12l-148 343q-3 7 -11 38l-3 -1q6 -24 6 -39v-339q0 -14 -14 -14h-39q-14 0 -14 14v532q0 14 14 14h27q12 0 19 -12l148 -345q6 -13 10 -38h4q-6 24 -6 39z" />
    <glyph glyph-name="Nacute.smcp" horiz-adv-x="393" 
d="M271 204v342q0 14 14 14h39q14 0 14 -14v-532q0 -14 -14 -14h-27q-14 0 -19 12l-148 343q-3 7 -11 38l-3 -1q6 -24 6 -39v-339q0 -14 -14 -14h-39q-14 0 -14 14v532q0 14 14 14h27q12 0 19 -12l148 -345q6 -13 10 -38h4q-6 24 -6 39zM165 610l43 74q5 10 16 10h62
q11 0 3 -8l-70 -78q-6 -8 -19 -8h-29q-11 0 -6 10z" />
    <glyph glyph-name="Ncaron.smcp" horiz-adv-x="393" 
d="M271 204v342q0 14 14 14h39q14 0 14 -14v-532q0 -14 -14 -14h-27q-14 0 -19 12l-148 343q-3 7 -11 38l-3 -1q6 -24 6 -39v-339q0 -14 -14 -14h-39q-14 0 -14 14v532q0 14 14 14h27q12 0 19 -12l148 -345q6 -13 10 -38h4q-6 24 -6 39zM291 688l-57 -75q-7 -10 -19 -10h-36
q-12 0 -19 10l-58 75q-6 9 5 9h36q12 0 19 -9l35 -47l33 47q7 9 18 9h39q10 0 4 -9z" />
    <glyph glyph-name="Ncommaaccent.smcp" horiz-adv-x="393" 
d="M271 204v342q0 14 14 14h39q14 0 14 -14v-532q0 -14 -14 -14h-27q-14 0 -19 12l-148 343q-3 7 -11 38l-3 -1q6 -24 6 -39v-339q0 -14 -14 -14h-39q-14 0 -14 14v532q0 14 14 14h27q12 0 19 -12l148 -345q6 -13 10 -38h4q-6 24 -6 39zM143 -139l12 87q2 16 18 16h26
q15 0 12 -15l-24 -88q-3 -13 -16 -13h-17q-13 0 -11 13z" />
    <glyph glyph-name="Ntilde.smcp" horiz-adv-x="393" 
d="M271 204v342q0 14 14 14h39q14 0 14 -14v-532q0 -14 -14 -14h-27q-14 0 -19 12l-148 343q-3 7 -11 38l-3 -1q6 -24 6 -39v-339q0 -14 -14 -14h-39q-14 0 -14 14v532q0 14 14 14h27q12 0 19 -12l148 -345q6 -13 10 -38h4q-6 24 -6 39zM105 618v29q0 16 20.5 26.5
t37.5 10.5q14 0 27 -7l25 -13q8 -4 17 -4q16 0 43 19q4 2 5 2q5 0 5 -7v-29q0 -16 -20 -26t-38 -10q-13 0 -27 6l-25 14q-8 4 -17 4q-14 0 -43 -20q-2 -2 -6 -2t-4 7z" />
    <glyph glyph-name="Eng.smcp" horiz-adv-x="393" 
d="M274 165h2q-5 20 -5 39v342q0 14 14 14h39q14 0 14 -14v-557q0 -49 -31 -79t-81 -30h-48q-14 0 -14 14v39q0 14 14 14h52q19 0 30 10.5t11 27.5v46l-141 324q-6 12 -12 38l-1 -1q5 -27 5 -39v-339q0 -14 -14 -14h-39q-14 0 -14 14v532q0 14 14 14h27q12 0 19 -12
l148 -345q7 -16 11 -38z" />
    <glyph glyph-name="O.smcp" horiz-adv-x="386" 
d="M339 455v-350q0 -49 -31 -79t-81 -30h-69q-50 0 -80.5 30t-30.5 79v350q0 49 30.5 79t80.5 30h69q50 0 81 -30t31 -79zM272 458q0 17 -11 28t-30 11h-76q-19 0 -30 -11t-11 -28v-356q0 -17 11 -28t30 -11h76q19 0 30 11t11 28v356z" />
    <glyph glyph-name="Oacute.smcp" horiz-adv-x="386" 
d="M339 455v-350q0 -49 -31 -79t-81 -30h-69q-50 0 -80.5 30t-30.5 79v350q0 49 30.5 79t80.5 30h69q50 0 81 -30t31 -79zM272 458q0 17 -11 28t-30 11h-76q-19 0 -30 -11t-11 -28v-356q0 -17 11 -28t30 -11h76q19 0 30 11t11 28v356zM162 610l42 74q5 10 17 10h61
q12 0 4 -8l-70 -78q-8 -8 -20 -8h-29q-12 0 -5 10z" />
    <glyph glyph-name="Obreve.smcp" horiz-adv-x="386" 
d="M272 102v356q0 17 -11 28t-30 11h-76q-19 0 -30 -11t-11 -28v-356q0 -17 11 -28t30 -11h76q19 0 30 11t11 28zM339 455v-350q0 -49 -31 -79t-81 -30h-69q-50 0 -80.5 30t-30.5 79v350q0 49 30.5 79t80.5 30h69q50 0 81 -30t31 -79zM279 680l-1 -10q-1 -31 -20.5 -50.5
t-51.5 -19.5h-33q-31 0 -51 19t-22 51v10q0 11 11 11h23q11 0 13 -11l2 -15q2 -20 21 -20h39q8 0 14 5.5t6 14.5l3 15q2 11 13 11h23q11 0 11 -11z" />
    <glyph glyph-name="Ocircumflex.smcp" horiz-adv-x="386" 
d="M272 102v356q0 17 -11 28t-30 11h-76q-19 0 -30 -11t-11 -28v-356q0 -17 11 -28t30 -11h76q19 0 30 11t11 28zM339 455v-350q0 -49 -31 -79t-81 -30h-69q-50 0 -80.5 30t-30.5 79v350q0 49 30.5 79t80.5 30h69q50 0 81 -30t31 -79zM230 688l58 -76q7 -9 -5 -9h-38
q-11 0 -18 10l-34 46l-35 -46q-7 -10 -18 -10h-37q-11 0 -4 9l57 76q8 9 19 9h36q13 0 19 -9z" />
    <glyph glyph-name="Odieresis.smcp" horiz-adv-x="386" 
d="M339 455v-350q0 -49 -31 -79t-81 -30h-69q-50 0 -80.5 30t-30.5 79v350q0 49 30.5 79t80.5 30h69q50 0 81 -30t31 -79zM272 458q0 17 -11 28t-30 11h-76q-19 0 -30 -11t-11 -28v-356q0 -17 11 -28t30 -11h76q19 0 30 11t11 28v356zM219 629v23q0 23 22 23h23q23 0 23 -23
v-23q0 -22 -23 -22h-23q-22 0 -22 22zM100 629v23q0 23 23 23h23q22 0 22 -23v-23q0 -22 -22 -22h-23q-23 0 -23 22z" />
    <glyph glyph-name="Ograve.smcp" horiz-adv-x="386" 
d="M339 455v-350q0 -49 -31 -79t-81 -30h-69q-50 0 -80.5 30t-30.5 79v350q0 49 30.5 79t80.5 30h69q50 0 81 -30t31 -79zM272 458q0 17 -11 28t-30 11h-76q-19 0 -30 -11t-11 -28v-356q0 -17 11 -28t30 -11h76q19 0 30 11t11 28v356zM182 684l42 -74q7 -10 -5 -10h-29
q-12 0 -20 8l-70 78q-8 8 4 8h61q12 0 17 -10z" />
    <glyph glyph-name="Ohungarumlaut.smcp" horiz-adv-x="386" 
d="M339 455v-350q0 -49 -31 -79t-81 -30h-69q-50 0 -80.5 30t-30.5 79v350q0 49 30.5 79t80.5 30h69q50 0 81 -30t31 -79zM272 458q0 17 -11 28t-30 11h-76q-19 0 -30 -11t-11 -28v-356q0 -17 11 -28t30 -11h76q19 0 30 11t11 28v356zM222 610l45 74q7 10 17 10h52
q11 0 4 -9l-64 -76q-9 -9 -20 -9h-28q-11 0 -6 10zM117 610l42 74q5 10 17 10h51q13 0 4 -9l-61 -76q-7 -9 -19 -9h-28q-13 0 -6 10z" />
    <glyph glyph-name="Omacron.smcp" horiz-adv-x="386" 
d="M339 455v-350q0 -49 -31 -79t-81 -30h-69q-50 0 -80.5 30t-30.5 79v350q0 49 30.5 79t80.5 30h69q50 0 81 -30t31 -79zM272 458q0 17 -11 28t-30 11h-76q-19 0 -30 -11t-11 -28v-356q0 -17 11 -28t30 -11h76q19 0 30 11t11 28v356zM105 630v27q0 11 11 11h153
q12 0 12 -11v-27q0 -12 -12 -12h-153q-11 0 -11 12z" />
    <glyph glyph-name="Oslash.smcp" horiz-adv-x="386" 
d="M114 101l133 394q-10 2 -16 2h-76q-19 0 -30 -11t-11 -28v-357zM272 462l-133 -396q8 -3 16 -3h76q19 0 30 11t11 28v360zM69 -32l17 51q-39 30 -39 86v350q0 49 30.5 79t80.5 30h69q23 0 41 -6l12 35q2 7 9 7q2 0 3 -1l14 -4q9 -3 7 -13l-14 -40q40 -30 40 -87v-350
q0 -49 -31 -79t-81 -30h-69q-22 0 -41 6l-15 -45q-4 -7 -10 -7q-2 0 -3 1l-14 4q-9 4 -6 13z" />
    <glyph glyph-name="Oslashacute.smcp" horiz-adv-x="386" 
d="M114 101l133 394q-10 2 -16 2h-76q-19 0 -30 -11t-11 -28v-357zM272 462l-133 -396q8 -3 16 -3h76q19 0 30 11t11 28v360zM69 -32l17 51q-39 30 -39 86v350q0 49 30.5 79t80.5 30h69q23 0 41 -6l12 35q2 7 9 7q2 0 3 -1l14 -4q9 -3 7 -13l-14 -40q40 -30 40 -87v-350
q0 -49 -31 -79t-81 -30h-69q-22 0 -41 6l-15 -45q-4 -7 -10 -7q-2 0 -3 1l-14 4q-9 4 -6 13zM162 610l42 74q5 10 17 10h61q12 0 4 -8l-70 -78q-8 -8 -20 -8h-29q-12 0 -5 10z" />
    <glyph glyph-name="Otilde.smcp" horiz-adv-x="386" 
d="M272 102v356q0 17 -11 28t-30 11h-76q-19 0 -30 -11t-11 -28v-356q0 -17 11 -28t30 -11h76q19 0 30 11t11 28zM339 455v-350q0 -49 -31 -79t-81 -30h-69q-50 0 -80.5 30t-30.5 79v350q0 49 30.5 79t80.5 30h69q50 0 81 -30t31 -79zM101 618v29q0 16 20.5 26.5t38.5 10.5
q15 0 26 -7l26 -13q8 -4 17 -4q13 0 43 19q4 2 5 2q4 0 4 -7v-29q0 -16 -20 -26t-38 -10q-14 0 -26 6l-26 14q-8 4 -17 4q-14 0 -43 -20q-2 -2 -5 -2q-5 0 -5 7z" />
    <glyph glyph-name="OE.smcp" horiz-adv-x="532" 
d="M272 102v356q0 17 -11 28t-30 11h-76q-19 0 -30 -11t-11 -28v-356q0 -17 11 -28t30 -11h76q19 0 30 11t11 28zM339 224v-157h152q14 0 14 -14v-39q0 -14 -14 -14h-205q-8 0 -11 5q-21 -9 -48 -9h-69q-50 0 -80.5 30t-30.5 79v350q0 49 30.5 79t80.5 30h69q27 0 48 -9
q3 5 11 5h205q14 0 14 -14v-39q0 -14 -14 -14h-152v-202h116q13 0 13 -14v-39q0 -14 -13 -14h-116z" />
    <glyph glyph-name="P.smcp" horiz-adv-x="347" 
d="M253 324v131q0 17 -11 27.5t-30 10.5h-90v-207h90q19 0 30 10.5t11 27.5zM55 14v532q0 14 14 14h139q50 0 81 -30t31 -79v-123q0 -49 -31 -79t-81 -30h-86v-205q0 -14 -14 -14h-39q-14 0 -14 14z" />
    <glyph glyph-name="Q.smcp" horiz-adv-x="379" 
d="M269 105v353q0 17 -11.5 28t-30.5 11h-75q-19 0 -30.5 -11t-11.5 -28v-353q0 -17 11.5 -28t30.5 -11h75q19 0 30.5 11t11.5 28zM290 -106h-27q-46 0 -74 27t-28 71v7h-6q-50 0 -80.5 30t-30.5 79v347q0 49 30.5 79t80.5 30h69q50 0 81 -30t31 -79v-347q0 -49 -30.5 -78.5
t-80.5 -30.5v-10q0 -16 10.5 -25.5t27.5 -9.5h27q14 0 14 -14v-33q0 -13 -14 -13z" />
    <glyph glyph-name="R.smcp" horiz-adv-x="363" 
d="M253 327v128q0 17 -11 27.5t-30 10.5h-90v-204h90q19 0 30 10.5t11 27.5zM320 451v-120q0 -67 -55 -95l66 -223q3 -13 -10 -13h-42q-14 0 -17 13l-63 209h-77v-208q0 -14 -14 -14h-39q-14 0 -14 14v532q0 14 14 14h139q50 0 81 -30t31 -79z" />
    </font>
</defs>
</svg>
